This file was generated by Ched 2.7.0.0.
#TITLE ""
#ARTIST ""
#DESIGNER ""
#DIFFICULTY 0
#PLAYLEVEL
#SONGID ""
#WAVE ""
#WAVEOFFSET 0
#JACKET ""
#REQUEST "ticks_per_beat 480"
#00002: 4
#BPM01: 129
#00008: 01
#TIL00: ""
#VOLUME: ""
#HISPEED 00
#MEASUREHS 00
#0011b:1313
#00112:13000013
#00115:00000013000013000000130000001300
#00118:00230023
#0021b:1313
#00215:0000000000130013
#00212:0013
#00218:00230013
#0031b:1300000013130000
#00315:00000013000013000000000000001300
#00312:00000013
#00318:00230023
#0041b:13
#0041a:00001424
#00412:0000130000140014
#00415:0013000000000000
#00418:00230000
#0081b:1300000000000013
#00818:0013130000000000
#00815:00130000
#00812:0000000000000013
#01015:00001300130000000000001300001300
#01018:00000013000013000000130013000000
#01012:2313
#0101b:2313
#01115:2300230023001313
#01118:00000000000000000000000000130000
#0111b:23232300
#01212:1313
#0121b:1313
#01218:0000131300000013
#01215:00000000001300000000000013000013
#0131b:0013000000000000
#01318:00130000
#01315:0000001300000000
#01312:0014
#01316:00000014
#0161a:14
#01615:0013000000000013
#01618:00130013
#0161b:0000001300130000
#01612:0014
#01712:0013000024000000
#01715:00130000
#01718:00000000000013000000000000540000
#0171a:24002414
#01719:0000000000000000000000000000000000000000000000000054000000000000
#01717:0000000000000000000000000000000000000000000000000000005400000000
#01716:0000000000000054
#01912:0000000000130000
#01915:0000001300001300
#01918:0000130013000013
#0191b:0013000000000000
#0201b:13
#02018:0000000013000013
#02012:1313
#02015:00130000
#02115:13130000
#02112:0013000000242400
#02118:0000001300000000
#0211b:0013
#02110:41
#02818:0000001300001300
#02812:0013
#02815:0000000000130000
#0281b:0000000000000013
#02810:41
#02915:13131300
#02918:0013001300000000
#02912:00000023
#0291b:00000023
#03015:0000131300000000
#03012:1300000000130013
#0301b:1300000000000013
#03018:0000001300000000
#03115:0000130000130013
#03118:0013130000001300
#0311b:0013
#0321b:1313
#03215:00001300000000130000130000000013
#03218:00000013000013000000001300001300
#03212:00130013
#05318:00001300000000130000130000000013
#05315:00000013000013000000001300001300
#05312:2424
#0531a:24240024
#05416:0014001400000014
#05412:2424
#0541a:00240024
#0551b:00130013
#05518:0000001300000013
#05515:00000000000000001300000000130000
#05512:24000000140000000000130000000013
#0551a:14
#0561b:1323
#05615:0013000023000000
#05618:00000013000013000000000023000000
#05612:00130023
#05715:00001300000000130000130000000013
#05718:00000013000013000000001300001300
#0571a:2424
#05712:24240024
#05816:0014001400000000
#05812:00240013
#05818:00000000000000000000000000130000
#05815:0000000000000013
#0581b:00000000000000000000000000000013
#0581a:2424
#0591a:0013000000000000
#05918:00132600
#05916:0000001300000000
#05913:0000000000130000
#05915:00000013
#05917:0000000000000013
#05912:26
#0601a:0013000000000000
#06018:00132600
#06016:0000001300000000
#06013:0000000000130000
#06015:00000013
#06017:0000000000000013
#06012:26
#00512:1313
#0051b:13000013
#00518:00000013000013000000130000001300
#00515:00230023
#00612:1313
#0061b:0013
#00615:00230013
#00618:0013001300001300
#0071b:0013
#00715:00000013
#00710:41
#01418:00001300130000000000001300001300
#01415:00000013000013000000130013000000
#0141b:2313
#01412:2313
#01410:41
#0151b:00000013
#01516:00000013
#01512:23232300
#01518:23232300
#01818:0000130013000013
#01815:0000001300000000
#01812:24000000000000000000001300000000
#0181a:24
#0221b:1300130013000013
#02216:1313
#02217:00000000000000000000001300000000
#02212:00000000130000000000001300000000
#02317:0013000000000000
#0231b:00131300
#02318:00000013
#02315:0000000000000013
#02312:0013000013000000
#02316:00130000
#0241b:1313
#02417:00000000130000000000001300000000
#02416:0000000013000013
#02412:13000000130000000000001300000000
#02517:0013000000000000
#0251b:0000130000130000
#02512:0013000000001300
#02516:00130000
#02518:0013
#02515:0000000000000013
#02612:1300130013000013
#02617:1313
#02616:00000000000000000000001300000000
#0261b:00000000130000000000001300000000
#02716:0013000000000000
#02712:00131300
#02715:00000013
#0271b:0013000013000000
#02717:00130000
#02718:00000013
#03315:00000013
#03318:00000013
#0331a:24
#03316:00240000
#03312:0024
#03412:1313
#03418:0000130000000013
#03415:00000000000013000000001300000000
#0341b:0013
#03410:41
#03515:0013000000131313
#03518:00000013000000000000001300130013
#0351b:13000000000000130000000000000000
#03512:00000000001300000000000000000000
#03615:0013000000130000
#03612:23132313
#03618:0000001300000013
#0361b:00231323
#0371b:1300000000000013
#03718:0000001300000000
#03715:0000001300000000
#03712:2300000000000023
#03918:1212
#0391a:00120012
#03913:22222222
#0401a:00000012
#04013:22222222
#04017:22222200
#04019:0023002300000000
#04117:12001212
#04114:0000120000130000
#0411b:22222222
#04214:12001212
#04217:00120000
#04216:0000000000130000
#0421b:22222222
#05118:0000000000130013
#05115:00000013
#05112:1413
#0511a:00140000
#0511b:0013
#04518:00001300000000000000001300000000
#04515:00000013000000000000130000000000
#0451a:24141400
#04516:0000001400000014
#04512:24001414
#0451f:21
#04618:0000000000001313
#04615:00000000000000000000000000130000
#0461b:23232300
#04616:24242400
#04610:41
#0471b:1313
#04712:1313
#04715:0000131300000013
#04718:00000000001300000000000013000013
#04812:0013000000001400
#04815:00130000
#04818:0000001300000000
#0481a:0014
#04816:00001414
#04915:00001300000000000000001300000000
#04918:00000013000000000000130000000000
#04912:24141400
#04916:0000001400000014
#0491a:24001414
#05016:24242414
#0501b:00000013
#05012:23232300
#0381b:13
#0381f:00110000
#03812:23
#0611a:22
#06118:00220022
#06116:00000000000000002200000000220000
#04312:2c
#05216:00240024
#05212:2323
#0521b:2323
#0621a:22
#04416:00740000
#01352:0014
#01356:00000014
#0165a:14
#01652:0014
#0175a:1414
#01752:0014
#0205b:53000000000000000000001300000000
#02052:0053
#02058:0053
#02055:00000000530000000000001300000000
#05655:0013
#05652:00000013
#0565b:0013
#05658:00000013
#0585a:1414
#05852:00140000
#05952:16
#05958:0016
#06052:16
#06058:0016
#0045a:00004444
#00452:0000000000340034
#00658:00000053
#0075b:0053
#00755:00000053
#00855:00530000
#00852:0000000000000023
#00858:00630000
#0085b:0000000000000023
#01055:00130000
#01058:00000013
#01255:00000000000000000000000000000053
#0125b:13
#01252:0013
#01458:00130000
#01455:00000013
#01556:00000063
#01858:0000000053000013
#01852:00000000000000000000005300000000
#01855:0000000000000013
#02152:0000000000343400
#02256:0053
#02252:00000000000000000000005300000000
#0245b:0053
#02457:00000000000000000000005300000000
#0265b:00000000000000000000006300000000
#02657:0063
#02755:00000053
#0305b:5300000000130000
#03058:0000005300000000
#03052:0000000000130063
#03155:00630000
#0315b:0013
#03152:0013
#03358:00000053
#0335a:14
#03356:00140000
#03352:0014
#03452:23
#0345b:0053
#03455:00000000000000000000005300000000
#03552:00000000001300000000000000000000
#0355b:00000000000000130000000000000000
#0375b:53
#03752:53
#03758:0000002300000000
#03755:0000002300000000
#04352:5c
#05252:0013
#0525b:13
#05152:14
#0515a:00140000
#0455a:00140000
#04552:00000014
#04758:00000000000000000000000000000063
#0485a:0014
#04856:00001414
#04852:00000014
#05452:1414
#0545a:00140000
#04952:00140000
#0495a:00000014
#0505b:00000053
#0625a:12
#006380:00000013
#0073b0:23
#007321:13000023000000000000000000000000
#007380:00000013000023000000000000000000
#007351:0000001323000000
#0073b0:0013
#007380:00000023
#007351:00000013
#008321:23
#008351:00130000
#008321:0000000000000053
#009351:0023
#008380:00130000
#0083b0:0000000000000053
#009380:0023
#0113b0:13
#011380:0023000000000000
#011351:13
#011321:0023000000000000
#0113b1:00130000
#011381:0000002300000000
#011350:00130000
#011320:0000002300000000
#012350:00000000000000000000000000000013
#013320:0023000000000000
#015320:13
#015350:0023000000000000
#015381:13
#0153b1:0023000000000000
#015321:00130000
#015351:0000002300000000
#015380:00130000
#0153b0:0000002300000000
#015360:00000013
#016320:23
#018380:0013
#0183b0:00000000000000000000002300000000
#018321:00000000000000000000001300000000
#018351:0000000000000023
#0203b1:13
#020381:00230000
#020350:00000000130000000000002300000000
#020320:0033
#020381:0013
#0203b1:00000000000000000000002300000000
#022361:0000000013000023
#022321:00000000000000000000003300000000
#0243b1:0000000013000023
#024371:00000000000000000000003300000000
#025321:0013
#025351:0000000000230000
#025381:00000013
#0253b1:0000000000000023
#026371:0000000013000023
#0263b1:00000000000000000000003300000000
#027351:00000013
#028321:23
#0283b0:13000023000000000000000000000000
#028351:00000013000023000000000000000000
#0303b1:13
#030381:00230000
#030381:0000001300000000
#0303b1:0000000000230000
#030321:0000000000000013
#031351:0023000000000000
#031351:00130000
#031321:0023
#033381:00000013
#0343b1:23
#034320:13
#034350:00230000
#0343b0:0013
#034380:00000000000000000000002300000000
#034351:00000000000000000000001300000000
#034321:0000000000000023
#037321:13000023
#037351:0000005300000000
#0373b0:13000023
#037380:0000005300000000
#043320:1c
#044360:00240000
#0463b0:13
#046370:0023000000000000
#046361:14
#046321:0024000000000000
#0463b1:00130000
#046371:0000002300000000
#046360:00140000
#046320:0000002400000000
#047380:00000000000000000000000000000013
#0483b0:0023000000000000
#050320:13
#050360:0023000000000000
#050361:14
#0503a1:0024000000000000
#050321:00130000
#050361:0000002300000000
#050360:00140000
#0503a0:0000002400000000
#0503b0:00000013
#051370:23
#0179a0:00000014
#017960:0000000000000024
