This file was generated by Ched 2.7.0.0.
#TITLE ""
#ARTIST ""
#DESIGNER ""
#DIFFICULTY 0
#PLAYLEVEL
#SONGID ""
#WAVE ""
#WAVEOFFSET 0
#JACKET ""
#REQUEST "ticks_per_beat 480"
#00002: 4
#BPM01: 129
#00008: 01
#TIL00: ""
#VOLUME: ""
#HISPEED 00
#MEASUREHS 00
#0011b:1313
#00115:0013000000000000
#00118:00130000
#00112:0000001300000013
#00815:0013000000000000
#00818:00130000
#01018:0013001300130013
#01015:00130013
#01012:2313
#01118:00230013
#01115:0000000000000013
#01112:2323
#0121b:13
#01215:0000130000000013
#01218:0000001300001300
#01212:0013
#01318:0013000014000000
#01315:00130000
#01312:0000001300000000
#01314:00000014
#0131b:13
#01615:0013000000001300
#01618:0000130000130000
#0161b:0000001300000000
#01612:1300000014000013
#01715:0013000000000000
#01718:00130000
#0171b:0000001300000000
#0171a:24
#01712:0024
#0191b:0013001300130000
#01918:00000013
#01915:0000130013000013
#02012:1300000000000013
#02018:0013
#02118:1313
#02115:0013000000000000
#0211b:00130000
#02112:0000001300000000
#02114:0000000000242400
#02110:41
#02812:0013
#02815:0000000000130000
#02818:00000013
#0281b:0000000000000013
#02810:41
#02915:13000013
#02912:0013
#02918:0013000000130000
#0291b:0000000000000013
#03118:00000013
#03115:0000000000000013
#0311b:00130000
#03112:0000000000130000
#0321b:1300001313000013
#03212:0013130000131300
#03218:00000013000000000000001300000000
#03215:00000000000000130000000000000013
#05318:0013000000130000
#05315:0000001300000013
#05312:2424
#0531a:00240024
#05418:0014001400002400
#05414:0000240000000014
#05412:2424
#05512:00130013
#05518:0000001300000000
#05515:0000000013000033
#0551b:0000000000130000
#0551a:24
#0561b:0013000000000000
#05615:00000000130000000000001300000000
#05618:0000001300000000
#05612:0013
#05815:00000013
#05818:0000240000000013
#05814:0014001400000000
#0581a:2424
#0591b:0013000000000000
#05918:0000130000000013
#05915:0000001300001300
#05912:2400000000130000
#0591a:0024
#0601b:0013000000000000
#06018:0000130000000013
#06015:0000001300001300
#06012:2400000000130000
#0601a:0024
#01815:00131300
#01818:0000001300000000
#01812:00000000000000000000001300000000
#0181a:24
#02712:00130013
#02718:1313
#02715:0013001300000000
#03018:0000001300000000
#03015:13
#03012:0000000000000013
#03312:00000013
#0331b:23000013
#03315:00230000
#03318:0023
#03412:1313
#03418:0000001300000000
#03415:00000000000000000000001300000000
#03410:41
#03512:0000000000130000
#03515:0013000000001300
#03518:00000013000000000000000000001300
#0351b:13
#0371b:13
#03712:23
#00215:1300130000130013
#00218:0013000000000000
#00212:0000001300000000
#0021b:00001313
#0031b:0013000000000013
#00318:00130000
#00315:0000001300000000
#00312:0013
#00418:1300130000140014
#00415:0013000000000000
#0041b:0000001300000000
#00414:00001424
#00518:0013000000000000
#00515:00130000
#0051b:0000001300000013
#00512:1313
#00618:13130000
#00615:0013000000000000
#0061b:0000001300001300
#00612:0013
#00718:0013
#0071b:00000013
#00710:41
#01415:0013001300130013
#01418:00130013
#0141b:2313
#01410:41
#01515:00230013
#01518:0000000000000013
#0151b:2323
#0221b:1300000000000013
#02212:13
#02218:0013001300000000
#02215:00131300
#02315:13001313
#02318:0013001300000000
#0231b:00130000
#02312:0000000000130000
#0241b:13
#02415:0013001300000000
#02418:00131300
#02412:0000000000000013
#02518:13
#02515:0013000000000000
#0251b:00130000
#02512:0000001300000000
#02612:1300000000000013
#0261b:13
#02615:0013001300000000
#02618:00131300
#03618:0013001300001300
#03615:00000000130000130000000000001300
#03612:23
#0451b:0013001300130013
#04516:00140014
#04512:2414
#0451f:21
#04618:00000013
#04615:0000000000000013
#04612:2424
#04617:00240000
#04610:41
#0471b:13
#04715:0000130000000013
#04718:0000001300001300
#04712:0013
#04818:0013000014000000
#04815:00130000
#04812:0000001300000000
#04814:00000014
#0481b:13
#04912:0013001300130013
#04916:00140014
#0491a:2414
#05015:00240013
#0501a:2424
#05118:0000130000130000
#05112:0013
#05115:00000013
#0511b:0000000000000013
#05715:0013000000130000
#05718:0000001300000013
#0571a:2424
#05712:00240024
#0381f:00110000
#0611b:23
#06118:00000000230000000000000000230000
#06115:0023
#06112:00000023
#05216:00240024
#0521a:0024
#05212:24
#03912:24
#03916:00240024
#0391a:0024
#04012:24
#0401a:0024
#04016:00240024
#0411a:24
#04116:00240024
#04112:2424
#0421a:2424
#04216:00240024
#04212:24
#0431a:24
#04312:24
#06215:23
#04416:00740000
#01358:0014
#01354:00000014
#01752:0014
#0205b:00000000000000000000001300000000
#02058:0053
#02052:63
#05952:14
#0595a:0014
#06052:14
#0605a:0014
#00858:00630000
#01055:00130013
#01855:0000000053000013
#01852:00000000000000000000005300000000
#02752:00000053
#03058:0000005300000000
#0305b:0000000000130000
#03055:53
#03052:0000000000000063
#03452:2353
#03455:00000000000000000000005300000000
#0375b:53
#03752:53
#0525a:0014
#05252:14
#05452:1414
#05454:00140000
#00158:00000000000000000000001300000000
#0015b:0053
#00255:0000000000000013
#00355:00000000000000000000001300000000
#00352:0053
#00458:0000000000140014
#00454:00001414
#00552:0063
#00555:00000000000000000000001300000000
#0065b:00000053
#00758:0053
#0075b:00000053
#01458:00130013
#02252:00000000000000000000001300000000
#02255:0053
#02352:0000000000530013
#02355:00005353
#02458:0063
#0245b:00000000000000000000001300000000
#02658:0063
#0265b:00000000000000000000001300000000
#02958:0053000000000000
#0315b:00630000
#03158:0013
#03558:00000053000000000000000000000000
#03655:00000000000000530000000000000000
#0435a:54
#04556:00140014
#04858:0014
#04854:00000014
#04956:00140014
#05055:00000053
#05152:13
#05158:00130000
#05555:00000000000000000000000000000013
#05552:00000053
#05652:0053
#05655:00000000000000000000005300000000
#0585a:1414
#05858:00140000
#06255:13
#03358:0013
#03355:00130000
#0335b:13
#0013b0:0013
#001380:00000000000000000000002300000000
#003320:0013
#003350:00000000000000000000002300000000
#005320:0013
#005350:00000000000000000000002300000000
#0063b0:00000013
#007380:23
#007321:1300002300000000
#007351:00000033000000000000000000000000
#007381:0013
#0073b1:00000033
#008381:23
#008381:00130000
#0093b1:0023
#011321:13
#011351:0023000000000000
#011381:00130000
#0113b1:0000002300000000
#0153b1:13
#015381:0023000000000000
#015351:00130000
#015321:0000002300000000
#018351:0000000013000023
#018321:00000000000000000000003300000000
#020321:13
#020351:00230000
#020381:0013
#0203b1:00000000000000000000002300000000
#022351:0013
#022321:00000000000000000000002300000000
#023351:00001333
#023321:0000000000330023
#024381:0013
#0243b1:00000000000000000000002300000000
#025381:0013
#0253b1:0000000000230000
#025351:00000013
#025321:0000000000000023
#026381:0013
#0263b1:00000000000000000000002300000000
#027321:00000013
#028351:23
#0283b0:1300002300000000
#028380:00000033000000000000000000000000
#029380:0013000000000000
#0293b0:0000002300000000
#030350:13
#030320:00230000
#030380:0000001300000000
#0303b0:0000000000230000
#030320:0000000000000013
#031350:0023000000000000
#0313b0:00130000
#031380:0023
#034320:13
#034350:00230000
#034320:0000000013000023
#034350:00000000000000000000003300000000
#035380:00000013000000000000000000000000
#0353b0:00000000003300230000000000000000
#036350:00000000000000130000000000000000
#036320:0000000000230000
#037320:13
#037350:0000000000000033
#038350:23
#0373b1:13
#037381:0000000000000033
#038381:23
#0433a1:14
#044361:00240000
#046321:14
#046351:0024000000000000
#046371:00140000
#0463a1:0000002400000000
#0503a1:14
#050371:0024000000000000
#050351:00140000
#050321:0000002400000000
#050351:00000013
#051321:23
#055321:00000013
#055351:00000000000000000000000000003323
#056321:0000000013000023
#056351:00000000000000000000003300000000
