This file was generated by Ched 2.7.0.0.
#TITLE ""
#ARTIST ""
#DESIGNER ""
#DIFFICULTY 0
#PLAYLEVEL
#SONGID ""
#WAVE ""
#WAVEOFFSET 0
#JACKET ""
#REQUEST "ticks_per_beat 480"
#00002: 4
#BPM01: 129
#00008: 01
#TIL00: ""
#VOLUME: ""
#HISPEED 00
#MEASUREHS 00
#00118:0012
#00114:1200001200001200
#00116:00000012000000000000120000001200
#0011b:00230023
#00218:1212
#00214:00121200
#0021b:00230000
#00318:1212
#00316:00000012000000000000120000001200
#00314:0000001200001200
#0031b:00230023
#00418:1200000000130000
#0041a:00001424
#00416:0012001200000000
#00414:00120000
#00415:00001313
#0041b:00230000
#00812:001300001300000000000000
#0081b:230000000013000000000013000000000000000000000000
#00814:00000000000000000000001400002400
#00818:00002300000023000000240000000014
#00815:00232300
#0081a:00000024
#01014:0013000000130000
#01017:00000013000000000000001300000000
#01012:24140014
#01018:0000001300000013
#01015:00000000000000130000000000000000
#0101b:0013
#0101a:24130013
#01115:000000000054000000000000000000000000000000000000000000540000000000000000000000000000000000000000000000000000000000000000130000000000000000000000130000000000000000000000160000000000000000000000
#01112:24000000240000002400000000130000
#01118:005400000000000000000000000000000000000000000000000000000000000000130000000000000000000000000000
#0111a:24242400
#01119:005400000000000000000000000000000000000000000000000000000000000000000000000000000000000000000000000000000000000000000000000000000000000000000000000000000000000000000000000000000000000000000000
#01117:000000540000000000000000000000000000000000000000000000000054000000000000000000000000000000000000000000000000000000000000000000000000000000000000000000000000000000000000000000000000000000000000
#01116:005400000000005400000000000000000000000000000000
#01113:000000000000000000000000000000000000000000000000005400000000000000000000000000000000000000000000000000000000000000000000000000000000000000000000000000000000000000000000000000000000000000000000
#01114:000000000000000000000000005400000000000000000000000000000000000000000000000000000000000000000000
#01212:1414
#0121a:1414
#01218:00001300130000000000001300001300
#0121b:00000000001300000000000000130000
#01215:00000013000016000000130013000013
#0131b:0013000000000000
#01315:00130000
#01312:0000001300001400
#01316:00001414
#0131a:0014
#01318:24000024000024000000000000000000
#01618:16
#01612:0013000016000013
#01614:00130013
#01616:0000001300130000
#01617:0013000000000013
#01619:00130013
#0161b:0000001300130000
#01712:0014001424000054
#0171a:00142414
#01717:0013001300000000
#01716:00000000130000000000000000540000
#01718:2600000000000000000000000000000000000000000000000054000000000000
#01714:0000000000000000000000000000000000000000000000000000005400000000
#02812:00000014000000001300000000000000
#02819:0000000000130000
#0281b:00000013
#02814:0000000000000013
#0281a:1400001400000000
#02816:00001414
#02810:41
#02912:13000024
#02914:0014000000000000
#02916:14140000
#02918:0000001400000000
#0291a:00000024
#03112:0014140000130000
#03114:00000013
#03116:0000140014000013
#03117:0000000000130000
#03119:00000013
#0311b:0000000000000013
#03212:14140014
#03218:00001300000000000000000000000013
#03215:00000013000000000000000000001300
#03214:0000001300000000
#03217:00000000000000130000000000000000
#0321a:1414
#03219:0000000000130000
#03216:00000000000000000000001300000000
#05319:0013000000130000
#05317:00000013000000000000001300000000
#05314:0000241300002413
#05316:00000000000000130000000000000013
#05318:2424
#0531a:00240024
#05312:0024
#05416:00001400000014000000001400140014
#05412:2400000024140014
#0541a:00240024
#05418:2424
#05414:00240000
#05516:0012001200000000
#05512:24141413
#0551a:1400000000140000
#05515:00000000000000000000000000130000
#05518:0000000000000013
#0551b:00000000000000000000000000000013
#05519:00000012001200120000000000000000
#05612:13132626
#05615:00000013000000000000000000000000
#0561b:00130000
#05618:0013001300000000
#0561a:0000000014000014
#05616:00000000000000000000001400000000
#0591a:2413000000000014
#05918:00130014
#05916:0014001300140000
#05913:0000000000130000
#05915:00000013
#05917:0000000000000013
#05912:140000142c000000
#05914:00140000
#0601a:0013000000000014
#06018:00130014
#06016:0014001300140000
#06013:0000000000130000
#06015:00000013
#06017:0000000000000013
#06014:00140000
#06012:2c0000142c000000
#00612:00230013
#0061b:00000013
#00616:1212
#0061a:00121200
#00618:0000001200000000
#0151b:00000013
#01518:000000000000000000000000005400000000000000000000000000000000000000000000000000130000000000000000
#01515:000000540000000000000000000000000000000000000000000000000054000000000000000000000000000000000000000000000000000000000000000000000000000000000000000000000000000000000000130000000000000000000000
#01512:24000000240000002400000000000013
#0151a:24242400
#01513:005400000000000000000000000000000000000000000000000000000000000000000000000000000000000000000000000000000000000000000000000000000000000000000000000000000000000000000000000000000000000000000000
#01514:005400000000000000000000000000000000000000000000000000000000000000000000000000000000000000000000
#01516:005400000000005400000000000000000000000000000000
#01517:000000000054000000000000000000000000000000000000000000540000000000000000000000000000000000000000000000000000000000000000000000000000000000000000000000000000000000000000000000000000000000000000
#01519:000000000000000000000000000000000000000000000000005400000000000000000000000000000000000000000000000000000000000000000000000000000000000000000000000000000000000000000000000000000000000000000000
#02212:14000000000074000074000074000074
#02219:00130000
#0221b:0013000013000013
#02217:0000001300000000
#02417:0013000013000013
#02419:00130000
#0241b:0000001300000000
#02412:00007400000074000074000074000074
#02319:13130000
#02317:0013000013001300
#0231b:0000001300130013
#02312:00000074000074000000740000007400
#02517:0013001300000000
#0251b:13130000
#02516:0014
#0251a:00001414
#02512:00000074000074000000140000001400
#03012:14
#03016:1400001400140014
#0301a:0000141400000014
#03018:00000014
#03516:00001200001200000012120000000000
#03512:00000013
#0351b:12000000000000000000000000130000
#03515:0000000000000013
#03518:0000000000001200000000000000000000000012000012000000000000001300
#03517:12
#03417:0000001200000012
#03413:0012
#0341b:00121200
#03416:00000000000000000000001200000000
#03410:41
#03412:54
#03616:0014001400140014
#03612:00130013
#0361b:1313
#03614:2424
#03618:00240024
#03917:12000000000000121200000000000000
#0391b:00000012120000000000000000121200
#03919:00000000000000000000121200000000
#03912:24242424
#0401a:0023002300001200
#04018:0000000000000012
#04012:24242424
#04017:22222200
#04116:12000000005200121200000000000000
#04113:0000000032123200000000000000000000000000120000000000000000000000
#04117:00000012
#04115:0000000000000012
#0411a:24242424
#00516:0012
#0051a:1200001200001200
#00518:00000012000000000000120000001200
#00512:00230023
#00712:13000013
#0071b:00000013000000001300000000000000
#00716:0000000000140014
#00710:41
#00913:001600000000
#00917:00160000
#00918:000000000016000000000000
#00916:001600000000000000000000
#00914:001600
#00912:26
#01419:0013000000130000
#01416:00000013000000000000001300000000
#0141a:24140014
#01415:0000001300000013
#01418:00000000000000130000000000000000
#01412:2413
#01413:00130013
#01410:41
#01817:0000140000131400
#01815:00000000000000000000000000000000000000000000000013000000000000000000000000000000005300000000000000000000000000001300000000000000
#0181a:2414
#01812:240000000000000000000000000000000000000000000000000000000000000000000000000000000000000000000000000000000000000000000000000000000000000000000000000000000000000000000000000000000000000000000000000000000000000000000000000000000000000000000000000000000000000000000000000000000000000000000000000000000000000000537300000000000000000000000000000000000000000000000000000000000000000000000000000000000000000000000000000000000000000000000000000000000000000000000000000000000000000000000000000000000000000000000000000000000000000000000000000000000000000000000000000000000000000000000000000000000000000000000000000000000000000000000000000000000000000000000000000000000000000000000000000000000000000000537300000000000000000000000000000000000000000000000000000000000000000000000000
#01814:000000000000000000000000000000000000000000000000000000000000000000000000000000000000000000000000000000000000000000000000000000000000000000000000000000000000000000000000000000000000000000000000000000000000000000000000000000000000000000000000000000000000000000000000000000000000000000000000000000530000000000000000000000000000000000000000000000000000000000000000000000000000000000000000000000000000000000000000000000000000000000000000000000000000000000000000000000000000000000000000000000000000000000537300000000000000000000000000000000000000000000000000000000000000000000000000000000000000000000000000000000000000000000000000000000000000000000000000000000000000000000000000000000530000000000000000000000000000000000000000000000000000000000000000000000000000000000000000
#01813:00000000000000000000000000000000000000000000000000530000000000000000000000000000000000000000000000000000000000000053000000000000
#01816:0000000000000000000000000000000000000000000000000000000000000000000000000000000000000000000000000000000000000000000000000000000000000000000000000000000000000000005300000000000000000000000000000000000000000000000000000000000000000000000000000000000000000000
#0191a:1414
#01917:0013140000000000
#01915:00000000000000000053000000000000000000000000000013000000000000000000000000000000130000000000000000000000000000001300000000000000
#01918:00000013
#01916:0000000000000000000000000000000000530000000000000000000000000000000000000000000000000000000000000000000000000000000000000000000000000000000000000000000000000000000000000000000000000000000000000000000000000000000000000000000000000000000000000000000000000000
#01914:000000000000000000000000000000000000000000000000000000000000000000000000000000000000000000000000000000000000000000537300000000000000000000000000000000000000000000000000000000000000000000000000000000000000000000000000000000000000000000000000000000000000000000000000000000000000000000000000000000530000000000000000000000000000000000000000000000000000000000000000000000000000000000000000000000000000000000000000000000000000000000000000000000000000000000000000000000000000000000000000000000000000000000000000000000000000000000000000000000000000000000000000000000000000000000000000000000000000000000000000000000000000000000000000000000000000000000000000000000000000000000000000000000000000000000000000000000000000000000000000000000000000000000000000000000000000000000000000
#01913:00000000000000000000000000000000000000000000000000530000000000000000000000000000000000000000000000000000000000000000000000000000
#01912:000000000000000000000000000000000000000000000000000000000000000000000000000000000000000000000000000000000000000000000000000000000000000000000000000000000000000000000000000000000000000000000000000000000000000000000000000000000000000000000000000000000000000000000000000000000000000000000000000000000000000000537300000000000000000000000000000000000000000000000000000000000000000000000000000000000000000000000000000000000000000000000000000000000000000000000000000000000000000000000000000000000000000000000000000000000000000000000000000000000000000000000000000000000000000000000000000000000000000000000000000000000000000000000000000000000000000000000000000000000000000000000000000000000000000000000000000000000000000000000000000000000000000000000000000000000000000000000000
#02012:14
#0201a:14000000140000000000001400000000
#02017:0014000000000000
#02015:0000001400000000
#02016:0000000014000014
#0211a:14141400
#02112:14141400
#02116:0014001400000013
#02119:000000000000000000000000000013000013000013000013
#02115:0000000000242400
#02110:41
#02614:00130000
#02612:0013000013000013
#02616:0000001300000000
#0261a:00007400000074000074000074000074
#02716:13130014
#02712:0013000000000000
#0271a:000000000000000000000000000000000000000000000000000000000000000000000000000000000000000000000000000000000000000000000000000000000000000000000000740000000000000000000000000000000000000000000000000000000000000000000000000000000000000000000000000000000000000000000000000000000000000000000000740000000000000000000000000000000000000000000000000000000000000000000000000000000000000000000000007400000000000000000000000000000000000000000000000000000000000000000000000000000000000000000000000000000000000000000000000000000000000000000000000000000000000000000000000000000000000000000000140000000000000000000000000000000000000000000000000000000000000000000000000000000000000000000000000000000000000000000000000000000000000000000000000000000000000000000000000000000000000000000000
#03312:14242400
#03317:0000000014000000000000000000000000000000000000000000005400000000
#0331a:24142414
#03315:0000000000000000000000001400000000000000000000000000000000540000
#03319:0000000000000000000000000000000000000000000000000054000000000000
#03318:00000000000000000000000000540000
#03316:0000000000000054
#03314:00000000000000000000000000000054
#03313:0000000000000000000000000000000000000000000000000000000000000054
#0371b:13
#03712:0013000000000000
#03715:0000000000001300000000140000000000000000000000000000000000000000
#03718:0000005300000000000000000000000024000000000000000000000000001200
#03714:24000000000000000000001400000000
#03716:0000000000000000000000000000000000000014000000000000000012000000
#03713:00000000000000140000000000000000
#03717:0053240000000000
#03719:00530000000000000000000024000000
#0371a:0053000000000000000000000000000000000000000000000000000000000000
#04216:0000000032123200000000000000120012000000000000001200000000000000
#04213:12000000005200000000120000000000
#0421a:24242424
#04519:0013000000130000
#04516:00000013000000000000001300000000
#0451a:24141414
#04515:0000001300000013
#04518:00000000000000130000000000000013
#04512:2414
#04513:00130013
#0451f:21
#04618:0056000000000000260000000000000000000000000000001300000000000000
#0461b:00000000000000000000000000130000
#04612:2600000000000000245600000000000024000000130000000000000019000000
#04615:00000000000000000000001300000000
#0461a:2424
#04610:41
#04616:000056000000000000000000000000000000000000000000005600000000000000000000000000000000000000000000000000000000000000000000000000000000000000000000000000000000000000000000000000000000000000000000
#04614:005600000000000000000000000000000000000000000000000056000000000000000000000000000000000000000000000000000000000000000000000000000000000000000000000000000000000000000000000000000000000000000000
#0471a:14001414
#04712:14000000001300001400140000130000
#04715:0000131900000013
#04716:00000000000000000000001400000000
#04718:00000013000000000000000000000013
#0471b:0013000000000000
#04812:0013000014000000
#04818:00130000
#0481b:0000001300000000
#0481a:00000014
#04816:00001414
#04814:24000024000024000000000000000000
#0521b:0012
#05218:00000000000014000012000000000000
#05215:0000000000120000
#05212:24000000000000002400001200000000
#0521c:00000012
#05219:00000000000000000000000000120000
#05216:0000240000000012
#05213:00000000000000000000000000000012
#05214:0014000000000000
#0521a:24
#04914:0013000000130000
#04917:00000013000000000000001300000000
#04912:24141414
#04918:0000001300000013
#04915:00000000000000130000000000000013
#0491a:24131413
#05116:00000000000000140000330000000000
#05112:13
#0511b:0013
#05114:0000000000000013
#05119:0000000000000013
#05117:00000033000000000000000000000000
#05714:2413000024130000
#05716:00000013000000000000001300000000
#05719:0000001300000013
#05717:00000000000000130000000000000013
#05712:00240024
#0571a:2424
#05718:00240024
#05816:00001400000014000000001400140014
#0581a:2400000000140014
#05812:00242624
#05814:24
#05818:00242600
#0501a:00242414
#05016:005600000000000000000000000000000000000000000000000056000000000000000000000000000000000000000000000000000000000000000000000000000000000000000000000000000000000000000000000000000000140000000000
#05012:2456000000000000260000000000000024000000000000001400000000000000
#05018:2600000000000000005600000000000000000000000000000000000000000000
#05014:000056000000000000000000000000000000000000000000005600000000000000000000000000000000000000000000000000000000000000000000000000000000000000000000000000000000000000000000000000000000000000000000
#0381f:00110000
#03812:24
#0381a:24
#03816:000000000000000000000000000000000000000000000000000000000000000000000000000000000000000000000000000000000000000000000000000000000000000000000000000000000000000000000000000000000000000000000074740000000000000000000000000000000000000000000000000000000000000000000000000000000000000000000000000000000000000000000000000000000000000000000000000000000000000000000000000000000000000000000000000000000000000000000000000000000000000000000000000000000000000000000000000000000000000000000000000000000000000000000000000000000000000000000000000000000000000000000000000000000000000000000000000000000000000000000000000000000000000000000000000000000000000000000000000000000000000000000000000000000000000000000000000000000000000000000000000000000000000000000000000000000000000000000000
#06117:00220000
#06113:0022
#06116:00000022
#06118:00000000000000000000000000220000
#0611b:22
#06214:22
#04312:2c8c8c000000000000000000000000000000000000000000000000000000000000000000000000000000000000000000000000000000000000000000000000000000000000000000000000000000000000000000000000000000000000000000000000000000000000000000000000000000000000000000000000000000000000000000000000000000000000000000000000000000000000000000000000000000000000000000000000000000000000000000000000000000000000000000000000000000000000000000000000000000000000000000000000000000000000000000000000000000000000000000000000000000000000000000000000000000000000000000000000000000000000000000000000000000000000000000000000000000000000000000000000000000000000000000000000000000000000000000000000000000000000000000000000000000000000000000000000000000000000000000000000000000000000000000000000000000000000000000
#04412:00730000
#0441b:00730000
#01752:0014
#0175a:0014
#01758:46
#0065b:00000053
#01052:14140014
#0105a:14
#02155:0000000000343400
#02152:3434
#0215a:00440000
#03052:6400000000140000
#03056:1400006400000014
#0305a:0000000000000054
#0345b:0052
#03456:00000000000000000000005200000000
#05452:1414
#05458:1414
#05454:00140000
#0545a:00140000
#00455:00005353
#00458:0000000000530000
#0045a:00001414
#00452:0000000000140014
#00752:23
#0075b:00000023000000000000000000000000
#01155:0049000000000000
#01152:0000003900000000
#0125a:1414
#01252:1414
#01255:00000000000000000000000000000053
#01352:00000034
#0135a:0044
#0145a:14140014
#01452:14
#01552:0039000000000000
#01555:0000004900000000
#01658:46
#01652:0036
#0185a:1444
#01852:14
#01857:00440044
#0195a:4444
#01957:00440000
#02052:54000000340000000000001400000000
#02057:0024000000000000
#0205a:44000000640000004400001400000000
#02055:0000002400000000
#02056:0054
#02252:34
#02257:00000000000000000000001300000000
#0225b:0053
#0235b:0000000000000013
#0245b:00000000000000000000001300000000
#02457:0053
#02557:0000001300000000
#0255a:00005454
#02552:0000000000540054
#02652:0063
#02656:00000000000000000000001300000000
#02756:00630054
#02752:0013
#02852:14000024000000003300000000000000
#0285a:24
#0285b:00000043
#02952:33000014
#0295a:00000014
#03156:00540000
#0315a:0014
#0325a:0044
#03252:00340034
#03352:54343400
#0335a:44544400
#03357:0024000000000000
#03355:0000002400000000
#0355a:00000000000000130000000000000000
#03553:00000000000000130000000000000000
#03558:00000052000000000000000000000000
#03556:00000000005200000000000000000000
#03654:3434
#03658:00440044
#0385a:54
#03852:54
#04157:00000012
#04156:52
#04153:0000000000220000000000000000000000000000000000000000000000000000
#04256:0000000000220000000000000000000000000000000000001200000000000000
#04253:62
#0455a:14140014
#04552:5454
#0475a:1414
#04752:1414
#04758:00000000000000000000000000000063
#0485a:00000044
#04852:0034
#04952:14140014
#0495a:6464
#05157:00330000
#05152:53
#0515b:0063
#05156:00000043
#0525a:44
#05252:0034
#05652:00003636
#05552:0014
#0555a:0000000000140000
#0585a:14
#05854:14
#05858:00144600
#05852:00143600
#05952:004c
#0595a:14
#06052:3c4c
#06158:00000000000000000000000000520000
#06254:12
#0625a:12
#04352:005c5c000000000000000000000000000000000000000000000000000000000000000000000000000000000000000000000000000000000000000000000000000000000000000000000000000000000000000000000000000000000000000000000000000000000000000000000000000000000000000000000000000000000000000000000000000000000000000000000000000000000000000000000000000000000000000000000000000000000000000000000000000000000000000000000000000000000000000000000000000000000000000000000000000000000000000000000000000000000000000000000000000000000000000000000000000000000000000000000000000000000000000000000000000000000000000000000000000000000000000000000000000000000000000000000000000000000000000000000000000000000000000000000000000000000000000000000000000000000000000000000000000000000000000000000000000000000000000000
#04652:003c004c00000000
#05052:004c003c00000000
#00855:0013
#002360:00000012
#003360:22
#004350:0013
#004320:0000000000240000
#004381:0000000000130000
#0043a1:00000024
#004350:00000013
#004320:0000000000000024
#0063b0:00000013
#007370:23
#007321:13
#007361:00000024000000000000000000000000
#0073b0:00000013000000000000000000000000
#007360:0000002400000000
#007321:0000001323000000
#011351:000000000000000000000000000000000000000014000000000000000000000000000000000000000000000000000054290000000000000000000000000000000000000000000000000000000000000000000000000000000000000000000000000000000000000000000000000000000000000000000000000000000000000000000000000000000000000000000000000000000000000000000000000000000000000000000000000000000000000000000000000000000000000000000000000000000000000000000000000000000000000000000000000000000000000000000000000000000000000000000000000000000000000000000000000000000000000000000000000000000000000000000000000000000000000000000000000000000000000000000000000000000000000000000000000000000000000000000000000000000000000000000000000000000000000000000000000000000000000000000000000000000000000000000000000000000000000000000000
#011371:000000000000000000000000000000000000000000000000000000000000000000000000000000000000000000000000000000000000000000000000000000000000000000000000000000000000000000000000000000000000000000000000000000000000000000000000000000000000000014000000000000000000000000000000000000000000000000000054000000000000000000000000000000000000000000000000000000000000000000000000000000000000000000000000000000000000000000000000000000000000000000000000000000000000000000000000000000000000000000000000000000000000000000000000000000000000000000000000000000000000000000000000000000000000000000000000000000000000000000000000000000000000000000000000000000000000000000000000000000000000000000000000000000000000000000000000000000000000000000000000000000000000000000000000000000000000000000000000
#011321:0000002900000000
#012351:00000000000000000000000000000013
#013321:0023000000000000
#015371:000000000000000000000000000000000000000014000000000000000000000000000000000000000000000000000054000000000000000000000000000000000000000000000000000000000000000000000000000000000000000000000000000000000000000000000000000000000000000000000000000000000000000000000000000000000000000000000000000000000000000000000000000000000000000000000000000000000000000000000000000000000000000000000000000000000000000000000000000000000000000000000000000000000000000000000000000000000000000000000000000000000000000000000000000000000000000000000000000000000000000000000000000000000000000000000000000000000000000000000000000000000000000000000000000000000000000000000000000000000000000000000000000000000000000000000000000000000000000000000000000000000000000000000000000000000000000000000000
#015321:0029000000000000
#015351:000000000000000000000000000000000000000000000000000000000000000000000000000000000000000000000000000000000000000000000000000000000000000000000000000000000000000000000000000000000000000000000000000000000000000000000000000000000000000014000000000000000000000000000000000000000000000000000054290000000000000000000000000000000000000000000000000000000000000000000000000000000000000000000000000000000000000000000000000000000000000000000000000000000000000000000000000000000000000000000000000000000000000000000000000000000000000000000000000000000000000000000000000000000000000000000000000000000000000000000000000000000000000000000000000000000000000000000000000000000000000000000000000000000000000000000000000000000000000000000000000000000000000000000000000000000000000000000000
#018321:000000000000000000000000000000000000000000000000000000000000000000000000000000000000000000000000000000000000000000000000000000000000000000000000000000000013000000000000000000000000000000000000230000000000000000000000000000000000000000000000000000000000000000000000000000000000000000000000000000000000000000000000000000000000000000000000000000000000000000000000000000000000000000000000
#018341:000000000000000000000000000000000000000000000000000000000000000000000000000000000000000000000000000000000000000000000000000000000000000000000000000000000000000000000000000000000000000000000000000000000000000000000000000000000000000000000000000000000013000000000000000000000000000000000000230000000000000000000000000000000000000000000000000000000000000000000000000000000000000000000000
#018321:000000000000000000000000000000000000000000000000000000000000000000000000000000000000000000000000000000000000000000000000000000000000000000000000000000000000000000000000000000000000000000000000000000000000000000000000000000000000000000000000000000000000000000000000000000000000000000000000000000000000000000000000000000000000000000000000000000000013000000000000000000000000000000000000
#019321:23
#019341:000000000000000000000000000000000000000000000000000000000013000000000000000000000000000000000000230000000000000000000000000000000000000000000000000000000000000000000000000000000000000000000000000000000000000000000000000000000000000000000000000000000000000000000000000000000000000000000000000000000000000000000000000000000000000000000000000000000000000000000000000000000000000000000000
#019321:000000000000000000000000000000000000000000000000000000000000000000000000000000000000000000000000000000000000000000000000000000000000000000000000000000000013000000000000000000000000000000000000230000000000000000000000000000000000000000000000000000000000000000000000000000000000000000000000000000000000000000000000000000000000000000000000000000000000000000000000000000000000000000000000
#020321:14240000
#020371:0054000000000000
#0203a0:00142400
#020350:0000005400000000
#020361:0014
#020321:00000000000000000000002400000000
#022321:0000142400000000
#022321:00000000000000001424000000000000
#0223b0:0013
#022370:00000000000000000000002300000000
#022321:00000000000000000000001424000000
#022321:00000000000000000000000000001424
#023321:00001424000000000000000000000000
#023321:0000142400000000
#023321:0000000014240000
#023321:0000000000001424
#024321:1424000000000000
#024321:0000142400000000
#024321:00000000000000001424000000000000
#024370:0013
#0243b0:00000000000000000000002300000000
#024321:00000000000000000000001424000000
#024321:00000000000000000000000000001424
#025321:00001424000000000000000000000000
#025321:0000142400000000
#0253a1:0014
#025361:0000000000240000
#025320:0000000000140000
#025360:00000024
#0253a1:00000014
#025361:0000000000000024
#025320:0000000000000014
#026360:24
#0263a1:1424000000000000
#0263a1:0000142400000000
#0263a1:00000000000000001424000000000000
#026320:0013
#026360:00000000000000000000002300000000
#0263a1:00000000000000000000001424000000
#0263a1:00000000000000000000000000001424
#0273a1:00001424000000000000000000000000
#0273a1:0000142400000000
#027360:00130000
#027320:0023
#0273a1:000000000000000000000000000000000000000000000000000000000000000000000000000000000000000000000000000000000000000000000000000000000000000000000000000000000000000000000000000000000000000000000000000000000000000000000000000000000000000000000000000000000000000000000000000000000000000000000000000000000000000000000000000000000000000000000000000000000000000000000000000000000000000000000000142400000000000000000000000000000000000000000000000000000000000000000000000000000000000000000000000000000000000000000000000000000000000000000000000000000000000000000000000000000000000000000000000000000000000000000000000000000000000000000000000000000000000000000000000000000000000000000000000000000000000000000000000000000000000000000000000000000000000000000000000000000000000000000000
#027361:00000014
#028321:24
#0283a0:14
#028360:00000024000000000000000000000000
#028321:00000014000000000000000000000000
#028361:0000002400000000
#029321:00001424
#0293a0:00001424
#030320:14
#030360:00240000
#030360:0000001400000000
#030320:0000000000240000
#0303a0:0000000000000014
#031360:0024000000000000
#031360:00140000
#0313a0:0024
#033320:14240000
#033370:0054000000000000
#0333a1:00142400
#033351:0000005400000000
#0343b1:0012
#034381:00000000000000000000002200000000
#034360:00000000000000000000001200000000
#034330:0000000000000022
#035380:00000012000000000000000000000000
#0353a0:00000000000000230000000000000000
#035361:00000000001200000000000000000000
#035331:00000000000000230000000000000000
#038321:14
#038361:00240000
#0383a0:14
#038360:000000000000000000000000000000000000000000000000000000000000000000000000000000000000000000000000000000000000000000000000000000000000000000000000000000000000000000000000000000000000000000000024000000000000000000000000000000000000000000000000000000000000000000000000000000000000000000000000000000000000000000000000000000000000000000000000000000000000000000000000000000000000000000000000000000000000000000000000000000000000000000000000000000000000000000000000000000000000000000000000000000000000000000000000000000000000000000000000000000000000000000000000000000000000000000000000000000000000000000000000000000000000000000000000000000000000000000000000000000000000000000000000000000000000000000000000000000000000000000000000000000000000000000000000000000000000000000000000
#041361:12000000002200000000000000000000
#041331:0000000032523200000000000000000000000000000000000000000000000000
#042331:12000000002200000000000000000000
#042361:0000000032523200000000000000000000000000000000000000000000000000
#043321:001c00000000000000000000000000000000000000000000000000000000000000000000000000000000000000000000000000000000000000000000000000000000000000000000000000000000000000000000000000000000000000000000000000000000000000000000000000000000000000000000000000000000000000000000000000000000000000000000000000000000000000000000000000000000000000000000000000000000000000000000000000000000000000000000000000000000000000000000000000000000000000000000000000000000000000000000000000000000000000000000000000000000000000000000000000000000000000000000000000000000000000000000000000000000000000000000000000000000000000000000000000000000000000000000000000000000000000000000000000000000000000000000000000000000000000000000000000000000000000000000000000000000000000000000000000000000000000000000
#044321:00230000
#043320:001c00000000000000000000000000000000000000000000000000000000000000000000000000000000000000000000000000000000000000000000000000000000000000000000000000000000000000000000000000000000000000000000000000000000000000000000000000000000000000000000000000000000000000000000000000000000000000000000000000000000000000000000000000000000000000000000000000000000000000000000000000000000000000000000
#0443b0:00230000
#045320:14
#045360:0023000000000000
#045320:0014
#045360:0000000000230000
#046380:000000000000000000000000000000000000000000000000000000000000160000000000000000000000000000000000000000000000000000000000000000000000000000000000000000000000000000000000000000000000000000000000000000000000000000000000000000000000000000000056000000000000000000000000000000000000000000000000000000000000000000000000000000000000000000000000000000000000000000000000000000000000000000000000000000000000000000000000000000000000000000000000000000000000000000000000000000000000000000000000000000000000000000000000000000000000000000000000000000000000000000000000000000000000000000000000000000000000000000000000000000000000000000000000000000000000000000000000000000000000000000000000000000000000000000000000000000000000000000000000000000000000000000000000000000000000000000000000000000000000000000000000000000000000000000000000000000000000000000000000000000000000000000000000000000000000000000000000000000000000000000000000000000000000000000000000000000000000000000000000000000000000000000000000000000000000000000000000000000000000000000000000000000000000000000000000000000000000000000000000000000000000000000000000000000000000000000000000000000000000000000000000000000000000000000000000000000000000000000000000000000000000000000000000000000000000000000000000000000000000000000000000000000000000000000000000000000000000000000000000000000000000000000000000000000000000000000000000000000000000000000000000000000000000000000000000000000000000000000000000000000000000000000000000000000000000000000000000000000000000000000000000000000000000000000000000000000000000000000000000000000000000000000000000000000000000000000000000000000000000000000000000000000000000000000000000000000000000000000000000000000000000000000000000000000000000000000000000000000000000000000000000000000000000000000000000000000000000000000000000000000000000000000000000000000000000000000000000000000000000000000000000000000000000000000000000000000000000000000000000
#046320:002c000000000000
#046320:0000000000000000000000000000000000000000000000000000000000000000000000000000000000000000000000000000000000000000000000000000000000000000000000000000000000000000000000000000000000000000000000000000000000000000000000000000000000000000000000000000000000000000000000000000000000000000000000000000000000000000000000000000000000000000000000000000000000000000000000000000000000000000000000000000000000000000000000000000000000000000000000000000000000000000000000000000000000000000000000000000000000000000000000000000000000000000000000000000000000001600000000000000000000000000000000000000000000000000000000000000000000000000000000000000000000000000000000000000000000000000000000000000000000000000000000000000000000000000000000562c0000000000000000000000000000000000000000000000000000000000000000000000000000000000000000000000000000000000000000000000000000000000000000000000000000000000000000000000000000000000000000000000000000000000000000000000000000000000000000000000000000000000000000000000000000000000000000000000000000000000000000000000000000000000000000000000000000000000000000000000000000000000000000000000000000000000000000000000000000000000000000000000000000000000000000000000000000000000000000000000000000000000000000000000000000000000000000000000000000000000000000000000000000000000000000000000000000000000000000000000000000000000000000000000000000000000000000000000000000000000000000000000000000000000000000000000000000000000000000000000000000000000000000000000000000000000000000000000000000000000000000000000000000000000000000000000000000000000000000000000000000000000000000000000000000000000000000000000000000000000000000000000000000000000000000000000000000000000000000000000000000000000000000000000000000000000000000000000000000000000000000000000000000000000000000000000000000000000000000000000000000000000000000000000000000000000000000000000000000000000000000000000000000000000000000000000000000000000000000000000
#047380:00000000000000000000000000000013
#0483b0:0023000000000000
#0493a0:14
#049370:0023000000000000
#0493a0:0014
#049370:0000000000230000
#050320:0000000000000000000000000000000000000000000000000000000000001600000000000000000000000000000000000000000000000000000000000000000000000000000000000000000000000000000000000000000000000000000000000000000000000000000000000000000000000000000000562c0000000000000000000000000000000000000000000000000000000000000000000000000000000000000000000000000000000000000000000000000000000000000000000000000000000000000000000000000000000000000000000000000000000000000000000000000000000000000000000000000000000000000000000000000000000000000000000000000000000000000000000000000000000000000000000000000000000000000000000000000000000000000000000000000000000000000000000000000000000000000000000000000000000000000000000000000000000000000000000000000000000000000000000000000000000000000000000000000000000000000000000000000000000000000000000000000000000000000000000000000000000000000000000000000000000000000000000000000000000000000000000000000000000000000000000000000000000000000000000000000000000000000000000000000000000000000000000000000000000000000000000000000000000000000000000000000000000000000000000000000000000000000000000000000000000000000000000000000000000000000000000000000000000000000000000000000000000000000000000000000000000000000000000000000000000000000000000000000000000000000000000000000000000000000000000000000000000000000000000000000000000000000000000000000000000000000000000000000000000000000000000000000000000000000000000000000000000000000000000000000000000000000000000000000000000000000000000000000000000000000000000000000000000000000000000000000000000000000000000000000000000000000000000000000000000000000000000000000000000000000000000000000000000000000000000000000000000000000000000000000000000000000000000000000000000000000000000000000000000000000000000000000000000000000000000000000000000000000000000000000000000000000000000000000000000000000000000000000000000000000000000000000000000000000000000000000000000000000000000000
#050380:000000000000000000000000000000000000000000000000000000000000000000000000000000000000000000000000000000000000000000000000000000000000000000000000000000000000000000000000000000000000000000000000000000000000000000000000000000000000000000000000000000000000000000000000000000000000000000000000000000000000000000000000000000000000000000000000000000000000000000000000000000000000000000000000000000000000000000000000000000000000000000000000000000000000000000000000000000000000000000000000000000000000000000000000000000000000000000000000000000000000160000000000000000000000000000000000000000000000000000000000000000000000000000000000000000000000000000000000000000000000000000000000000000000000000000000000000000000000000000000056000000000000000000000000000000000000000000000000000000000000000000000000000000000000000000000000000000000000000000000000000000000000000000000000000000000000000000000000000000000000000000000000000000000000000000000000000000000000000000000000000000000000000000000000000000000000000000000000000000000000000000000000000000000000000000000000000000000000000000000000000000000000000000000000000000000000000000000000000000000000000000000000000000000000000000000000000000000000000000000000000000000000000000000000000000000000000000000000000000000000000000000000000000000000000000000000000000000000000000000000000000000000000000000000000000000000000000000000000000000000000000000000000000000000000000000000000000000000000000000000000000000000000000000000000000000000000000000000000000000000000000000000000000000000000000000000000000000000000000000000000000000000000000000000000000000000000000000000000000000000000000000000000000000000000000000000000000000000000000000000000000000000000000000000000000000000000000000000000000000000000000000000000000000000000000000000000000000000000000000000000000000000000000000000000000000000000000000000000000000000000000000000000000000000000000000000000000000000000000000000
#050320:0000002c00000000
#051320:13
#051370:00000033230000000000000000000000
#0513a1:14240000
#0513b1:0013
#051361:0000000000332300
#051320:00001424
#061380:00000000000000000000000000120000
#0623a0:22
#0179a0:00000014
#017920:0000000000000024
#0339a0:00000014
#034920:24
#0379b0:13
#037970:0023000000000000
