This file was generated by Ched 2.7.0.0.
#TITLE ""
#ARTIST ""
#DESIGNER ""
#DIFFICULTY 0
#PLAYLEVEL
#SONGID ""
#WAVE ""
#WAVEOFFSET 0
#JACKET ""
#REQUEST "ticks_per_beat 480"
#00002: 4
#BPM01: 129
#00008: 01
#TIL00: ""
#VOLUME: ""
#HISPEED 00
#MEASUREHS 00
#00114:0014
#0011a:24
#0021a:14
#00214:0014
#00318:14
#00312:0014
#00418:14
#00412:0014
#00514:0014
#0051a:24
#0061a:14
#00614:0014
#00718:1414
#00714:00140014
#00710:41
#00818:14
#00814:00140000
#00812:0000000000000014
#01014:00140000
#01018:0014
#01012:00000014
#0101a:24
#0111a:1414
#01114:00140000
#01212:14
#01218:00140000
#01214:0014
#0121a:00000014
#01312:14
#01318:00140000
#01314:0014
#01414:00140000
#01418:0014
#01412:00000014
#0141a:24
#01410:41
#0151a:1414
#01514:00140000
#01612:14
#0161a:00140000
#01614:0014
#01618:00000014
#01712:14
#0171a:00140000
#01714:0014
#01812:0014
#01818:24
#0191a:14
#01914:0014
#02018:14
#02014:00140000
#0201a:0014
#02114:14
#02118:00140000
#02112:0014
#02110:41
#02214:0014
#0221a:24
#0231a:14
#02314:0014
#02418:14
#02412:0014
#02518:14
#02512:0014
#02614:0014
#0261a:24
#0271a:14
#02714:0014
#0281a:14
#02810:41
#02912:14
#03014:0014
#0301a:24
#03118:14
#03114:00140000
#0311a:0014
#03314:14
#03318:00140000
#03312:0014
#03212:14
#03218:0014
#03417:0000000000000014
#0341a:14343434
#03410:41
#03612:14
#03614:0034
#03613:00340000
#0371a:14
#03718:00003434
#03719:00340000
#03918:00140014
#03912:2424
#0401a:00140014
#04014:2424
#04112:14
#04114:00343400
#0421a:14
#04218:00343400
#04314:14
#04518:00140000
#04514:0014
#0451a:00000014
#04512:24
#0451f:21
#04612:1414
#04618:00140000
#04610:41
#0471a:14
#04714:00140000
#04718:0014
#04712:00000014
#0481a:14
#04814:00140000
#04818:0014
#04918:00140000
#04914:0014
#0491a:00000014
#04912:24
#05012:1414
#05018:00140000
#0511a:14
#05112:00140000
#05118:0014
#05114:00000014
#0521a:14
#05212:00140000
#05218:0014
#05214:00000014
#05314:00140000
#05312:00000014
#0531a:24
#05318:0024
#05414:00140000
#0541a:2424
#05512:14
#05518:00140000
#05514:0014
#0551a:00000014
#05612:14
#05618:00140014
#05614:0014
#05718:00140000
#0571a:00000014
#05712:24
#05714:0024
#05818:00140000
#05812:2424
#0591a:14
#05914:00140000
#05918:0014
#05912:00000014
#0601a:14
#06014:00140000
#06018:0014
#06012:00000014
#0611a:14
#0381f:00110000
#0351a:34343400
#00854:00540000
#00852:0000000000000024
#0115a:0014
#01352:00000014
#01354:0054
#0155a:0014
#01858:14
#0205a:0014
#02152:0014
#0285a:54
#02952:54
#0305a:14
#03352:0014
#0345a:54
#03457:0000000000000024
#03652:54
#0375a:64
#03858:14
#04152:54
#0425a:64
#04354:54
#04652:0014
#04858:0064
#0485a:00000014
#05052:0014
#0545a:0014
#05852:0014
#06258:14
#0615a:64
#008340:00140000
#008320:0000000000000054
#009340:0024
#013340:0014
#013320:00000024
#0283a0:14
#028380:0024
#029320:14
#029340:0024
#0343a0:14343434
#034370:0000000000000054
#0353a0:34343424
#036320:14
#036330:00340000
#036340:00003424
#0373a0:14
#037390:00340000
#037380:00003434
#038380:24
#041320:14
#041340:00343424
#0423a0:14
#042380:00343424
#043340:14
#044320:24
#048380:0014
#0483a0:00000024
#0613a0:14
#062380:24
