This file was generated by Ched 2.7.0.0.
#TITLE ""
#ARTIST ""
#DESIGNER ""
#DIFFICULTY 0
#PLAYLEVEL
#SONGID ""
#WAVE ""
#WAVEOFFSET 0
#JACKET ""
#REQUEST "ticks_per_beat 480"
#00002: 4
#BPM01: 170
#00008: 01
#TIL00: ""
#VOLUME: ""
#HISPEED 00
#MEASUREHS 00
#0351f:11
#03512:16
#03518:26
#0491b:13
#04918:00120023
#04912:13
#04917:0000001200000000
#04916:0022
#01918:13130000
#0191b:00001300000000000000001300000000
#01912:2613
#01915:0000001300000013
#01714:00000000000000130000000000000000
#01719:0000001300000000
#01715:13000000001300000000000000130000
#0171a:0000000013000013
#01718:00130013
#01713:00000000000000000000000000000013
#01712:0013000000130000
#0171b:13
#01612:1300131314000000
#01617:00000000001300130000000000000000
#0161b:0013000000000000
#0161a:00000014
#01616:0000000000520000
#01614:00000000000000000053000000000000
#01618:0000000000000052
#01619:00000000000000000000000000530000
#01517:00000000001300130000000000130013
#01512:6400131313001313
#0151b:0013000000130000
#01518:13
#01412:0014
#01418:00000000001300130000000000000000
#01415:13000000130013000000005400540000
#0141b:0013000000000000
#01413:00000000000000000054000000000054
#01414:0000000000540054
#01416:00000054
#03015:00130013000023000000000000000000
#03018:23001300230000000054005400000000
#0301a:0000000024545400
#03012:0000000000002656
#03014:00000000000000000000000000560056
#02915:00000000000000000000001300000000
#02918:5600000000130000
#0291b:0013
#03812:00000000000000001300001300001300
#03815:0015
#03818:16
#0371b:0013
#03716:0015
#03712:16
#03618:16
#03418:0013000024141400
#03416:0000000000000014
#03414:00000000000000000014001400000000
#03412:2600001300000000
#0341b:23
#03415:00230000
#04017:00000013000000000000000000000000
#0401b:13
#04018:00000014
#04014:0000000000000014
#06512:14001313
#06518:00000000001300000000000000130000
#06515:0000001300000013
#0651b:00001300000000000000130000000013
#0651a:14000000000000130000000000000000
#06513:00130000
#06712:14
#06718:000000140000000000140000000000140000000000000000640000006300000063000000630000006300000063000000
#06714:000000140000140000000000646300630063006300630063
#06715:000000000000006363636363
#06719:000000000000000000000000006300630063006300630063
#06315:00000000000000000000000000000013
#0631a:0000000000000013
#06316:24000000001300130000000000130000
#06312:0013000000130000
#0631b:0000131313001300
#06419:13000000000013000053000000000000
#06417:0013
#06414:00000000000000130000000000530000
#06416:00000000001300000000000013000000
#06412:0013000000000053
#0641b:0000130000530000
#06212:13001353
#0621b:0013000000000000
#06217:00000000000000130000000000000000
#06214:00000000000013000053005300000000
#06219:00000000001300000000000000000000
#06216:0000130000530000
#06114:00000013
#06118:00000000000000000000000000130000
#06113:0000000000000013
#06117:00000000001300130000000000000013
#06112:1400131313000000
#0611b:0013000000130000
#0611a:14
#01318:13000000001300130000000000130013
#01315:0000131313001313
#0131b:0013000000130000
#01312:13
#01115:13000000001300130000000000130013
#01118:2600131313001313
#01112:0013000000130000
#01110:41
#01218:1300131314000000
#01214:00000014
#01215:00000000001300130000000000000000
#01212:0013000000000052
#01213:00000000000000000000000000530000
#0121c:0000000000520000
#0121a:00000000000000000053000000000000
#05919:00000013
#05915:00000000000000000000000000130000
#0591a:0000000000000013
#05916:24000000001300130000000000000013
#0591b:0000131313000000
#05912:0013000000130000
#0601b:1313
#06012:0013000000001300
#06016:00000000000000130000000000005300
#06019:00000000000013000053000000000000
#06014:00000000001300000000000000530000
#06017:0000130000530000
#05319:0013000000130000
#05314:0000001300000013
#0531b:00130013
#05312:1313
#05317:2323
#05316:00230023
#0521b:0000001300000013
#05216:1300001300000000
#05212:0013
#05217:00000013000000001300000000000000
#0521a:24
#0461b:13
#04616:00000000000000000000001300001400
#04612:16151400
#04618:0000001300000000
#0461a:0013000000000000
#04619:00130000
#04617:0013
#04712:16130000
#04718:16001313
#0471b:0000130000130000
#04715:0000001300000013
#04412:2400001300000000
#04419:0000000000000013
#04414:0000000000000013
#04415:00000013000000001300000000000000
#0441b:1313
#04418:0000001300000000
#04410:41
#0431b:0000001300000000
#04318:00000013000000001300000000000000
#04312:1313
#04315:0000001300000000
#04319:0000000000000013
#04314:0000000000000013
#0431f:21
#0431a:24
#0581a:14000000000000000000001400000000
#05812:1400000014000014
#05816:00140000
#05814:0000001400000000
#05818:0014000000000000
#0571a:00000014
#05716:0000000000000014
#05714:2434343434343434343434343434343434343434343434340000000000000000
#05615:1313
#0561b:13
#05612:0000001300002400
#05618:0000000000130000
#0561a:00000024
#05512:1600130000130000
#05518:1600001300000013
#05515:00001313
#0551b:00130000
#05510:41
#04818:1300000013000013
#04812:13000013
#0481b:0000001300000000
#04815:0000000000130000
#05012:0000000016362300
#05018:0000250016360000
#0501b:00000023
#05014:24
#05416:0000000013000014
#05417:00000000000000000000001300000000
#05414:00130000
#05419:00150000
#05413:0013000000000000
#05415:0000001300000000
#0541a:0014
#05418:16
#05412:13
#05117:1300001300000000
#0511b:0013
#05116:00000013000000001300000000000000
#05112:2400001300000013
#04514:0013000000130000
#04519:0000001300000013
#04512:00130013
#0451b:1313
#04516:2323
#04517:00230023
#03912:23130013
#0391b:23131300
#03916:0013
#03914:0000001300000000
#04212:1c
#04112:24140000
#0411a:14240000
#04114:00000000000024000024002400240024
#04118:0024000024242424
#03314:00000014
#03315:0000000013130000
#03313:0000000000000015
#03318:1313141526000000
#03312:26
#03216:13
#03212:00140013
#03217:00000013000000000000000000000000
#03215:0000000000130013
#0321a:24000014
#03218:0013
#0321b:0000001300000000
#03114:0000000000000013
#0311b:0000001300000000
#03118:2613
#03112:66140013
#0311a:00000014
#03115:0000000000130000
#03110:41
#02712:2613
#02718:00000000000000000000001300000000
#02715:0000000000130000
#02612:1c24
#0261a:0000000000000024
#02616:00000000000000000000002400000000
#02515:00001300000000000000001300000000
#02518:0000130013000013
#02512:0000001300000000
#02415:00000000130000000000001300000000
#02418:0013000013000013
#02412:0000001300000000
#0241b:13
#02318:00001300000000000000001300000000
#02315:0000130013000013
#0231b:0000001300000000
#02312:26
#02112:00001300000000000000001300000000
#0211b:0013
#02118:0000001300000013
#02115:00130000
#02110:41
#02212:00001300000000000000001300000000
#0221b:0000000013000013
#02215:13130000
#02218:0000001300000000
#0201b:00001300000000000000001300000000
#02012:0000000013000013
#02018:13130000
#02015:0000001300000000
#0101a:00000014
#01016:0000000000000014
#01012:00000024
#00716:0000001400000014
#00712:00000014
#0071a:14
#00615:00000013000000001300000000000000
#0061b:13000013
#00612:00000013
#00618:0000001300130000
#00416:00000000000000001200003200003200
#00418:26000000000000001200003200003200
#00412:26
#00312:16
#00315:0016
#00318:26
#00218:16
#00215:0016
#00212:26
#00112:16
#00115:0016
#00118:26
#00515:0000000013000013
#00518:0000000000130000
#0051b:00000013
#00512:0000001300000000
#00510:41
#00812:26
#00818:26
#01816:24
#01819:00000024000000000000000000002400
#01813:00000024
#01815:00000000000000000024000000000000
#01817:0000002400000000
#02816:00240024
#02818:0026
#02812:26555453525354555600000000000000
#0281c:00000052
#02819:00000000000000000055000000000055
#0281a:0000000000540054
#0281b:00000000000000000000005300530000
#06812:26
#06818:26
#0661a:00000000000000000000000000000024
#06616:00000024
#06612:26000000000000000024000000000000
#06618:0000002600000000
#06615:00000026000000000000000000000000
#00952:12
#0095c:12
#03852:33
#03855:0025
#03858:66
#0375b:13
#03756:0025
#03752:56
#03652:13
#03658:56
#04052:0013
#0405b:6313
#04057:00000023000000000000000000000000
#05658:00000013000000000000000000000000
#05652:00000013000000000000000014000000
#0565a:00000064
#05655:63
#0565b:63
#04855:00000013000000000000000000000000
#0485b:00000013000000000000000000000000
#04858:53
#04852:53
#0525b:0000006300430000
#0525a:44
#05256:6300006300000000
#05252:0023
#05257:00000053000000002300000000000000
#05152:3400005300330000
#05157:5300005300000000
#0515b:0023
#05156:00000063000000002300000000000000
#04458:0000005300330000
#04452:3400005300330000
#04455:00000063000000002300000000000000
#0445b:6323
#04355:0000006300430000
#0435b:0000006300430000
#0435a:44
#04358:00000053000000002300000000000000
#04352:5323
#00552:14
#0055a:14
#00756:1400002400000000
#0075a:64
#05758:14
#01552:14
#03152:16
#03158:16
#0395b:4363
#03952:33000053
#03558:46
#03552:66
#06852:16
#06858:16
#06356:14
#05052:00006613
#0505b:00000013
#05058:00155600
#05054:14
#04958:00000013
#04956:0012
#04952:53
#03452:16
#03458:00000064
#03456:0000000000000024
#03358:0016
#03352:16
#02752:16
#00458:4652
#00452:36
#00456:0062
#00358:46
#00352:56
#00355:0026
#00252:36
#00258:66
#00255:0026
#05956:14
#02352:16
#02358:00000000000000000000005300000000
#02355:0063
#0325a:14
#03256:63
#01952:1653
#0195b:00000000000000000000006300000000
#01052:00000014
#0105a:00000064
#01056:0000000000000024
#01158:46
#00158:46
#00152:56
#00155:0026
#04752:16
#04758:16
#04652:36353400
#04657:0053
#04656:00000000000000000000006300000000
#0585a:00000000000000000000006400000000
#05852:0054
#05552:16
#05558:16
#05457:00000000000000000000005300000000
#05456:0063
#05459:00450000
#0545a:0044
#05458:46
#04252:1c
#02652:1c
#02555:00000000000000000000006300000000
#02558:0053
#02455:00000000000000000000006300000000
#02458:0053
#02152:00000000000000000000005300000000
#0215b:0063
#02252:00000000000000000000005300000000
#0225b:0063
#0205b:00000000000000000000006300000000
#02052:0053
#00655:00000063000000000000000000000000
#0065b:63
#00652:00000053
#001320:16
#001350:0056
#002320:26
#002381:16
#002351:0056
#003381:26
#003320:16
#003350:0056
#004320:26
#004360:00000000000000001200003200003200
#005320:24
#004381:00000000000000001200003200003200
#0053a1:24
#0063b1:13
#006381:00000023000000000000000000000000
#006350:00000013000000000000000000000000
#006320:0000002300000000
#006320:00000013
#007360:24
#0073a1:14000024
#007361:0000005400000000
#008321:16
#009321:22
#008380:16
#0093c0:22
#0103a0:00000014
#010360:0000000000000054
#011380:26
#019320:0013
#019350:00000000000000000000002300000000
#0193b1:00000000000000000000001300000000
#019381:0000000000000023
#020321:0013
#020351:00000000000000000000002300000000
#0203b0:00000000000000000000001300000000
#020380:0000000000000023
#0213b0:0013
#021380:00000000000000000000002300000000
#021321:00000000000000000000001300000000
#021351:0000000000000023
#0223b1:0013
#022381:00000000000000000000002300000000
#022320:00000000000000000000001300000000
#022350:0000000000000023
#023350:0013
#023320:00000000000000000000002300000000
#023381:00000000000000000000001300000000
#0233b1:0000000000000023
#024381:0013
#0243b1:00000000000000000000002300000000
#024350:00000000000000000000001300000000
#024320:0000000000000023
#025380:0013
#0253b0:00000000000000000000002300000000
#025351:00000000000000000000001300000000
#025321:0000000000000023
#027381:1656565656565656565656565656565626000000000000000000000000000000
#027371:00560056005600560056005600560056005600560056005600560056005600560000000000000000000000000000000000000000000000000000000000000000
#027321:0000000000000000000000000000000000000000000000001454545424000000
#027331:00000000000000000000000000000000000000000000000000000000000000000000000000000000000000000000000000540054005400540000000000000000
#0273a0:0000000000000000000000000000000000000000000000000000000014545454
#027390:00000000000000000000000000000000000000000000000000000000000000000000000000000000000000000000000000000000000000000054005400540054
#0283a0:24
#029320:1656565656565656565656565656565626000000000000000000000000000000
#029330:00560056005600560056005600560056005600560056005600560056005600560000000000000000000000000000000000000000000000000000000000000000
#0293a0:0000000000000000000000000000000000000000000000001454545424000000
#029390:00000000000000000000000000000000000000000000000000000000000000000000000000000000000000000000000000540054005400540000000000000000
#029321:0000000000000000000000000000000000000000000000000000000014545454
#029331:00000000000000000000000000000000000000000000000000000000000000000000000000000000000000000000000000000000000000000054005400540054
#030321:24
#032361:13
#032321:00000023000000000000000000000000
#034381:00000014
#034361:0000000000000054
#035381:26
#035320:16
#036320:23
#036381:16
#0373b1:23
#037320:16
#037360:0055
#038320:23
#038381:16
#038351:0055
#0393b1:23
#0393b1:0013
#039371:00000023
#039320:00000013
#040360:23
#0403b1:1300003323000000
#040371:00000053000000000000000000000000
#040320:0000001323000000
#043320:13
#043350:00000023000000000000000000000000
#043381:00000013000000005300000000000000
#0433b1:0000003300230000
#043350:0000001300230000
#043320:0053
#0443b0:13
#044380:00000023000000000000000000000000
#044351:00000013000000005300000000000000
#044321:0000003300230000
#044380:0000001300230000
#0443b0:0053
#046370:0013
#0463b0:00000000000000000000002300000000
#046361:00000000000000000000001300000000
#046321:0000000000000023
#048321:13
#048351:00000023000000000000000000000000
#048380:13
#0483b0:00000023000000000000000000000000
#049320:13
#049360:00220000
#049380:00001323
#049341:00000014
#050341:24
#050380:15250000
#050321:0000160036362300
#050380:0000000016360000
#0503b0:00000023
#051370:13
#0513b0:00000023000000000000000000000000
#051361:00000013000000005300000000000000
#051321:0000003300230000
#051370:0000001300330023
#0513b0:0053
#052360:13
#052320:00000023000000000000000000000000
#052371:00000013000000005300000000000000
#0523b1:0000003300230000
#052360:0000001300330023
#052320:0053
#054360:0013
#054320:00000000000000000000002300000000
#054371:00000000000000000000001300000000
#0543b1:0000000000000023
#0563b1:13
#056381:00000023000000000000000000000000
#056350:13
#056320:00000023000000000000000000000000
#0563a0:00000014
#057380:24
#057341:1434343434343434343434343434343434343434343434340000000000000000
#057321:00000028
#058321:0014
#058361:00000000000000000000002400000000
#0583a0:00000000000000000000001400000000
#058360:0000000000000024
#062360:00000014
#063360:24
#067340:000000000000000000000000000000000000000000000000000000000000000000000000000000000000000000000000000000000000000000000000000000000000000000000000000000000000000000000000000000000000000000000000000000000000000000000000000000000000000000000000000000000000000000000000000000000000000000000000000000000000000000000000000000000000000000000000000000000000000000000000000000000000000000000000000000000000000000000000000000000000000000000000000000000000000000000000000000000000000000000000000000000000000000000000000000000000000000000000000000000000000000000000000000000000000000000000000000000000000000000000000000000000000000000000000000000000000000000000000000000000000000000000000000000000000000000000000000000000000000000000000000000000000000000000000000000000000000000000000000000000000000000000000000000000000000000000000000000000000000000000000000000000000000000000000000000000000000000000000000000000000000000000000000000000000000000000000000000000000000000000000000000000000000000000000000000000000000000000000000000000000000000000000000000000000000000000000000000000000000000000000000000000000000000000000000000000000000000000000000000000000000000000000000000000000000000000000000000000000000000000000000000000000000000000000000000000000000000000000000000000000000000000000000000000000000000000000000000000000000000000000000000000000000000000000000000000000000000000000000000000000000000000000000000000000000000000000000000000000000000000140000000000000000000000000000000000000000000000000000000000000000000000000000000000000000000000000000000000000000000000000000000000000000000000000000000000000000000000000000000000000000000000000000000000000000000000000000000000000000000000000000000000000000000000000000000000000000000000000000000000000000000000000000000000000000000000000000000000000000000000000000000000000000000000000000000000000000000000000000000000000000000000000000000000000000000000000000000000000000000054000000000000000000000000000000000000000000000000000000000000000000000000000000000000000000000000000000000000000000000000000000000000000000000000000000000000005300000000000000000000000000000000000000000000000000000000000000000000000000000000000000000000000000000000000000000000000000000000000000000000000000000000000000000000000000000000000000000000000000000000000000000000000000000000000000000000000000000000000000000000000000000000000000000000000000000000000000000000000000000053000000000000000000000000000000000000000000000000000000000000000000000000000000000000000000000000000000000000000000000000000000000000000000000000000000000000000000000000000000000000000000000000000000000000000000000000000000000000000000000000000000000000000000000000000000000000000000000000000000000000000000000000000000530000000000000000000000000000000000000000000000000000000000000000000000000000000000000000000000000000000000000000000000000000000000000000000000000000000000000000000000000000000000000000000000000000000000000000000000000000000000000000000000000000000000000000000000000000000000000000000000000000000000000000000000000000005300000000000000000000000000000000000000000000000000000000000000000000000000000000000000000000000000000000000000000000000000000000000000000000000000000000000000000000000000000000000000000000000000000000000000000000000000000000000000000000000000000000000000000000000000000000000000000000000000000000000000000000000000000053000000000000000000000000000000000000000000000000000000000000000000000000000000000000000000000000000000000000000000000000000000000000000000000000000000000000000000000000000000000000000000000000000000000000000000000000000000000000000000000000000000000000000000000000000000000000000000000000000000000000000000000000000000530000000000000000000000000000000000000000000000000000000000000000000000000000000000000000000000000000000000000000000000000000000000000000000000000000000000000000
#067350:000000000000000000000000000000000000000000000000000000000000000000000000000000000000000000000000000000000000000000000000000000000000000000000000000000000000000000000000000000000000000000000000000000000000000000000000000000000000000000000000000000000000000000000000000000000000000000000000000000000000000000000000000000000000000000000000000000000000000000000000000000000000000000000000000000000000000000000000000000000000000000000000000000000000000000000000000000000000000000000000000000000000000000000000000000000000000000000000000000000000000000000000000000000000000000000000000000000000000000000000000000000000000000000000000000000000000000000000000000000000000000000000000000000000000000000000000000000000000000000000000000000000000000000000000000000000000000000000000000000000000000000000000000000000000000000000000000000000000000000000000000000000000000000000000000000000000000000000000000000000000000000000000000000000000000000000000000000000000000000000000000000000000000000000000000000000000000000000000000000000000000000000000000000000000000000000000000000000000000000000000000000000000000000000000000000000000000000000000000000000000000000000000000000000000000000000000000000000000000000000000000000000000000000000000000000000000000000000000000000000000000000000000000000000000000000000000000000000000000000000000000000000000000000000000000000000000000000000000000000000000000000000000000000000000000000000000000000000000000000000000000000000000000000000000000000000000000000000000000000000000000000000000000000000000000000000000000000000000000000000000000000000000000000000000000000000000000000000000000000000000000000000000000000000000000000000000000000000000000000000000000000000000000000000000000000000000000000000000000000000000000000000000000000000000000000000000000000000000000000000000000000000000000000000000000000000000000000000000000000000000000000000000000000000000000000000000000000000000000000000000000000000000000000000000000000000000000000000000000000000000000000000000000000000000000000000000000000000000000000000000000000000000000000000000000000000000000000000000000000000000000000000000000000000000000000000000000000000000000000000000000000000000000000000000000000000000000000000000000000000000000000000000000530000000000000000000000000000000000000000000000000000000000000000000000000000000000000000000000000000000000000000000000000000000000000000000000000000000000000000000000000000000000000000000000000000000000000000000000000000000000000000000000000000000000000000000000000000000000000000000000000000000000000000000000000000005300000000000000000000000000000000000000000000000000000000000000000000000000000000000000000000000000000000000000000000000000000000000000000000000000000000000000000000000000000000000000000000000000000000000000000000000000000000000000000000000000000000000000000000000000000000000000000000000000000000000000000000000000000053000000000000000000000000000000000000000000000000000000000000000000000000000000000000000000000000000000000000000000000000000000000000000000000000000000000000000000000000000000000000000000000000000000000000000000000000000000000000000000000000000000000000000000000000000000000000000000000000000000000000000000000000000000530000000000000000000000000000000000000000000000000000000000000000000000000000000000000000000000000000000000000000000000000000000000000000000000000000000000000000000000000000000000000000000000000000000000000000000000000000000000000000000000000000000000000000000000000000000000000000000000000000000000000000000000000000005300000000000000000000000000000000000000000000000000000000000000000000000000000000000000000000000000000000000000000000000000000000000000000000000000000000000000000000000000000000000000000000000000000000000000000000000000000000000000000000000000000000000000000000000000000000000000000000000000000000000000000000000000000000
#068320:26
#067381:000000000000000000000000000000000000000000000000000000000000000000000000000000000000000000000000000000000000000000000000000000000000000000000000000000000000000000000000000000000000000000000000000000000000000000000000000000000000000000000000000000000000000000000000000000000000000000000000000000000000000000000000000000000000000000000000000000000000000000000000000000000000000000000000000000000000000000000000000000000000000000000000000000000000000000000000000000000000000000000000000000000000000000000000000000000000000000000000000000000000000000000000000000000000000000000000000000000000000000000000000000000000000000000000000000000000000000000000000000000000000000000000000000000000000000000000000000000000000000000000000000000000000000000000000000000000000000000000000000000000000000000000000000000000000000000000000000000000000000000000000000000000000000000000000000000000000000000000000000000000000000000000000000000000000000000000000000000000000000000000000000000000000000000000000000000000000000000000000000000000000000000000000000000000000000000000000000000000000000000000000000000000000000000000000000000000000000000000000000000000000000000000000000000000000000000000000000000000000000000000000000000000000000000000000000000000000000000000000000000000000000000000000000000000000000000000000000000000000000000000000000000000000000000000000000000000000000000000000000000000000000000000000000000000000000000000000000000000000000000000000000000000000000000000000000000000000000000000000000000000000000000000000000000000000000000000000000000000000000000000000000000000000000000000000000000000000000000000000000000000000000000000000000000000000000000000000000000000000000000000140000000000000000000000000000000000000000000000000000000000000000000000000000000000000000000000000000000000000000000000000000000000000000000000000000000000000000000000000000000000000000000000000000000000000000000000000000000000000000000054000000000000000000000000000000000000000000000000000000000000000000000000000000000000000000000000000000000000000000000000000000000000000000000000000000000000000000000000000000000000000000000000000000000000000000000000000000000000000000000000000000000000000000000000000000000000000000000000000000000000000000000000000000530000000000000000000000000000000000000000000000000000000000000000000000000000000000000000000000000000000000000000000000000000000000000000000000000000000000000000000000000000000000000000000000000000000000000000000000000000000000000000000000000000000000000000000000000000000000000000000000000000000000000000000000000000005300000000000000000000000000000000000000000000000000000000000000000000000000000000000000000000000000000000000000000000000000000000000000000000000000000000000000000000000000000000000000000000000000000000000000000000000000000000000000000000000000000000000000000000000000000000000000000000000000000000000000000000000000000053000000000000000000000000000000000000000000000000000000000000000000000000000000000000000000000000000000000000000000000000000000000000000000000000000000000000000000000000000000000000000000000000000000000000000000000000000000000000000000000000000000000000000000000000000000000000000000000000000000000000000000000000000000530000000000000000000000000000000000000000000000000000000000000000000000000000000000000000000000000000000000000000000000000000000000000000000000000000000000000000000000000000000000000000000000000000000000000000000000000000000000000000000000000000000000000000000000000000000000000000000000000000000000000000000000000000005300000000000000000000000000000000000000000000000000000000000000000000000000000000000000000000000000000000000000000000000000000000000000000000000000000000000000000000000000000000000000000000000000000000000000000000000000000000000000000000000000000000000000000000000000000000000000000000000000000000000000000000000000000000
#067391:000000000000000000000000000000000000000000000000000000000000000000000000000000000000000000000000000000000000000000000000000000000000000000000000000000000000000000000000000000000000000000000000000000000000000000000000000000000000000000000000000000000000000000000000000000000000000000000000000000000000000000000000000000000000000000000000000000000000000000000000000000000000000000000000000000000000000000000000000000000000000000000000000000000000000000000000000000000000000000000000000000000000000000000000000000000000000000000000000000000000000000000000000000000000000000000000000000000000000000000000000000000000000000000000000000000000000000000000000000000000000000000000000000000000000000000000000000000000000000000000000000000000000000000000000000000000000000000000000000000000000000000000000000000000000000000000000000000000000000000000000000000000000000000000000000000000000000000000000000000000000000000000000000000000000000000000000000000000000000000000000000000000000000000000000000000000000000000000000000000000000000000000000000000000000000000000000000000000000000000000000000000000000000000000000000000000000000000000000000000000000000000000000000000000000000000000000000000000000000000000000000000000000000000000000000000000000000000000000000000000000000000000000000000000000000000000000000000000000000000000000000000000000000000000000000000000000000000000000000000000000000000000000000000000000000000000000000000000000000000000000000000000000000000000000000000000000000000000000000000000000000000000000000000000000000000000000000000000000000000000000000000000000000000000000000000000000000000000000000000000000000000000000000000000000000000000000000000000000000000000000000000000000000000000000000000000000000000000000000000000000000000000000000000000000000000000000000000000000000000000000000000000000000000000000000000000000000000000000000000000000000000000000000000000000000000000000000000000000000000000000000000000000000000000000000000000000000000000000000000000000000000000000000000000000000000000000000000000000000000000000000000000000000000000000000000000005300000000000000000000000000000000000000000000000000000000000000000000000000000000000000000000000000000000000000000000000000000000000000000000000000000000000000000000000000000000000000000000000000000000000000000000000000000000000000000000000000000000000000000000000000000000000000000000000000000000000000000000000000000053000000000000000000000000000000000000000000000000000000000000000000000000000000000000000000000000000000000000000000000000000000000000000000000000000000000000000000000000000000000000000000000000000000000000000000000000000000000000000000000000000000000000000000000000000000000000000000000000000000000000000000000000000000530000000000000000000000000000000000000000000000000000000000000000000000000000000000000000000000000000000000000000000000000000000000000000000000000000000000000000000000000000000000000000000000000000000000000000000000000000000000000000000000000000000000000000000000000000000000000000000000000000000000000000000000000000005300000000000000000000000000000000000000000000000000000000000000000000000000000000000000000000000000000000000000000000000000000000000000000000000000000000000000000000000000000000000000000000000000000000000000000000000000000000000000000000000000000000000000000000000000000000000000000000000000000000000000000000000000000053000000000000000000000000000000000000000000000000000000000000000000000000000000000000000000000000000000000000000000000000000000000000000000000000000000000000000000000000000000000000000000000000000000000000000000000000000000000000000000000000000000000000000000000000000000000000000000000000000000000000000000000000000000530000000000000000000000000000000000000000000000000000000000000000000000000000000000000000000000000000000000000000000000000000000000000000000000000000000000000000
#068381:26
#012980:0014
#0129c0:0000000000220000
#012940:00000014
#012920:0000000000000022
#014920:0014
#014960:00000054
#015920:24
#016920:0014
#016960:0000000000220000
#0169a0:00000014
#016980:0000000000000022
#028920:001600000000000000000000000000000000000000000000000000000000000000000000000000000000000000000000000000000000000000000000000000000000000000000000000000000000000000000000000000000000000000000000000000000000000000000000000000000000000000000000000000000000000000000000000000000000000000000000000000000000000000000000000000000000000000000000000000000000000000000000000000000000000000000000000000000000000000000000000000000000000000000000000000000000000000000000000000000000000000000000000000000000000000000000000000000000000000000000000000000000000000000000000000000000000000000000000000000000000000000000000000000000000000000000000000000000000000000000000000000000000000000000000000000000000000000000000000000000000000000000000000000000000000000000000000000000000000000000000000000000000000000000000000000000000000000000000000000000000000000000000000000000000000000000000000000000000000000000000000000000000000000000000000000000000000000000000000000000000000000000520000000000000000000000000000000000000000000000000000000000000000000000000000000000000000000000000000000000000000000000000000000000000000000000000000000000000000000000000000000000000000000000000000000000000000000000000000000000000000000000000000000000000000000000000000000000000000000000000000000000000000000000000000000000000000000000000000000000000000000000000000000000000000000000000000000000000000000000000000000000000000000000000000000000000000000000000000000000000000000000000000000000000000000000000000000000000000000000000000000000000000000000000000000000000000000000000000000000000000000000000000000000000000000000000000000000000000000000000000000000000000000000000000000000000000000000000000000000000000000000000000000000000000000000000000000000000000000000000000000000000000000000000000000000000000000000000000000000000000000000000000000000000000000000000000000000000000000000000000000000000000000000000000000000000000000000000000000000000000565656260000000000000000000000000000000000000000000000000000000000000000000000000000000000000000000000000000000000000000000000000000000000000000000000000000000000000000000000000000000000000000000000000000000000000000000000000000000000000000000000000000000000000000000000000000000000000000000000000000000000000000000000000000000000000000000000000000000000000000000000000000000000000000000000000000000000000000000000000000000000000000000000000000000000000000000000000000000000000000000000000000000000000000000000000000000000000000000000000000000000000000000000000000000000000000000000000000000000000000000000000000000000000000000000000000000000000000000000000000000000000000000000000000000000000000000000000000000000000000000000000000000000000000000000000000000000000000000000000000000000000000000000000000000000000000000000000000000000000000000000000000000000000000000000000000000000000000000000000000000000000000000000000000000000000000000000000000000000000000000000000000000000000000000000000000000000000000000000000000000000000000000000000000000000000000000000000000000000000000000000000000000000000000000000000000000000000000000000000000000000000000000000000000000000000000000000000000000000000000000000000000000000000000000000000000000000000000000000000000000000000000000000000000000000000000000000000000000000000000000000000000000000000000000000000000000000000000000000000000000000000000000000000000000000000000000000000000000000000000000000000000000000000000000000000000000000000000000000000000000000000000000000000000000000000000000000000000000000000000000000000000000000000000000000000000000000000000000000000000000000000000000000000000000000000000000000000000000000000000000000000000000000000000000000000000000000000000000000000000000000000000000000000000000000000000000000000000000000000000000000000000000000000000000000000000000000000000000000000000000000000000000000000000000000000000000000000000000000000000000000
#028980:000000000000000000000000000000000000000000000000000000000000000000000000000000000000000000000000000000000000000000000000000000000000000000000000000000000000000000000000000000000000000000000000000000000000000000000000000000000000000000000000000000000000000000000000000000000000000000000000000000000000000000000000000000000000000000000000000000000000000000000000000000000000000000000000000000000000000000000000000000000000000000000000000000000000000000000000000000000000000000000000000000000000000000000000000000000000000000000000000000000000000000000000000000000000000000000000000000000000000000000000000000000000000000000000000000000000000000000000000000000000000000000000000000000000000000000000000000000000000000000000000000000000000000000000000000000000000000000000000000000000000000000000000000000000000000000000000000000000000000000000000000000000000000000000000000000000000000000000000000000000000000000000000000000000000000000000000000000000000000000000000000000000000000000000000000000000000000000000000000000000000000000000000000000000000000000000000000000000000000000000000000000000000000000000000000000000000000000000000000000000000000000000000000000000000000000000000000000000000000000000000000000000000000000000000000000000000000000000000000000000000000000000000000000000000000000000000000000000000000000000000000000000000000000000000000000000000000000000000000000000000000000000000000000000000000000000000000000000000000000000000000000000000000000000000000000000000000000000000000000000000000000000000000000000000000000000000000000000000000000000000000000000000000000000000000000000000000000000000000000000000000000000000000000000000000000000000000000000000000000000000000000000000000000000000000000000000000000000000000000000000000000000000000000000000000000000000000000000000000000000000000000000000000000000000000000000000000000000000000000000000000000000000000000000000000000000000000000000000000000000001600000000000000000000000000000000000000000000000000000000000000000000000000000000000000000000000000000000000000000000000000000000000000000000000000000000000000000000000000000000000000000000000000000000000000000000000000000000000000000000000000000000000000000000000000000000000000000000000000000000000000000000000000000000000000000000000000000000000000000000000000000000000000000000000000000000000000000000000000000000000000000000000000000000000000000000000000000000000000000000000000000000000000000000000000000000000000000000000000000000000000000000000000000000000000000000000000000000000000000000000000000000000000000000000000000000000000000000000000000000000000000000000000000000000000000000000000000000000000000000000000000000000000000000000000000000000000000000000000000000000000000000000000000000000000000000000000000000000000000000000000000000000000000000000000000000000000000000000000000000000000000000000000000000000000000000000000000000000000000000000000000000000000000000000000000000000000000000000000000000000000000000000000000000000000000000000000000000000000000000000000000000000000000000000000000000000000000000000000000000000000000000000000000000000000000000000000000000000000000000000000000000000000000000000000000000000000000000000000000000000000000000000000000000000000000000000000000000000000000000000000000000000000000000000000000000000000000000000000000000000000000000000000000000000000000000000000000000000000000000000000000000000000000000000000000000000000000000000000000000000000000000000000000000000000000000000000000000000000000000000000000000000000000000000000000000000000000000000000000000000000000000000000000000000000000000000000000000000000000000000000000000000000000000000000000000000000000000000000000000000000000000000000000000000000000000000000000000000000000000000000000000000000000000000000000000000000000000000000000000000000000000000000000000000000000000000000000000000000565656
#0289c0:00000052
#029980:26
#0309a0:000000000000000000000000000000000000000000000000000000000000000000000000000000000000000000000000000000000000000000000000000000000000000000000000000000000000000000000000000000000000000000000000000000000000000000000000000000000000000000000000000000000000000000000000000000000000000000000000000000000000000000000000000000000000000000000000000000000000000000000000000000000000000000000000000000000000000000000000000000000000000000000000000000000000000000000000000000000000000000000000000000000000000000000000000000000000000000000000000000000000000000000000000000000000000000000000000000000000000000000000000000000000000000000000000000000000000000000000000000000000000000000000000000000000000000000000000000000000000000000000000000000000000000000000000000000000000000000000000000000000000000000000000000000000000000000000000000000000000000000000000000000000000000000000000000000000000000000000000000000000000000000000000000000000000000000000000000000000000000000000000000000000000000000000000000000000000000000000000000000000000000000000000000000000000000000000000000000000000000000000000000000000000000000000000000000000000000000000000000000000000000000000000000000000000000000000000000000000000000000000000000000000000000000000000000000000000000000000000000000000000000000000000000000000000000000000000000000000000000000000000000000000000000000000000000000000000000000000000000000000000000000000000000000000000000000000000000000000000000000000000000000000000000000000000000000000000000000000000000000000000000000000000000000000000000000000000000000000000000000000000000000000000000000000000000000000000000000000000000000000000000000000000000000000000000000000000000000000000000000000000000000000000000000000000000000000000000000000000000000000000000000000000000000000000000000000000000000000000000000000000000000000000000000000000000000000000000000000000000000000000000000000000000000000000000000000000000000000000000000000001400000000000000000000000000000000000000000000000000000000000000000000000000000000000000000000000000000000000000000000000000000000000000000000000000000000000000000000000000000000000000000000000000000000000000000000000000000000000000000000000000000000000000000000000000000000000000000000000000000000000000000000000000000000000000000000000000000000000000000000000000000000000000000000000000000000000000000000000000000000000000000000000000000000000000000000000000000000000000000000540000000000000000000000000000000000000000000000000000000000000000000000000000000000000000000000000000000000000000000000000000000000000000000000000000000000000000000000000000000000000000000000000000000000000000000000000000000000000000000000000000000000000000000000000000000000000000000000000000000000000000000000000000000000000000000000000000000000000000000000000000000000000000000000000000000000000000000000000000000000000000000000000000000000000000000000000000000000005454545454240000000000000000000000000000000000000000000000000000000000000000000000000000000000000000000000000000000000000000000000000000000000000000000000000000000000000000000000000000000000000000000000000000000000000000000000000000000000000000000000000000000000000000000000000000000000000000000000000000000000000000000000000000000000000000000000000000000000000000000000000000000000000000000000000000000000000000000000000000000000000000000000000000000000000000000000000000000000000000000000000000000000000000000000000000000000000000000000000000000000000000000000000000000000000000000000000000000000000000000000000000000000000000000000000000000000000000000000000000000000000000000000000000000000000000000000000000000000000000000000000000000000000000000000000000000000000000000000000000000000000000000000000000000000000000000000000000000000000000000000000000000000000000000000000000000000000000000000000000000000000000000000000000000000000000000000000000000000000000000000
#030980:00000000000000000054005400000000
#030920:000000000000000000000000000000000000000000000000000000000000000000000000000000000000000000000000000000000000000000000000000000000000000000000000000000000000000000000000000000000000000000000000000000000000000000000000000000000000000000000000000000000000000000000000000000000000000000000000000000000000000000000000000000000000000000000000000000000000000000000000000000000000000000000000000000000000000000000000000000000000000000000000000000000000000000000000000000000000000000000000000000000000000000000000000000000000000000000000000000000000000000000000000000000000000000000000000000000000000000000000000000000000000000000000000000000000000000000000000000000000000000000000000000000000000000000000000000000000000000000000000000000000000000000000000000000000000000000000000000000000000000000000000000000000000000000000000000000000000000000000000000000000000000000000000000000000000000000000000000000000000000000000000000000000000000000000000000000000000000000000000000000000000000000000000000000000000000000000000000000000000000000000000000000000000000000000000000000000000000000000000000000000000000000000000000000000000000000000000000000000000000000000000000000000000000000000000000000000000000000000000000000000000000000000000000000000000000000000000000000000000000000000000000000000000000000000000000000000000000000000000000000000000000000000000000000000000000000000000000000000000000000000000000000000000000000000000000000000000000000000000000000000000000000000000000000000000000000000000000000000000000000000000000000000000000000000000000000000000000000000000000000000000000000000000000000000000000000000000000000000000000000000000000000000000000000000000000000000000000000000000000000000000000000000000000000000000000000000000000000000000000000000000000000000000000000000000000000000000000000000000000000000000000000000000000000000000000000000000000000000000000000000000000000000000000000000000000000000000000000000000000000000000000000000000000000000000000000000000000000000000000000000000000000000000000000000000000000000000000000000000000000000000000000000000000000000000000000000000000000000000000000000000000000000000000000000000000000000000000000000000000000000000000000000000000000000000000000000000000000000000000000000000000000000000000000000000000000000000000000000000000000000000000000000000000000000000000000000000000000000000000000000000000000000000000000000000000000000000000000000000000000000000000000000000000000000000000000000000000000000000000000000000000000000000000000000000000000000000000000000000000000000000000000000000000000000000000000000000000000000000000000000000000000000000000000000000000000000000000000000000000000000000000000000000000000000000000000000000000000000000000000000000000000000000000000000000000000000000000000000000000000000000000000000000000000000000000000000000000000000000000000000000000000000000000000000000000000000000000000000001600000000000000000000000000000000000000000000000000000000000000000000000000000000000000000000000000000000000000000000000000000000000000000000000000000000000000000000000000000000000000000000000000000000000000000000000000000000000000000000000000000000000000000000000000000000000000000000000000000000000000000000000000000000000000000000000000000000000000000000000000000000000000000000000000000000000000000000000000000000000000000000000000000000000000000000000000000000000000000000560000000000000000000000000000000000000000000000000000000000000000000000000000000000000000000000000000000000000000000000000000000000000000000000000000000000000000000000000000000000000000000000000000000000000000000000000000000000000000000000000000000000000000000000000000000000000000000000000000000000000000000000000000000000000000000000000000000000000000000000000000000000000000000000000000000000000000000000000000000000000000000000000000000000000000000000000000000000005656565656
#030940:00000000000000000000000000560056
#031920:26
#0609b0:0013
#060970:0000000000230000
#060920:00000013
#060960:0000000000000023
#062920:00001323
#062960:0000000000530000
#064970:0013
#0649b0:0000000000230000
#064960:00000013
#064920:0000000000000023
