This file was generated by Ched 2.7.0.0.
#TITLE ""
#ARTIST ""
#DESIGNER ""
#DIFFICULTY 0
#PLAYLEVEL
#SONGID ""
#WAVE ""
#WAVEOFFSET 0
#JACKET ""
#REQUEST "ticks_per_beat 480"
#00002: 4
#BPM01: 170
#00008: 01
#TIL00: ""
#VOLUME: ""
#HISPEED 00
#MEASUREHS 00
#0261a:14
#02612:0024
#00714:14
#00118:16
#00312:16
#00518:0014
#00514:00000014
#00510:41
#00618:1414
#00614:00140000
#01114:00140000
#01118:2414
#01110:41
#01214:1414
#01218:00140000
#0131a:1414
#01312:00140000
#01412:1414
#0141a:00140000
#01518:14
#01514:00140000
#0151a:0014
#01614:14
#01618:00140000
#01612:0014
#0171a:14
#01714:00140000
#01718:0014
#0191a:00140014
#01912:0014
#04312:00140000
#0431a:2414
#04316:00000014
#0431f:21
#0441a:00140000
#04412:2414
#04416:00000014
#04410:41
#0451a:14
#04514:00140000
#04518:0014
#04512:00000014
#04616:14
#04612:00140000
#04618:0014
#04614:00000014
#0471a:14
#04714:0014
#04718:00000014
#04812:14
#0481a:00140000
#04814:0014
#04818:00000014
#04912:14000014
#0491a:0014
#0511a:00140000
#05116:0014
#05112:24000014
#05212:00140000
#05216:0014
#0521a:24000014
#05312:14
#05318:00140000
#05314:0014
#0531a:00000014
#05416:14
#0541a:00140000
#05414:0014
#05418:00000014
#05512:14
#05518:0014
#05514:00000014
#05510:41
#0561a:14
#05612:00140000
#05618:0014
#05614:00000014
#05014:0014
#05016:14
#0501a:00140000
#05018:00000014
#05812:14
#05816:00140014
#0581a:0014
#05912:1414
#0591a:00140000
#05918:00000014
#06014:14
#0601a:00140000
#06016:0014
#06012:00000014
#02118:1414
#02114:00140014
#02110:41
#02314:1414
#02318:00140014
#0251a:1414
#02512:00140014
#0271a:0014
#02712:00000014
#02813:00140000
#02819:14
#02818:0014
#02814:00000014
#02912:0014
#0291a:24000014
#03019:00140000
#03013:14
#03014:0014
#03018:00000014
#03314:0014
#03318:14000014
#03419:00140000
#03412:14
#03413:0014
#0341a:00000014
#03118:0014
#03114:00000014
#03112:24
#03110:41
#03213:00140000
#0321a:14
#03219:0014
#03212:00000014
#03514:14
#0351f:11
#03714:14
#03612:14
#03812:14
#03918:0014
#03914:00000014
#0401a:14
#04016:00140000
#04012:0014
#04018:00000014
#04114:14
#0411a:00140000
#0631a:1414
#06312:00140000
#06314:00000014
#06118:14
#06114:00140000
#0611a:0014
#06112:00000014
#06218:14
#06212:00140000
#0621a:0014
#06214:00000014
#06418:14
#06412:00140000
#06416:0014
#0641a:00000014
#06514:14
#06518:00140000
#06512:0014
#0651a:00000014
#06712:14
#01812:24
#0571a:24
#06614:24
#02013:00340000
#02014:0034
#02219:00340000
#0221a:0034
#02413:00340000
#02412:0034
#0265a:14
#00754:64
#00958:16
#00158:66
#00256:14
#00352:56
#00456:14
#0055a:14
#00552:14
#01158:14
#01952:14
#0435a:14
#04452:14
#0475a:14
#04952:14
#05152:14
#0525a:14
#05552:14
#05758:0016
#05952:14
#02752:14
#0295a:14
#03152:14
#03358:14
#03554:64
#03754:64
#03652:54
#03852:54
#03954:14
#04252:14
#0635a:14
#06854:14
#06752:54
#001380:16
#002360:24
#003320:16
#004360:24
#0043a0:0014
#0053a0:24
#004321:0014
#005321:24
#006341:00000014
#007341:34
#007321:00000024
#008391:14
#009381:26
#010381:00000014
#011381:24
#018321:1400003400003400
#019321:24
#020321:14
#020331:00340000
#020341:00003424
#022381:14
#022391:00340000
#0223a1:00003424
#024341:14
#024331:00340000
#024321:00003424
#026321:0014
#027321:24
#035341:14
#036321:34
#037341:34
#038321:34
#039341:24
#041321:0014
#042321:24
#0573a1:14
#057381:0026
#066341:14
#066331:0000003400000000
#066321:00000034
#067321:34
#067341:0000000034545454
#067331:00000000000000000054005400540054
#068341:24
