This file was generated by Ched 2.7.0.0.
#TITLE ""
#ARTIST ""
#DESIGNER ""
#DIFFICULTY 0
#PLAYLEVEL
#SONGID ""
#WAVE ""
#WAVEOFFSET 0
#JACKET ""
#REQUEST "ticks_per_beat 480"
#00002: 4
#BPM01: 178
#00008: 01
#TIL00: ""
#VOLUME: ""
#HISPEED 00
#MEASUREHS 00
#0001a:14
#0011a:14
#00214:14
#00314:14
#00418:14
#00518:14
#00612:14
#00712:14
#01014:14
#01010:41
#01118:14
#01212:14
#0131a:14
#01812:14
#01810:41
#0191a:14
#02014:14
#02018:0014
#02114:14
#0221a:14
#02312:14
#02418:14
#02414:0014
#02518:14
#03018:0016
#03012:26
#03010:41
#03218:16
#03212:0016
#03812:0016
#03818:26
#04012:16
#04018:0016
#04914:14
#05018:14
#05118:14
#05212:14
#05312:14
#0541a:14
#0551a:14
#0551f:11
#05612:00000014
#05614:14
#0581a:00000014
#05818:14
#06012:14
#0601a:0014
#06112:14
#0611a:0014
#06214:14
#06218:0014
#06418:2616
#0641f:21
#06612:1616
#07218:2616
#07412:1616
#08014:0014
#0801a:24
#08010:41
#08118:14
#08112:0014
#08418:0014
#08412:14
#08514:14
#0851a:0014
#08814:0014
#0881a:24
#08918:14
#08912:0014
#09018:14
#09014:0014
#09218:0014
#09212:14
#09314:14
#0931a:0014
#09414:14
#09418:0014
#04814:24
#04810:41
#08219:0034
#08318:34
#08613:0034
#08714:34
#06510:41
#05652:00000024
#05654:64
#0585a:00000024
#05858:54
#0083a0:14
#0093a0:24
#014340:14
#015340:24
#016380:14
#017380:24
#026320:14
#027320:24
#0283a0:14
#0293a0:24
#031320:1626
#033380:1626
#034320:14
#035340:34
#036340:34
#037320:24
#039380:1626
#041320:1626
#0423a0:14
#043380:34
#044380:34
#0453a0:34
#0463a0:24
#056340:14
#056320:00000054
#057340:0024
#058380:14
#0583a0:00000054
#059380:0024
#063340:1424
#065380:1626
#067320:1626
#0683a0:14
#068380:0034
#069380:34
#0693a0:0024
#070320:14
#070340:0034
#071340:34
#071320:0024
#073380:1626
#075320:1626
#076380:14
#0763a0:0034
#0773a0:34
#077380:0024
#078340:14
#078320:0034
#079320:34
#079340:0024
#0823a0:14
#082390:0034
#083380:3424
#086320:14
#086330:0034
#087340:3424
#0913a0:1424
#095320:1424
#096390:14
#098380:00260000
