This file was generated by Ched 2.7.0.0.
#TITLE ""
#ARTIST ""
#DESIGNER ""
#DIFFICULTY 0
#PLAYLEVEL
#SONGID ""
#WAVE ""
#WAVEOFFSET 0
#JACKET ""
#REQUEST "ticks_per_beat 480"
#00002: 4
#BPM01: 178
#00008: 01
#TIL00: ""
#VOLUME: ""
#HISPEED 00
#MEASUREHS 00
#0021a:14000014
#00212:00140000
#00314:14
#00319:00140000
#00313:0014
#00318:00000014
#00412:14
#0051a:14
#00612:14
#00618:00140000
#00613:0014
#00619:00000014
#00714:14
#01012:14
#0101a:0014
#01010:41
#01114:1414
#01118:00140000
#0121a:14
#01212:0014
#01318:1414
#01314:00140000
#01412:14
#0141a:0014
#01714:14141400
#01514:1414
#0161a:14
#0181a:14
#01812:0014
#01810:41
#01918:1414
#01914:00140000
#02012:14
#0201a:0014
#02114:1414
#02118:00140000
#0221a:14
#02212:0014
#02514:14141400
#02318:14
#02314:0014
#0241a:14
#0261b:13
#02618:0013
#02715:13
#02712:0013
#02918:00000014
#03014:00140000
#03018:0014
#03010:41
#03118:00140000
#03112:14
#03114:0014
#0311a:00000014
#03414:0014
#03418:64
#03518:0014
#03614:0014
#03812:14
#03818:00140000
#03814:0014
#0391a:14
#03914:00140000
#03918:0014
#04018:00000014
#04114:1424
#04118:00140000
#04113:00000064
#04218:0014
#04212:64
#04314:14
#0431a:0014
#04412:14
#0441a:0014
#0481a:1414
#04814:00140000
#04810:41
#04912:1414
#04918:00140000
#05418:14141400
#05512:14141400
#0551f:11
#0521a:14141400
#05314:14141400
#0501a:14
#05018:0014
#05014:00140000
#05112:14
#05114:0014
#05118:00140000
#05618:16
#05617:0016
#05812:16
#05813:0016
#06018:1414
#06014:00140014
#0611a:1414
#06112:00140014
#06218:14
#06214:00140000
#0621a:0014
#06212:00000014
#06418:00140000
#06414:0014
#06412:26
#0641f:21
#0651a:14
#06514:00140000
#06518:0014
#06512:00000014
#06510:41
#0661a:14140000
#06612:00001414
#06718:14
#06714:00140000
#0671a:0024
#06716:00000024
#06818:0014
#0681a:00000014
#06812:24
#06914:0014
#06912:00000014
#07018:0014
#07214:00140000
#07218:0014
#0721a:24
#07312:14
#07318:00140000
#07314:0014
#0731a:00000014
#0741a:00000014
#07412:26
#07516:14000024
#07512:00140000
#0751a:0024
#07618:0014
#07614:00000014
#07612:24
#0771a:14
#07714:0014
#07718:00000014
#07812:14
#0791a:14
#0821a:14
#08214:00140000
#08218:0014
#08212:00000014
#0831a:14
#08314:00140000
#08318:0014
#08312:00000014
#08618:14140000
#08614:00001414
#08719:0015
#0871a:24
#08812:0016
#08918:14
#08914:00140000
#0891a:0014
#08912:00000014
#09018:14
#09114:14
#0921a:14
#09214:00140000
#09218:00001414
#09312:14
#09318:00140000
#09314:00001414
#0951a:14
#09714:14
#00813:24
#00819:24
#0331a:0024
#03319:00000064
#03718:2626
#03712:00260000
#07112:24242400
#0711a:24242400
#08012:26
#08010:41
#09614:24
#09812:00680000
#00452:64
#0055a:54
#00754:64
#00752:0014
#0165a:64
#0185a:14
#0245a:64
#0305a:14
#02958:00000064
#03454:0054
#03558:0054
#03852:14
#04052:00160000
#05658:66
#05657:0026
#05852:56
#05853:0026
#06452:16
#06858:0064
#0685a:00000024
#06954:0054
#06952:00000024
#06958:14
#07054:14
#0725a:14
#07452:00160000
#0775a:14
#07852:64
#07854:0014
#0795a:54
#07958:0014
#08152:0016
#08858:16
#0875a:24
#08759:0065
#09058:64
#0905a:0014
#09154:54
#09152:0014
#0955a:64
#09558:0014
#09754:24
#0003a0:1424
#001320:1424
#004320:14
#004340:0024
#0053a0:14
#005380:0024
#007340:14
#007320:0024
#0163a0:14
#016380:0024
#0243a0:14
#024380:0024
#028380:1400000000000034
#0283a0:0034
#029380:0034003434003400
#0303a0:24
#032320:14
#032340:0034
#033320:24
#034340:0014
#035320:24
#035380:0014
#0363a0:24
#040330:14
#040320:00260000
#045320:14
#045340:0024
#0453a1:14
#045381:0024
#056381:16
#056371:0056
#057381:26
#058321:16
#058331:0056
#059321:26
#063381:1424
#068381:0014
#0683a1:00000054
#069381:24
#069341:0014
#069321:00000054
#070341:24
#074321:16260000
#078321:14
#078341:0024
#0793a1:14
#079381:0024
#080321:1600003500003400
#081321:0035000026000000
#084381:1626
#085321:1626
#0873a1:14
#087391:0035
#088381:26
#090381:14
#0903a1:0024
#091341:14
#091321:0024
#0943a1:14
#094381:0034
#0953a1:34
#095381:0024
#096341:14
#097341:54
#098321:00280000
#0339a0:0014
#033980:000000000000000000000000000000000000000000000000000000000000000000000000000000000000000000000000000000000000000000000000000000000000000000000000000000000000000000000000000000000000000000000000000000000000000000000000000000000000000000000000000000000000000000000000000000000000000000000000000000000000000000000000000000000000000000000000000000000000000000000000000000000000000000000000000000000000000000000000000000000000000000000000000000000000000000000000000000000000000000000000000000000000000000000000000000000000000000000000000000000000000000000000000000000000000000000000000000000000000000000000000000000000000000000000000000000000000000000000000000000000000000000000000000000000000000000000000000000000000000000000000000000000000000000000000000000000000000000000000000000000000000000000000000000000000000000000000000000000000000000000000000000000000000000000000000000000000000000000000000000000000000000000000000000000000000000000000000000000000000000000000000000000000000000000000000000000000000000000000000000000000000000000000000000000000000000000000000000000000000000000000000000000000000000000000000000000000000000000000000000000000000000000000000000000000000000000000000000000000000000000000000000000000000000000000000000000000000000000000000000000000000000000000000000000000000000000000000000000000000000000000000000000000000000000000000000000000000000000000000000000000000000000000000000000000000000000000000000000000000000000000000000000000000000000000000000000000000000000000000000000000000000000000000000000000000000000000000000000000000000000000000000000000000000000000000000000000000000000000000000000000000000000000000000000000000000000000000000000000000000000000000000000000000000000000000000000000000000000000000000000000000000000000000000000000000000000000000000000000000000000000000000000000000000000000000000000000000000000000000000000000000000000000000000000000000000000000000000000000000000000000000000000000000000000000000000000000000000000000000000000000000000000000000000000000000000000000000000000000000000000000000000000000000000000000000000000000000000000000000000000000000000000000000000000000000000000000000000000000000000000000000000000000000000000000000000000000000000000000000000000000000000000000000000000000000000000000000000000000000000000000000000000000000000000000000000000000000000000000000000000000000000000000000000000000000000000000000000000000000000000000000000000000000000000000000000000000000000000000000000000000000000000000000000000000000000000000000000000000000000000000000000000000000000000000000000000000000000000000000000000000000000000000000000000000000000000000000000000000000000000000000000000000000000000000000000000000000000000000000000000000000000000000000000000000000000000000000000000000000000000000000000000000000000000000000000000000000000000000000000000000000000000000000000000000000000000000000000000000000000000000000000000000000000000000000000000000000000000000000000000000000000000000000000000000000000000000000000000000000000000000000000000000000000000000000000000000000000000000000000000000000000000000000000000000000000000000000000000000000000000000000000000000000000000000000000000000000000000000000000000000000000000000000000000000000000000000000000000000000000000000000000000000000000000000000000000000000000000000000000000000000000000000000000000000000000000000000000000000000000000000000000000000000000000000000000000000000000000000000000000000000000000000000000000000000000000000000000000000000000000000000000000000000000000000000000000000000000000000000000000000000000000000000000000000000000000000000000000000000000000000000000000000000000000000000000000000000000000000000000000000000000000000000000000000000000000000000000000000000000000000000000000000000000000000000000000000000000000000000000000000000000000000000000000000000000000000000000000000000005454
#034980:24
#041940:0014
#041920:000000000000000000000000000000000000000000000000000000000000000000000000000000000000000000000000000000000000000000000000000000000000000000000000000000000000000000000000000000000000000000000000000000000000000000000000000000000000000000000000000000000000000000000000000000000000000000000000000000000000000000000000000000000000000000000000000000000000000000000000000000000000000000000000000000000000000000000000000000000000000000000000000000000000000000000000000000000000000000000000000000000000000000000000000000000000000000000000000000000000000000000000000000000000000000000000000000000000000000000000000000000000000000000000000000000000000000000000000000000000000000000000000000000000000000000000000000000000000000000000000000000000000000000000000000000000000000000000000000000000000000000000000000000000000000000000000000000000000000000000000000000000000000000000000000000000000000000000000000000000000000000000000000000000000000000000000000000000000000000000000000000000000000000000000000000000000000000000000000000000000000000000000000000000000000000000000000000000000000000000000000000000000000000000000000000000000000000000000000000000000000000000000000000000000000000000000000000000000000000000000000000000000000000000000000000000000000000000000000000000000000000000000000000000000000000000000000000000000000000000000000000000000000000000000000000000000000000000000000000000000000000000000000000000000000000000000000000000000000000000000000000000000000000000000000000000000000000000000000000000000000000000000000000000000000000000000000000000000000000000000000000000000000000000000000000000000000000000000000000000000000000000000000000000000000000000000000000000000000000000000000000000000000000000000000000000000000000000000000000000000000000000000000000000000000000000000000000000000000000000000000000000000000000000000000000000000000000000000000000000000000000000000000000000000000000000000000000000000000000000000000000000000000000000000000000000000000000000000000000000000000000000000000000000000000000000000000000000000000000000000000000000000000000000000000000000000000000000000000000000000000000000000000000000000000000000000000000000000000000000000000000000000000000000000000000000000000000000000000000000000000000000000000000000000000000000000000000000000000000000000000000000000000000000000000000000000000000000000000000000000000000000000000000000000000000000000000000000000000000000000000000000000000000000000000000000000000000000000000000000000000000000000000000000000000000000000000000000000000000000000000000000000000000000000000000000000000000000000000000000000000000000000000000000000000000000000000000000000000000000000000000000000000000000000000000000000000000000000000000000000000000000000000000000000000000000000000000000000000000000000000000000000000000000000000000000000000000000000000000000000000000000000000000000000000000000000000000000000000000000000000000000000000000000000000000000000000000000000000000000000000000000000000000000000000000000000000000000000000000000000000000000000000000000000000000000000000000000000000000000000000000000000000000000000000000000000000000000000000000000000000000000000000000000000000000000000000000000000000000000000000000000000000000000000000000000000000000000000000000000000000000000000000000000000000000000000000000000000000000000000000000000000000000000000000000000000000000000000000000000000000000000000000000000000000000000000000000000000000000000000000000000000000000000000000000000000000000000000000000000000000000000000000000000000000000000000000000000000000000000000000000000000000000000000000000000000000000000000000000000000000000000000000000000000000000000000000000000000000000000000000000000000000000000000000000000000000000000000000000000000000000000000000000000000000000000000000000000000000000000000000000000000000000000000000000000000000000000000000005454
#042920:24
