This file was generated by Ched 2.7.0.0.
#TITLE ""
#ARTIST ""
#DESIGNER ""
#DIFFICULTY 0
#PLAYLEVEL
#SONGID ""
#WAVE ""
#WAVEOFFSET 0
#JACKET ""
#REQUEST "ticks_per_beat 480"
#00002: 4
#BPM01: 161
#00008: 01
#TIL00: ""
#VOLUME: ""
#HISPEED 00
#MEASUREHS 00
#01419:15
#01812:15
#02019:15
#02114:15
#02214:15
#02317:15
#02417:15
#02912:15
#0291f:11
#05919:0000000000000015
#06017:0000001500000000
#06019:0000000000000015
#01312:15
#01512:15
#01619:15
#01919:15
#01910:41
#03019:15
#03512:15
#03619:15
#03814:0015
#03819:25
#0381f:21
#03810:0041
#04012:15
#04017:0015
#04219:1515
#04312:1515
#04419:15
#04414:0015
#04617:0015
#04612:25
#04819:15
#04814:0015
#05012:1515
#05119:1515
#05212:15
#05217:0015
#01712:25
#00912:25
#00918:0025
#01012:25
#01018:0025
#01113:25
#01119:0025
#01110:41
#01213:25
#01219:0025
#03712:25
#05419:25
#05519:0025
#05612:25
#05712:0025
#05819:25
#06317:0035000000000000
#06217:0035000000000000
#02810:41
#04910:41
#00310:41
#06617:0055
#05959:0000000000000065
#06057:0000006500000000
#06059:0000000000000065
#001320:15
#002320:25
#003380:15
#004380:25
#005330:15
#006330:25
#007390:15
#008390:25
#025320:15
#026340:25
#027390:15
#028370:25
#031320:15
#031340:0035
#032340:35
#032320:0025
#033390:15
#033370:0035
#034370:35
#034390:0025
#039390:1525
#041320:1525
#045390:1525
#047320:1525
#049390:1525
#053320:1525
#054390:15353535
#055390:25
#056320:15353535
#057320:25
#058390:15353535
#059390:25
#059390:0000000015000035
#060370:0000003500000000
#060390:0000000000000035
#062370:0035000000000000
#063370:0035000000000000
#064370:0035000000000000
#066370:0025
