This file was generated by Ched 2.7.0.0.
#TITLE ""
#ARTIST ""
#DESIGNER ""
#DIFFICULTY 0
#PLAYLEVEL
#SONGID ""
#WAVE ""
#WAVEOFFSET 0
#JACKET ""
#REQUEST "ticks_per_beat 480"
#00002: 4
#BPM01: 161
#00008: 01
#TIL00: ""
#VOLUME: ""
#HISPEED 00
#MEASUREHS 00
#00112:15
#00115:0015
#00218:15
#00313:15
#00316:0015
#00310:41
#00512:1515
#00618:1515
#00713:1515
#00819:15
#01312:15
#01317:00150000
#01314:0015
#01319:00000015
#01412:15
#01417:00150000
#01414:0015
#01419:00000015
#01512:15
#01519:0015
#01612:15
#01619:0015
#02112:15
#02119:0015
#01719:0015
#01712:25
#01814:15
#01817:00150000
#01812:0015
#01919:15
#01912:0015
#01910:41
#02017:15
#02014:00150000
#02019:0015
#02214:15
#02217:0015
#02312:15
#02319:0015
#02414:15
#02417:0015
#02912:15
#02919:0015
#0291f:11
#03012:15
#03015:00150000
#03018:0015
#03112:15
#03114:00353500
#03312:1515
#03314:00150000
#03219:15
#03217:00353500
#03519:1515
#03517:00150000
#03819:00150000
#03812:00001515
#0381f:21
#03810:0041
#03917:15
#03912:00150000
#03919:00001515
#04012:15
#04017:00150000
#04014:0015
#04019:00000015
#04112:15
#04115:00150000
#04118:0015
#04217:00150000
#04218:00000015
#04212:25
#04213:0025
#04419:1515
#04417:00150015
#04514:00150000
#04517:0015
#04512:00000015
#04612:00150000
#04619:25001515
#04714:15
#04719:00150000
#04712:00001515
#04819:15
#04814:00150000
#04817:0015
#04812:00000015
#04913:0015
#04916:00150000
#04919:15
#04910:41
#05014:00150000
#05013:00000015
#05019:25
#05018:0025
#05212:1515
#05219:1515
#05318:1515
#05313:00150000
#05517:00151515
#05512:2500001500150000
#05719:00151515
#05714:0000001500150000
#05712:25
#05917:00151515
#05912:2500001500150000
#05918:0000000000000035
#06019:0015000000000000
#06018:0000001500000015
#06017:0000000000150000
#00912:25
#00913:0025
#01014:25
#01015:0025
#01116:25
#01117:0025
#01110:41
#01218:25
#01219:0025
#03419:25
#03412:0025
#03612:25
#03614:00250000
#03616:0025
#03618:00000025
#03712:25
#04314:25
#04319:00250000
#04312:0025
#05117:25
#05112:00250000
#05119:0025
#05412:2525
#05419:00250025
#05612:2525
#05619:00250025
#05812:2525
#05819:00250025
#02810:41
#02819:55
#02817:0000550000555500
#02512:55
#02513:00550000
#02514:0055
#02619:55
#02618:00550000
#02617:0055
#02712:5555
#02714:00550000
#06616:0055
#00857:0015
#00859:55
#01259:0015
#01552:15
#01559:0015
#01652:15
#01659:0015
#03152:55
#03154:00000015
#03352:5555
#03354:00550015
#03259:65
#03257:00000015
#03457:00150000
#03459:55
#03452:0065
#03454:00000015
#03559:6565
#03557:00650015
#03854:15
#04158:0015
#04354:15
#04359:00150000
#04352:0015
#04459:6565
#04457:00650065
#04559:15
#04659:15
#04953:0015
#05159:0015
#05358:0015
#05552:15
#05752:15
#05952:15
#05957:00000055
#06059:0025000000000000
#06057:0000000000250000
#06058:0000005500000055
#05452:1515
#05459:00150015
#05652:1515
#05659:00150015
#05852:1515
#05859:00150015
#004390:1525
#008390:15
#008370:0025
#031320:15
#031340:00353525
#032390:15
#032370:00353525
#033320:1535
#033340:00350025
#034390:15
#034370:00250000
#034320:0015
#034340:00000025
#035390:1535
#035370:00350025
#037320:15
#037340:0055000000000000
#038340:25
#044390:1535
#044370:00350035
#045390:25
#059370:00000015
#059380:0000000000000035
#060390:0035000000000000
#060380:0000003500000035
#060370:0000000000350000
#061390:0055000000000000
#062390:0035000000000000
#063360:0035000000000000
#064390:0035000000000000
#066360:0025
#025920:15
#025940:000000000000000000000000000000000000000000000000000000000000000000000000000000000000000000000000000000000000000000000000000000000000000000000000000000000000000000000000000000000000000000000000000000000000000000000000000000000000000000000000000000000000000000000000000000000000000000000000000000000000000000000000000000000000000000000000000000000000000000000000000000000000000000000000000000000000000000000000000000000000000000000000000000000000000000000000000000000000000000000055250000000000000000000000000000000000000000000000000000000000000000000000000000000000000000000000000000000000000000000000000000000000000000000000000000000000000000000000000000000000000000000000000000000000000000000000000000000000000000000000000000000000000000000000000000000000000000000000000000000000000000000000000000000000000000000000000000000000000000000000000000000000000000000000000000000000000000000000000000000000000000000000000000000000000000000000000000000000000000000000
#026990:15
#026970:000000000000000000000000000000000000000000000000000000000000000000000000000000000000000000000000000000000000000000000000000000000000000000000000000000000000000000000000000000000000000000000000000000000000000000000000000000000000000000000000000000000000000000000000000000000000000000000000000000000000000000000000000000000000000000000000000000000000000000000000000000000000000000000000000000000000000000000000000000000000000000000000000000000000000000000000000000000000000000000055250000000000000000000000000000000000000000000000000000000000000000000000000000000000000000000000000000000000000000000000000000000000000000000000000000000000000000000000000000000000000000000000000000000000000000000000000000000000000000000000000000000000000000000000000000000000000000000000000000000000000000000000000000000000000000000000000000000000000000000000000000000000000000000000000000000000000000000000000000000000000000000000000000000000000000000000000000000000000000000000
#027920:150000000000000000000000000000000000000000000000000000000000000000000000000000000000000000000000000000000000000000000000000000000000000000000000000000000000000000000000000000000000000000000000000000000000000000000000000000000000000000000000000000000000000000000000000000000000000000000000000000000000000000000000000000000000000000000000000000000000000000000000000000000000000000000000000000000000000000000000000000000000000000000000000000000000000000000000000000000000000000000055250000000000000000000000000000000000000000000000000000000000000000000000000000000000000000000000000000000000000000000000000000000000000000000000000000000000000000000000000000000000000000000000000000000000000000000000000000000000000000000000000000000000000000000000000000000000000000000000000000000000000000000000000000000000000000000000000000000000000000000000000000000000000000000000000000000000000000000000000000000000000000000000000000000000000000000000000000000000000000000000
#027940:00550000
#028990:15
#028970:000000000000000000000000000000000000000000000000000000000000000000000000000000000000000000000000000000000000000000000000000000000000000000000000000000000000000000000000000000000000000000000000000000000000000000000000000000000000000000000000000000000000000000000000000000000000000000000000000000000000000000000000000000000000000000000000000000000000000000000000000000000000000000000000000000000000000000000000000000000000000000000000000000000000000000000000000000000000000000000000000000000000000000000000000000000000000000000000000000000000000000000000000000000000000000000000000000000000000000000000000000000000000000000000000000000000000000000000000000000000000000000000000000000000000000000000000000000000000000000000000000000000000000000000000000000000000000000000000000000000000000000000000000000000000000000000000000000000000000000000000000000000000000000000000000000000000000000000000000000000000000000000000000000000000000000000000000000000000000000000550000000000000000000000000000000000000000000000000000000000000000000000000000000000000000000000000000000000000000000000000000000000000000000000000000000000000000000000000000000000000000000000000000000000000000000000000000000000000000000000000000000000000000000000000000000000000000000000000000000000000000000000000000000000000000000000000000000000000000000000000000000000000000000000000000000000000000000000000000000000000000000000000000000000000000000000000000000000000000000000000000000000000000000000000000000000000000000000000000000000000000000000000000000000000000000000000000000000000000000000000000000000000000000000000000000000000000000000000000000000000000000000000000000000000000000000000000000000000000000000000000000000000000000000000000000000000000000000000000000000000000000000000000000000000000000000000000000000000000000000000000000000000000000000000000000000000000000000000000000000000000000000000000000000000000000000000000000000000000000000000000000000000000000000000000000000000000000000000000000000000000000000000000000000000000000000000000000000000000000000000000000000000000000000000000000000000000000000000000000000000000000000000000000000000000000000000000000000000000000000000000000000000000000000000000000000000000000000000000000000000000000000000000000000000000000000000000000000000000000000000000000000000000000000000000000000000000000000000000000000000000000000000000000000000000000000000000000000000000000000000000000000000000000000000000000000000000000000000000000000000000000000000000000000000000000000000000000000000000000000000000000000000000000000000000000000000000000000000000000000000000000000000000000000000000000000000000000000000000000000000000000000000000000000000000000000000000000000000000000000000000000000000000000000000000000000000000000000000000000000000000000000000000000000000000000000000000000000000000000000000000000000000000000000000000000000000000000000000000000055250000000000000000000000000000000000000000000000000000000000000000000000000000000000000000000000000000000000000000000000000000000000000000000000000000000000000000000000000000000000000000000000000000000000000000000000000000000000000000000000000000000000000000000000000000000000000000000000000000000000000000000000000000000000000000000000000000000000000000000000000000000000000000000000000000000000000000000000000000000000000000000000000000000000000000000000000000000000000000000000000000000000000000000000000000000000000000000000000000000000000000000000000000000000000000000000000000000000000000000000000000000000000000000000000000000000000000000000000000000000000000000000000000000000000000000000000000000000000000000000000000000000000000000000000000000000000000000000000000000000000000000000000000000000000000000000000000000000000000000000000000000000000000000000000000000000000000000000000000000000000000000000000000000000000000000000000000000000000000000000
