This file was generated by Ched 2.7.0.0.
#TITLE ""
#ARTIST ""
#DESIGNER ""
#DIFFICULTY 0
#PLAYLEVEL
#SONGID ""
#WAVE ""
#WAVEOFFSET 0
#JACKET ""
#REQUEST "ticks_per_beat 480"
#00002: 4
#BPM01: 125
#00008: 01
#TIL00: ""
#VOLUME: ""
#HISPEED 00
#MEASUREHS 00
#00412:14
#00512:14
#0061a:14
#0071a:14
#01014:14
#0111a:14
#01214:14
#01318:14
#01310:41
#01412:14
#01518:14
#01612:14
#0211a:14
#02114:0014
#02110:41
#0221a:14
#02214:0014
#02318:14
#02312:0014
#02418:14
#02412:0014
#02512:0016
#02518:26
#02618:1616
#02712:16
#02718:0016
#02812:16
#02818:0016
#02918:0016
#02912:26
#02910:41
#03012:1616
#03118:16
#03112:0016
#03218:16
#03212:0016
#04214:14
#04318:14
#04412:14
#04410:0041
#0451a:14
#0451f:11
#04912:0014
#0491a:14
#05118:16
#05312:16
#04814:14
#0501a:14
#05012:0026
#0501f:0021
#05010:00000041
#05218:0016
#05412:0016
#05518:16
#0571a:0014
#05812:0014
#05912:0014
#0091a:24
#04118:24
#04612:24
#0461a:0024
#04712:24
#0471a:0024
#0561a:0024
#03710:41
#000340:14
#001340:24
#002380:14
#003380:24
#008320:1424
#0173a0:14
#017380:0034
#018380:34
#0183a0:0024
#019320:14
#019340:0034
#020340:34
#020320:0024
#0333a0:14
#034380:34
#0353a0:34
#036380:24
#037320:14
#038340:34
#039320:34
#040340:24
#051320:0016
#052320:26
#053380:0016
#054380:26
#055320:0016
#056320:00260000
#060380:14003424
