This file was generated by Ched 2.7.0.0.
#TITLE ""
#ARTIST ""
#DESIGNER ""
#DIFFICULTY 0
#PLAYLEVEL
#SONGID ""
#WAVE ""
#WAVEOFFSET 0
#JACKET ""
#REQUEST "ticks_per_beat 480"
#00002: 4
#BPM01: 125
#00008: 01
#TIL00: ""
#VOLUME: ""
#HISPEED 00
#MEASUREHS 00
#00414:00140014
#0041a:2414
#00518:14
#00512:00140000
#00612:1414
#00618:00140014
#00714:14
#0071a:00140000
#00914:00140000
#0091a:2414
#01012:1414
#01018:00140000
#0111a:14
#01114:00140000
#01118:0014
#01212:14
#01218:00140000
#01214:0014
#01314:00140000
#01318:0014
#01312:00000014
#0131a:24
#01310:41
#01418:14
#01413:00140000
#01518:00140000
#01514:0014
#0151a:00000014
#01512:24
#01614:14
#01619:00140000
#0171a:14
#01814:14
#01918:14
#02012:14
#02114:00140000
#0211a:00001414
#02118:24
#02110:41
#02214:14
#02218:00140000
#02212:00001414
#0231a:14
#02312:00140000
#02318:00001414
#02412:14
#0241a:00140000
#02414:00001414
#02512:00140000
#02518:00001414
#02514:0000000000140000
#0251a:24
#02612:14
#0261a:00140000
#02614:00001414
#02618:0000000000140000
#0271a:14
#02712:0024
#0281a:14
#02812:00140000
#02818:00001414
#02814:0000000000140000
#0291a:00140000
#02914:0014
#02918:0000000000140000
#02912:24000014
#02910:41
#0301a:14000014
#03012:00140000
#03018:0014
#03014:0000000000140000
#03112:14
#0311a:0024
#03212:14
#0321a:00140000
#03214:00001414
#03218:0000000000140000
#0331a:14
#03317:0000001434000000
#03618:14
#0361a:0000003400000000
#0351a:14
#03513:00140000
#03519:0014
#03512:00000014
#03912:14
#03915:00140000
#03412:14
#03415:0000001434000000
#03712:14
#03715:0000001434000000
#03710:41
#0381a:14
#03817:0000341434000000
#04112:00140000
#04116:0014
#0411a:00000014
#04118:24
#04214:14
#0421a:00140000
#04216:0014
#04212:00000014
#04318:14
#04312:00140000
#04316:0014
#0431a:00000014
#04714:0014
#04718:00000014
#04719:25
#04918:0014
#05012:14000014
#0501a:1424
#0501f:0021
#05010:00000041
#05118:14
#05114:00140000
#0511a:0024
#05116:00000024
#0521a:0014
#05212:24
#0531a:0014
#05312:24000014
#05418:14140000
#05414:0014000000000000
#05412:0015
#05514:15
#0561a:00140014
#05612:0024
#05716:14
#05712:00140000
#05718:0014
#05714:00000014
#05812:00000014
#0581a:00140000
#05916:14
#05914:0014
#05918:00000014
#0591a:00140000
#0451f:11
#04512:24
#00818:26
#00812:0026
#04412:24
#04418:00240000
#04414:0024
#0441a:00000024
#04410:0041
#04619:25
#04612:0025
#06018:0000000054545454
#0045a:14
#0175a:54
#01854:54
#01958:54
#02052:54
#0255a:14
#0275a:54
#02752:0054
#02758:00140000
#02754:00000014
#02858:00000014
#03152:64
#0315a:0064
#03154:00140000
#03158:00000014
#03254:00000014
#0335a:54
#03357:0000002400000000
#03658:54
#0365a:0014
#03952:5400000000000014
#03955:00240000
#03452:64
#03455:0000002400000000
#03752:64
#03755:0000002400000000
#0385a:54
#03857:0000002400000000
#04158:14
#04659:15
#04652:0015
#04759:15
#04954:14
#04958:0014
#0525a:0054
#05258:00000014
#05352:54
#05354:00140000
#05458:00140000
#05452:0065
#05554:65
#05652:0014
#05858:0014
#0585a:00540000
#0003a0:1424
#001340:1424
#002380:1424
#003320:1424
#005380:00001424
#007340:00001424
#0143a0:00001424
#016320:00001424
#0173a0:14
#017380:0024
#018340:14
#018320:0024
#019380:14
#0193a0:0024
#020320:14
#020340:0024
#0273a0:14
#027380:00240000
#027320:0014
#027340:00000024
#031320:14
#031340:00240000
#0313a0:0014
#031380:00000024
#0333a0:14000024
#033370:0000003434000000
#034320:14000024
#034350:0000003434000000
#036380:14
#0363a0:0000003424000000
#037320:14000024
#037350:0000003434000000
#0383a0:14000024
#038370:0000345434000000
#039320:1400000034003424
#039350:00540000
#045320:14005424
#045340:0054003400000000
#048340:1434
#049340:24
#0523a0:0014
#052380:00000024
#053320:14
#053340:00240000
#054320:0015
#055340:35
#055320:0025
#0583a0:14340000
#058380:0024
#060320:14240000
#060980:0000000014000024
