This file was generated by Ched 2.7.0.0.
#TITLE ""
#ARTIST ""
#DESIGNER ""
#DIFFICULTY 0
#PLAYLEVEL
#SONGID ""
#WAVE ""
#WAVEOFFSET 0
#JACKET ""
#REQUEST "ticks_per_beat 480"
#00002: 4
#BPM01: 200
#00008: 01
#TIL00: ""
#VOLUME: ""
#HISPEED 00
#MEASUREHS 00
#0521f:11
#0521b:0000001300000000
#05212:13
#05216:00000013000000000000000000000000
#05218:00001313
#05215:0000000000130013
#08718:00001313
#08715:0000000000130013
#08712:00130000
#0871b:00130000
#08912:1426
#0891a:14000014
#08914:00000014000000000000000000000000
#08918:0014260000130000
#08915:00000000000000000000001300000000
#08916:0000000000000014
#0881a:1213
#08814:12
#08818:00001200240000000000001300000000
#08815:0000000000130000
#08813:00001325
#08816:00000012000000000000000000000000
#0651a:14
#06512:14260016
#06518:00000014000000002600000026000000
#06514:0014000000000000
#06515:0000000000000026
#06413:0013
#0641a:1213
#06414:12240000
#06415:00000000000000000000001300000000
#06418:00000012000000000000130025000000
#06416:0012000000000000
#10017:12000000000052005200520052525200
#00815:0013001300001300
#0081b:0013
#00812:0013
#00818:0000130000130013
#02912:13131400
#0291b:00001313
#0291a:14
#03016:14
#03012:13131300
#0301b:0013
#03015:00000013
#03018:00000053
#03019:000053
#0301a:000000000000005300000000
#03013:000000000000000000000053
#03014:000000000053
#0131a:14140014
#01312:1414
#01316:0000000000000014
#01416:00000014000000000000000014000000
#0141a:1414
#01414:0000000000000014
#01418:0000000000140000
#01412:0000001400000000
#01112:14140014
#0111a:1414
#01116:0000000000000014
#01110:41
#01216:00000014000000000000000014000000
#01212:1414
#01218:0000000000000014
#01214:0000000000140000
#0121a:0000001400000000
#05114:13130000
#05119:00001313
#00512:0000001300000000
#0051b:0000001300000000
#00518:0013000000001300
#00515:0000130000130000
#0041b:0000000013130013
#00415:0000130000000013
#00418:0013001300000000
#00412:0000000013130000
#00918:0000140000002413
#00912:1414
#00919:0000002400140000
#00914:00240014
#0091a:2424
#00913:0024000000240000
#00915:0000000000000023
#0151a:14000014
#01512:14141400
#01516:00140014
#0481b:13000013
#04816:00000013
#04815:0000001313000000
#04818:00000000000000130000000000000000
#04917:13
#0491b:00130023
#04918:0013
#04912:00130023
#04915:0013
#03714:0000001300000013
#03716:00000013
#0371b:13130013
#03717:0013
#03719:0000000000130000
#03712:1313
#03312:13
#03314:00000024
#03316:0024
#03318:00240000
#0331a:24
#0321a:0014
#03212:13131313
#03216:14
#03112:53131313
#03118:0000001400000014
#0311a:14001414
#02812:0014
#0281b:13131313
#02816:14
#0271b:53131313
#02714:0000001400000014
#02712:14001414
#02612:13261300
#02618:26000013
#0261b:00130000
#02615:00000053
#02614:000053
#02613:000000000000005300000000
#0261a:000000000000000000000053
#02619:000000000053
#07315:00000000130000130000000013000000
#0731b:13
#07318:0000001300000000
#07918:0013001300001313
#07915:00000000130000000000000000130013
#0791b:13
#07912:1413
#0791a:0014
#0951a:14140014
#09512:14000000140000000000000000000014
#09518:0014000014000014
#09514:00000000000014000000140000140000
#09414:0014000014000014
#09412:00140014
#0941a:00140014
#09418:1400001400140000
#09712:1400001414000000
#09716:14
#0971a:00000000000000140000000000000000
#09718:00000024
#09714:00000024
#09616:14141414
#09612:0000001400002400
#0961a:0000240014000014
#09312:1400000000140000
#09314:0000140000000014
#09318:0000001400001400
#09315:0014
#0931a:0014000014000000
#09317:14
#04612:14001413
#0461a:1414
#04616:00000014
#04516:0000000000140014
#04512:14140014
#0451a:1414
#04416:0000000013000014
#04418:0000001300000000
#0441b:13130013
#04415:0013000000000000
#04412:13
#05916:00120000
#05913:00000000000000000000001400000000
#05919:0000000000140000
#05912:00000000000000000014000000000000
#0591a:2414
#05914:00000028
#03418:00120000
#03414:00000018
#03419:00000000000000000000001400000000
#03413:0000000000140000
#0341a:00000000000000000014000000000000
#03412:2414
#0981a:00140000
#09812:14
#09816:00241400
#09214:0000140000140014
#0921a:2414
#09212:2414
#09218:0014001400001400
#09116:00000012
#09012:14
#0851b:00130000
#0851a:14
#08512:14
#08514:000000130000000000000000000000000000000033000000
#08516:00130000
#08519:0000001300000000
#08513:000000000000000000000000000000000000003300000000
#08412:00141400
#08416:0000001400000014
#0841a:00001414
#08415:00001300000000000000001300000000
#08418:26000013000000000000130000000000
#08410:41
#08214:0000000000000013
#0821b:13001313
#08212:00131300
#08219:0000001300000000
#07817:00131300
#07816:13000013
#07819:0000000000000013
#07814:0000001300000000
#07715:1300000000000013
#0771b:00000000130000000000000000000013
#07714:00000013
#0771a:00000000000000000000000000130000
#07712:0013
#07718:00000000000000000013000000000000
#07713:0000000000130000
#07719:00000000000000000000001300000000
#08115:00000000130000000000000000000013
#0811b:13
#0811a:0000000000000013
#08114:00000000000000000000000000130000
#08119:00000013
#08113:00000000000000000000001300000000
#08118:0000000000130000
#08112:00000000000000000013000000000000
#08117:0013
#08017:00130000
#0801b:1300000000000013
#08016:00000013
#08012:0000001313000000
#0761b:00000013
#07612:00130000
#07615:1300000000000013
#07618:0000001313000000
#07215:00000013
#07218:26151413
#07214:0014
#07213:00150000
#07416:0013000000000000
#07412:13230023
#07417:0013
#0741b:13130023
#07112:26261300
#07118:1600260000001313
#07115:00001600000000000000000000130013
#0711b:0013
#07014:0018000000000000
#07012:22132415
#0701a:0014
#07017:0000000000000012
#07016:0000000000140000
#0701c:12
#07015:0000001600000000
#07019:00000025
#0701b:00230000
#06912:14141400
#06916:0014001400140000
#0691a:14001414
#06915:0000000000000016
#06812:1414
#06816:00000014000000000000140000001400
#0681a:1400001400001400
#06618:1600000000000016
#06615:0016000000000000
#06612:26160000
#06614:00000016
#06616:0000001600000000
#06617:0000000000160000
#06613:0016
#06315:0000000000130013
#06318:00001313
#0631a:14
#06316:1414000000000000
#06312:00140000
#06310:41
#06216:0000141400140000
#0621a:14001414
#06212:24140014
#06214:0000000000000014
#06218:0014000000000000
#0621f:21
#06112:00000014
#0611a:00000014
#06116:0000000000000014
#06012:16
#06018:0000000012121313
#06015:00000000000000000000000000130013
#06016:00000000000000000012001200000000
#05612:2400001300000000
#0561b:13
#05617:00000013000000000000000000000000
#05615:00001313
#05618:0000000000130013
#05716:00130000
#05717:00000013
#0571b:13131300
#05712:13000013
#05317:00130000
#05316:00000013
#05312:13131300
#0531b:13000013
#05416:00130000
#05414:00000013
#05419:0013
#0541b:13
#05013:0000001400000000
#05018:0014
#0501a:24140000
#05019:00000000000024000000000000230023
#05014:0000000024002323
#05012:24240000
#04715:00000013
#04716:00140000
#04712:14
#0471b:00131300
#04710:41
#0381b:13
#03812:1314
#03814:0000000000000014
#03816:00000014
#03818:0000000000140000
#0381a:0014
#04318:0000000000130013
#04315:00000013
#04312:2300001313000000
#04317:00000013000000000000000000000000
#0431b:1313
#04216:0014000000140000
#04212:26261426
#0421a:14
#04218:00002626
#04215:0000002600000000
#04118:0000000000000014
#04112:1314
#0411b:13
#0411a:0000001400000000
#04116:00000014
#04114:0000000000140000
#04015:0016001600000016
#04012:16261600
#04018:00162600
#0401b:00000013
#03916:0014000000150000
#0391a:0014
#03912:14240000
#03919:00000025
#0361b:1313
#03615:0000001300000000
#03612:13130013
#03618:0013000000000000
#03619:0000000000000013
#03515:0000000000130013
#03518:00000013
#0351b:2300001313000000
#03516:00000013000000000000000000000000
#03512:1313
#03510:41
#01016:12120000
#01018:0012000000000000
#01014:00000018
#01013:00000000000000000000001400000000
#01019:0000000000140000
#01012:00000000000000000014000000000000
#0101a:0014
#02516:0000001400130014
#0251b:13231313
#02512:00131323
#02517:0013000000000000
#0241b:13
#0241b:13
#02417:00130000
#02416:00000013
#02412:0013
#02419:00000013
#02414:00130000
#02312:13000013
#0231b:00130000
#02315:0013
#02317:13000013
#02316:00130000
#02310:41
#02212:0013
#02217:00000013
#02219:0000000000130000
#0221b:13131300
#02215:0000001300000013
#02216:13
#02112:00130013
#0211b:1313
#02117:00000013
#02114:0000000000000013
#02119:0000000000130000
#02116:13
#01912:1313
#0191b:00130013
#01916:00000013
#01919:0000000000000013
#01914:0000000000130000
#01917:13
#0201b:0013
#02016:00000013
#02014:0000000000130000
#02012:13131300
#02018:0000001300000013
#02017:13
#01716:1414
#01712:00000014000000000000000000000000
#0171a:0000001400000000
#01612:00140014
#01616:0014001400140000
#0161a:14000000000000001400000000000014
#00618:0013000000000013
#00612:2400001300000000
#00615:00130000
#00715:0013001300000000
#0071b:0000000000130013
#00712:0000000000000013
#00718:00130000
#00318:0013001300000000
#00312:0000000000130013
#0031b:0000000000000013
#00315:00130000
#00212:13
#00215:0013000000000013
#0021b:0000001300000000
#00218:00130000
#00016:14141414
#09914:24000000000000000000002300230023
#09912:00240000
#09918:24
#0991a:00242300
#09919:0000000000232323
#09913:0023
#09916:0000002400000000
#08313:00000000000000000000000000000025
#08318:0000000023232425
#08314:00000000000023000000000000240000
#08315:00000000000000000023002300000000
#08319:00230000
#08312:23
#0831b:23
#0011a:24240024
#00112:2424
#00116:0000002400000000
#00114:00000024000000000000000000000000
#00118:0024000000000000
#05518:00240000
#0551a:24
#05514:00000024
#05516:0024
#07518:26000000260000002600000000230023
#07515:0000000000002323
#07512:2600002600000000
#06718:2600002600002600
#06712:26262626
#05814:00240000
#05812:24
#05818:00000024
#05816:0024
#01813:00000024
#01819:00000024
#08615:0000000000000000000000000000000000000033000000000000000000000000
#08614:00000000000000000033000000000000
#08613:0000000000000000000000000000000000330000000000000000000000000000
#0861a:0000000000000000003300000000000000000000000000000000000000000000
#08619:00000000003300000000000000000000
#08618:0000000000000000000000330000000000000000000000000000000000000000
#0025a:14
#00255:0000000000000063
#0025b:0000006300000000
#07358:00000013
#07355:00000013
#0735b:63
#04658:00140000
#04654:00140000
#04652:54
#0465a:6464
#04656:00000054
#04556:0000140014240024
#0455a:64006444
#04552:34540054
#08752:13
#0875b:13
#0865b:13
#08656:13
#0635a:64440000
#06356:0024000000000000
#06352:00340000
#06152:0014
#0615a:0014
#04752:5414
#0475a:14
#04755:00000063
#04756:00640000
#0475b:0063
#03858:00130000
#03855:00130000
#0385b:63
#03852:53
#0445b:43634300
#04452:53330000
#04456:0063
#04458:0000002300000000
#04455:0023000000000000
#03652:33533300
#0365b:63436300
#03655:0000002300000000
#03658:0023000000000000
#02552:13005333
#0255b:63430000
#02556:0000000000230000
#02557:0023000000000000
#0245b:6313
#0245b:63
#02456:13000063
#02457:00530000
#02452:0053
#02358:0013
#02352:13000053
#0235b:00630000
#02355:0063
#02357:53
#0185a:14
#01852:14
#01853:00000014
#01859:00000014
#09158:00000012
#09156:00000012
#04952:00530033
#0495b:00630043
#04957:53
#04958:0023
#04955:0023
#09954:14
#09958:14
#04058:00664600
#04052:56365600
#04055:0026002600000000
#06558:0016
#06552:00160000
#08952:0016
#08958:00160000
#08858:00140000
#08853:00000015
#06454:00140000
#06458:00000015
#07452:53330033
#0745b:00630043
#07456:0023000000000000
#07457:0023
#07059:00000045
#07052:3234
#0705b:00430000
#07158:66460000
#07152:36365300
#07155:0026000000000000
#05954:00000018
#05956:00620000
#03354:00000014
#03356:0014
#03358:00140000
#0335a:14
#03452:14
#03458:00520000
#03454:00000018
#09758:00000014
#09754:00000014
#09752:0054
#09756:54
#09652:0000002400001400
#0965a:0000140000000024
#09656:54646454
#09856:00142400
#0985a:00640000
#09852:54
#07558:46464600
#07552:3600003600000000
#06758:4600004600004600
#06752:36363636
#04352:13
#04357:00000023000000000000000000000000
#0435b:63
#04252:36365436
#04258:00004646
#04256:0024000000240000
#0425a:64
#03959:00000045
#03952:54340000
#03956:0024000000250000
#0395a:0064
#02658:46
#02652:00360000
#00652:1400005300000000
#00658:0000000000000053
#07258:4644
#07255:00000063
#07253:00350000
#08458:46
#06252:34540000
#06256:0000002400000000
#0355b:13
#03556:00000023000000000000000000000000
#03552:53
#02952:0054
#0295a:64
#03056:54
#01456:00000024000000000000000000000000
#0145a:64
#01352:5454
#0135a:00640000
#01256:00000024000000000000000000000000
#01252:54
#05154:00630000
#05159:00000053
#0055b:0000006300000000
#00558:00000053
#04856:00000063
#0485b:63
#04855:0013
#03752:53
#0325a:0064
#03256:54
#0315a:64
#02852:0054
#02856:64
#02752:54
#07952:3453
#0795a:0044
#09552:34
#0955a:00440000
#09452:00340000
#0945a:00000044
#09352:24
#09358:0000005400004400
#0935a:0024
#09354:00340000
#09254:0000340000000064
#09258:00000044
#09052:64
#08252:0053
#0825b:63
#07857:0053
#07856:63
#07755:63
#0775b:00630000
#08155:00630000
#0815b:63
#08057:00230000
#0805b:63
#08056:00000023
#08052:0053
#0765b:00000023
#07652:00230000
#07658:0053
#07655:63
#06852:54
#06856:00000024000000000000000000000000
#0685a:14
#06952:1454
#06956:0024000000240000
#0695a:6414
#06658:66
#06655:0026000000000000
#06052:56
#0565b:63
#05657:00000023000000000000000000000000
#05756:00630000
#05757:00000053
#0575b:0063
#05752:53
#05252:53
#05256:00000023000000000000000000000000
#05357:00530000
#05356:00000063
#05352:0053
#0535b:63
#05456:00630000
#05454:00000063
#05459:0063
#0545b:63
#04152:53
#0415b:63
#01056:00620000
#01054:00000018
#02256:63
#02152:00530000
#0215b:63
#01952:53
#0195b:00630000
#01756:6464
#01752:00000024000000000000000000000000
#01652:00540054
#01656:0024002400240000
#0165a:6464
#0155a:64
#01552:0054
#01556:00540064
#0115a:6464
#01152:00540000
#00455:0000000000000063
#00755:0000006300000000
#0075b:0000000000000063
#00358:0000005300000000
#00352:0000000000000053
#02057:53
#001320:00001424
#0013a1:00000014
#0023a1:24
#0023b1:0000001300000000
#002381:0000000000230000
#002350:0000000000132300
#002381:0000000000001323
#002350:0000000000000013
#003320:0023000000000000
#003380:0000001300000000
#0033b0:0000000000230000
#003320:0000000000000013
#004350:0023000000000000
#004350:0000000000000013
#005320:0023000000000000
#0053b0:0000001300000000
#005380:0000000000230000
#005380:00000013
#0063b0:23
#006320:0000001300000000
#006350:0000000000230000
#006381:0000000000132300
#006350:0000000000001323
#006381:0000000000000013
#0073b1:0023000000000000
#007351:0000001300000000
#007321:0000000000230000
#0073b1:0000000000000013
#008381:0023000000000000
#010361:00120000
#010321:0024
#0113a1:14
#011361:00240000
#011320:00140000
#011360:0024
#0113a1:0014
#011361:00000024
#012321:1400002400000000
#012361:00000054000000000000000000000000
#013321:14
#013361:00240000
#0133a0:00140000
#013360:0024
#013321:0014
#013361:00000024
#0143a1:1400002400000000
#014361:00000054000000000000000000000000
#0153a1:1424
#015361:00340000
#015320:0014
#015360:00000034
#016320:24
#0163a1:14240000
#016361:0054000000000000
#016320:00142400
#016360:0000005400000000
#0163a1:00001424
#016361:0000000000540000
#016320:00000014
#016360:00000000000000000000000000000024
#017360:1400002400000000
#017320:00000054000000000000000000000000
#017360:0014
#017320:00000034
#018320:24
#0173a1:00000014
#0183a1:24
#019321:13
#019361:00230000
#0193b0:00130000
#019370:0023
#020370:13
#0203b0:00230000
#0213b0:13
#021370:00230000
#021321:00130000
#021361:0023
#022361:13
#022321:00230000
#023371:13
#0233b1:00330000
#023381:0023
#023350:0013
#023320:00000033
#024360:23
#0243b1:1323
#024371:00330000
#024320:0013
#024360:00000033
#025320:23
#0253b1:13230000
#025371:0053000000000000
#025321:00001323
#025361:0000000000530000
#027321:14
#027361:00240000
#028361:14
#028321:00240000
#028321:0014
#028361:00000024
#0293a1:14
#029361:00240000
#029321:0014
#029361:00000024
#030361:14
#0303a1:00240000
#0313a1:14
#031361:00240000
#032361:14
#0323a1:00240000
#0323a1:0014
#032361:00000024
#034381:00120000
#0343a1:0024
#035321:1300002300000000
#035361:00000053000000000000000000000000
#0363b1:13230000
#036381:0053000000000000
#036320:00132300
#036350:0000005300000000
#0363b1:0013
#036371:00000023
#037321:13
#037361:00230000
#0383b1:13
#038381:00230000
#038320:13
#038350:00230000
#0393a0:14343400
#039360:0000000000550000
#039390:00000025
#039321:14240000
#039361:0054000000000000
#039321:00001636
#040321:36260000
#040351:0056000000000000
#040380:16362600
#040350:0000005600000000
#040321:0016
#040351:00000026
#041321:13
#041351:00230000
#0413b0:13
#041380:00230000
#0423a0:14
#042360:0054000000000000
#042380:00260000
#042320:00001426
#042360:0000000000540000
#0433b0:1300002300000000
#043370:00000053000000000000000000000000
#044320:13230000
#044350:0053000000000000
#0443b1:00132300
#044381:0000005300000000
#044360:0013
#044320:00000023
#0453a0:14
#045360:00240000
#045321:00140000
#045361:0024
#0453a0:00001424
#045360:0000000000540000
#045321:00000014
#045361:0000000000000054
#046321:34
#046341:00240000
#0463a0:14
#046380:00240000
#0463a0:0014
#046360:00000034
#0473a0:24
#047321:1424
#047361:00340000
#0473b0:0013
#047380:00000023
#047351:00000013
#048321:23
#0483b0:13
#048380:0000002300000000
#048360:00000013
#049320:23
#049371:13
#0493b1:00330023
#049381:0053
#049320:00130023
#049350:0053
#051340:00130000
#051320:0027
#051390:00000013
#052370:27
#052321:1300002300000000
#052361:00000053000000000000000000000000
#0533b1:1323
#053371:00330000
#053320:0013
#053360:00000033
#054320:23
#0543b1:13
#054391:00230000
#054360:00130000
#054340:0023
#054391:0013
#054371:00000023
#054340:00000013
#055320:23
#0563b0:1300002300000000
#056370:00000053000000000000000000000000
#057320:1323
#057360:00330000
#0573b1:0013
#057371:00000033
#0583b1:23
#059361:00120000
#059321:0024
#060321:16
#060361:0022
#061381:14
#0613a1:00540000000000002400000000000000
#061340:00140000
#061320:00000000005400002400000000000000
#062320:00142400
#062360:0000005400000000
#0633a0:14240000
#063360:0054000000000000
#066380:16260000
#066350:0056000000000000
#068320:1400002400000000
#068360:00000054000000000000000000000000
#0693a0:14240000
#069360:0054000000000000
#069320:00001424
#069360:0000000000540000
#071380:16260000
#071350:0056000000000000
#071320:0013
#071350:00000023
#072350:00000013
#073320:23
#0733b1:13
#073381:00230000
#073381:00001323
#074321:13230000
#074361:0053000000000000
#0743b0:00130023
#074370:0053
#076350:1323
#076320:00530000
#076381:0013
#0763b1:00000053
#077381:23
#077350:13
#077320:00230000
#0773b1:00130000
#077381:0023
#078361:13
#078321:00230000
#078371:0013
#0783b1:00000023
#079321:0013
#079351:00000023
#0803b1:1323
#080371:00530000
#080320:0013
#080360:00000053
#081320:23
#0813b1:13
#081381:00230000
#081350:00130000
#081320:0023
#0823b0:13
#082370:00230000
#082320:0013
#082360:00000023
#085370:0013
#085380:0000000000000000000000000000000000330000000000000000000000000000
#085390:00000000000000000033000000000000
#0853a0:0000000000000000000000000000000000000033000000000000000000000000
#0853b0:0000000000330000
#0863b0:23
#085321:00001333
#085331:000000000000000000000000000000000000003300000000
#085341:000000000033
#085361:0000000000000033
#086361:23
#0863b1:0000130000000033
#0863a1:000000000000000000000000000000000000000000000000000000330000000000000000000000000000000000000000000000000000000000000000000000000000000000000000000000000000000033000000000000000000000000000000
#086391:000000000000000000000000000000330000000000000000000000000000000000000000000033000000000000000000
#086381:0000000000000000000000333300000000000000000000003300000000000000
#0873b1:23
#086320:0000000013000033
#086330:000000000000000000000000000000000000000000000000000000000000000000000000000000000000000000000000000000330000000000000000000000000000000000000000000000000000000033000000000000000000000000000000
#086340:000000000000000000000000000000000000000000000000000000330000000000000000000033000000000000000000
#086350:0000000000000000000000000000000000000033330000003300000000000000
#087320:23
#090320:1400002300000000
#090381:0000001323000000
#090330:0000000013230000
#090391:0000000000132300
#090340:0000000000001323
#0903a1:0000000000000013
#0913a1:23
#091360:12220000
#0913a1:0000122200000000
#091340:0000001222000000
#091381:00001222
#092341:0000000000000014
#093321:54
#093361:0024000000000000
#093381:0000001400000000
#0933a1:0054
#093361:0000000000240000
#096361:14
#0963a1:00240000
#096360:00143400
#096320:0000005400002400
#096361:00000014
#0963a1:0000000000000054
#097361:34
#0973a1:0000002400000000
#097321:0014
#097341:00000024
#0983a1:14340034
#098361:0054
#098381:00000000000000000000000000540000
#099381:24
#098320:14
#098360:00240000
#098320:00000014
#098340:00000000000000000000000000540000
#099340:24
#026920:0013
#026950:000000000000000000000000000000000000000000000000000000000000000000000000000000000000000000000000000000000000000000000000000000000000000000000000000000000000000000000000000000000000000000000000000000000000000000000000000000000000000000000000000000000000000000000000000000000000000000000000000000000000000000000000000000000000000000000000000000000000000000000000000000000000000000000000000000000000000000000000000000000000000000000000000000000000000000000000000000000000000000000000000000000000000000000000000000000000000000000000000000000000000000000000000000000000000000000000000000000000000000000000000000000000000000000000000000000000000000000000000000000000000000000000000000000000000000000000000000000000000000000000000000000000000000000000000000000000000000000000000000000000000000000000000000000000000000000000000000000000000000000000000000000000000000000000000000000000000000000000000000000000000000000000000000000000000000000000000000000000000000000000000000000000000000000000000000000000000000000000000000000000000000000000000000000000000000000000000000000000000000000000000000000000000000000000000000000000000000000000000000000000000000000000000000000000000000000000000000000000000000000000000000000000000000000000000000000000000000000000000000000000000000000000000000000000000000000000000000000000000000000000000000000000000000000000000000000000000000000000000000000000000000000000000000000000000000000000000000000000000000000000000000000000000000000000000000000000000000000000000000000000000000000000000000000000000000000000000000000000000000000000000000000000000000000000000000000000000000000000000000000000000000000000000000000000000000000000000000000000000000000000000000000000000000000000000000000000000000000000000000000000000000000000000000000000000000000000000000000000000000000000000000000000000000000000000000000000000000000000000000000000000000000000000000000000000000000000000000000000000000000000000000000000000000000000000000000000000000000000000000000000000000000000000000000000000000000000000000000000000000000000000000000000000000000000000000000000000000000000000000000000000000000000000000000000000000000000000000000000000000000000000000000000000000000000000000000000000000000000000000000000000000000000000000000000000000000000000000000000000000000000000000000000000000000000000000000000000000000000000000000000000000000000000000000000000000000000000000000000000000000000000000000000000000000000000000000000000000000000000000000000000000000000000000000000000000000000000000000000000000000000000000000000000000000000000000000000000000000000000000000000000000000000000000000000000000000000000000000000000000000000000000000000000000000000000000000000000000000000000000000000000000000000000000000000000000000000000000000000000000000000000000000000000000000000000000000000000000000000000000000000000000000000000000000000000000000000000000000000000000535353230000000000000000000000000000000000000000000000000000000000000000000000000000000000000000000000000000000000000000000000000000000000000000000000000000000000000000000000000000000000000000000000000000000000000000000000000000000000000000000000000000000000000000000000000000000000000000000000000000000000000000000000000000000000000000000000000000000000000000000000000000000000000000000000000000000000000000000000000000000000000000000000000000000000000000000000000000000000000000000000000000000000000000000000000000000000000000000000000000000000000000000000000000000000000000000000000000000000000000000000000000000000000000000000000000000000000000000000000000000000000000000000000000000000000000000000000000000000000000000000000000000000000000000000000000000000000000000000000000000000000000000000000000000000000000000000000000000000000000000000000000000000000000000000000000000000000000000000000000000000000000000000000000000000000000000000000000000000000000000000
#026981:00000013
#0269b1:000000000000000000000000000000000000000000000000000000000000000000000000000000000000000000000000000000000000000000000000000000000000000000000000000000000000000000000000000000000000000000000000000000000000000000000000000000000000000000000000000000000000000000000000000000000000000000000000000000000000000000000000000000000000000000000000000000000000000000000000000000000000000000000000000000000000000000000000000000000000000000000000000000000000000000000000000000000000000000000000000000000000000000000000000000000000000000000000000000000000000000000000000000000000000000000000000000000000000000000000000000000000000000000000000000000000000000000000000000000000000000000000000000000000000000000000000000000000000000000000000000000000000000000000000000000000000000000000000000000000000000000000000000000000000000000000000000000000000000000000000000000000000000000000000000000000000000000000000000000000000000000000000000000000000000000000000000000000000000000000000000000000000000000000000000000000000000000000000000000000000000000000000000000000000000000000000000000000000000000000000000000000000000000000000000000000000000000000000000000000000000000000000000000000000000000000000000000000000000000000000000000000000000000000000000000000000000000000000000000000000000000000000000000000000000000000000000000000000000000000000000000000000000000000000000000000000000000000000000000000000000000000000000000000000000000000000000000000000000000000000000000000000000000000000000000000000000000000000000000000000000000000000000000000000000000000000000000000000000000000000000000000000000000000000000000000000000000000000000000000000000000000000000000000000000000000000000000000000000000000000000000000000000000000000000000000000000000000000000000000000000000000000000000000000000000000000000000000000000000000000000000000000000000000000000000000000000000000000000000000000000000000000000000000000000000000000000000000000000000000000000000000000000000000000000000000000000000000000000000000000000000000000000000000000000000000000000000000000000000000000000000000000000000000000000000000000000000000000000000000000000000000000000000000000000000000000000000000000000000000000000000000000000000000000000000000000000000000000000000000000000000000000000000000000000000000000000000000000000000000000000000000000000000000000000000000000000000000000000000000000000000000000000000000000000000000000000000000000000000000000000000000000000000000000000000000000000000000000000000000000000000000000000000000000000000000000000000000000000000000000000000000000000000000000000000000000000000000000000000000000000000000000000000000000000000000000000000000000000000000000000000000000000000000000000000000000000000000000000000000000000000000000000000000000000000000000000000000000000000000000000000000000000000000000000000000000000000000000000000000000000000000000000000000000000000000000000000000000000000000000000000000000000000000000000000000000000000000000000000000000000000000000000000000000000000000000000000000000000000000000000000000000000000000000000000000000000000000000000000000000000000000000000000000000000000000000000000000000000000000000000000000000000000000000000000000000000000000000000000000000000000000000000000000000000000000000000000000000000000000000000000000000000000000000000000000000000000000000000000000000000000000000000000000000000000000000000000000000000000000000000000000000000000000000000000000000000000000000000000000000000000000000000000000000000000000000000000000000000000000000000000000000000000000000000000000000000000000000000000000000000000000000000000000000000000000000000000000000000000000000000000000000000000000000000000000000000000000000000000000000000000000000000000000000000000000000000000000000000000000000000000000000000000000000000000000000000000000000000000000000000000000000000000000000000000000000000000000000000535353
#0279b1:23
#0309b1:0013
#030981:000000000000000000000000000000000000000000000000000000000000000000000000000000000000000000000000000000000000000000000000000000000000000000000000000000000000000000000000000000000000000000000000000000000000000000000000000000000000000000000000000000000000000000000000000000000000000000000000000000000000000000000000000000000000000000000000000000000000000000000000000000000000000000000000000000000000000000000000000000000000000000000000000000000000000000000000000000000000000000000000000000000000000000000000000000000000000000000000000000000000000000000000000000000000000000000000000000000000000000000000000000000000000000000000000000000000000000000000000000000000000000000000000000000000000000000000000000000000000000000000000000000000000000000000000000000000000000000000000000000000000000000000000000000000000000000000000000000000000000000000000000000000000000000000000000000000000000000000000000000000000000000000000000000000000000000000000000000000000000000000000000000000000000000000000000000000000000000000000000000000000000000000000000000000000000000000000000000000000000000000000000000000000000000000000000000000000000000000000000000000000000000000000000000000000000000000000000000000000000000000000000000000000000000000000000000000000000000000000000000000000000000000000000000000000000000000000000000000000000000000000000000000000000000000000000000000000000000000000000000000000000000000000000000000000000000000000000000000000000000000000000000000000000000000000000000000000000000000000000000000000000000000000000000000000000000000000000000000000000000000000000000000000000000000000000000000000000000000000000000000000000000000000000000000000000000000000000000000000000000000000000000000000000000000000000000000000000000000000000000000000000000000000000000000000000000000000000000000000000000000000000000000000000000000000000000000000000000000000000000000000000000000000000000000000000000000000000000000000000000000000000000000000000000000000000000000000000000000000000000000000000000000000000000000000000000000000000000000000000000000000000000000000000000000000000000000000000000000000000000000000000000000000000000000000000000000000000000000000000000000000000000000000000000000000000000000000000000000000000000000000000000000000000000000000000000000000000000000000000000000000000000000000000000000000000000000000000000000000000000000000000000000000000000000000000000000000000000000000000000000000000000000000000000000000000000000000000000000000000000000000000000000000000000000000000000000000000000000000000000000000000000000000000000000000000000000000000000000000000000000000000000000000000000000000000000000000000000000000000000000000000000000000000000000000000000000000000000000000000000000000000000000000000000000000000000000000000000000000000000000000000000000000000000000000000000000000000000000000000000000000000000000000000000000000000000000000000000000000000535353230000000000000000000000000000000000000000000000000000000000000000000000000000000000000000000000000000000000000000000000000000000000000000000000000000000000000000000000000000000000000000000000000000000000000000000000000000000000000000000000000000000000000000000000000000000000000000000000000000000000000000000000000000000000000000000000000000000000000000000000000000000000000000000000000000000000000000000000000000000000000000000000000000000000000000000000000000000000000000000000000000000000000000000000000000000000000000000000000000000000000000000000000000000000000000000000000000000000000000000000000000000000000000000000000000000000000000000000000000000000000000000000000000000000000000000000000000000000000000000000000000000000000000000000000000000000000000000000000000000000000000000000000000000000000000000000000000000000000000000000000000000000000000000000000000000000000000000000000000000000000000000000000000000000000000000000000000000000000000000000
#030950:00000013
#030920:000000000000000000000000000000000000000000000000000000000000000000000000000000000000000000000000000000000000000000000000000000000000000000000000000000000000000000000000000000000000000000000000000000000000000000000000000000000000000000000000000000000000000000000000000000000000000000000000000000000000000000000000000000000000000000000000000000000000000000000000000000000000000000000000000000000000000000000000000000000000000000000000000000000000000000000000000000000000000000000000000000000000000000000000000000000000000000000000000000000000000000000000000000000000000000000000000000000000000000000000000000000000000000000000000000000000000000000000000000000000000000000000000000000000000000000000000000000000000000000000000000000000000000000000000000000000000000000000000000000000000000000000000000000000000000000000000000000000000000000000000000000000000000000000000000000000000000000000000000000000000000000000000000000000000000000000000000000000000000000000000000000000000000000000000000000000000000000000000000000000000000000000000000000000000000000000000000000000000000000000000000000000000000000000000000000000000000000000000000000000000000000000000000000000000000000000000000000000000000000000000000000000000000000000000000000000000000000000000000000000000000000000000000000000000000000000000000000000000000000000000000000000000000000000000000000000000000000000000000000000000000000000000000000000000000000000000000000000000000000000000000000000000000000000000000000000000000000000000000000000000000000000000000000000000000000000000000000000000000000000000000000000000000000000000000000000000000000000000000000000000000000000000000000000000000000000000000000000000000000000000000000000000000000000000000000000000000000000000000000000000000000000000000000000000000000000000000000000000000000000000000000000000000000000000000000000000000000000000000000000000000000000000000000000000000000000000000000000000000000000000000000000000000000000000000000000000000000000000000000000000000000000000000000000000000000000000000000000000000000000000000000000000000000000000000000000000000000000000000000000000000000000000000000000000000000000000000000000000000000000000000000000000000000000000000000000000000000000000000000000000000000000000000000000000000000000000000000000000000000000000000000000000000000000000000000000000000000000000000000000000000000000000000000000000000000000000000000000000000000000000000000000000000000000000000000000000000000000000000000000000000000000000000000000000000000000000000000000000000000000000000000000000000000000000000000000000000000000000000000000000000000000000000000000000000000000000000000000000000000000000000000000000000000000000000000000000000000000000000000000000000000000000000000000000000000000000000000000000000000000000000000000000000000000000000000000000000000000000000000000000000000000000000000000000000000000000000000000000000000000000000000000000000000000000000000000000000000000000000000000000000000000000000000000000000000000000000000000000000000000000000000000000000000000000000000000000000000000000000000000000000000000000000000000000000000000000000000000000000000000000000000000000000000000000000000000000000000000000000000000000000000000000000000000000000000000000000000000000000000000000000000000000000000000000000000000000000000000000000000000000000000000000000000000000000000000000000000000000000000000000000000000000000000000000000000000000000000000000000000000000000000000000000000000000000000000000000000000000000000000000000000000000000000000000000000000000000000000000000000000000000000000000000000000000000000000000000000000000000000000000000000000000000000000000000000000000000000000000000000000000000000000000000000000000000000000000000000000000000000000000000000000000000000000000000000000000000000000000000000000000000000000000000000000000000000000000000000000000000535353
#031920:23
#100970:120000000000000000000000000000000000000000000000000000000000000000000000000000000000000000000000000000000000000000000000000000000000000000000000000000000000000000000000000000000000000000000000000000000000000000000000000000000000000000000000000000000000000000000000000000000000000000000000000000000000000000000000000000000000000000000000000000000000000000000000000000000000000000000000000000000000000000000000000000000000000000000000000000000000000000000000000000000000000000000000000000000000000000000000000000000000000000000000000000000000000000000000000000000000000000000000000000000000000000000000000000000000000000000000000000000000000000000000000000000000000000000000000000000000000000000000000000000000000000000000000000000000000000000000000000000000000000000000000000000000000000000000000000000000000000000000000000000000000000000000000000000000000000000000000000000000000000000000000000000000000000000000000000000000000000000000000000000000000000000000000000000000000000000000000000000000000000000000000000000000000000000000000000000000000000000000000000000000000000000000000000000000000000000000000000000000000000000000000000000000000000000000000000000000000000000000000000000000000000000000000000000000000000000000000000000000000000000000000000000000000000000000000000000000000000000000000000000000000000000000000000000000000000000000000000000000000000000000000000000000000000000000000000000000000000000000000000000000000000000000000000000000000000000000000000000000000000000000000000000000000000000000000000000000000000000000000000000000000000000000000000000000000000000000000000000000000000000000000000000000000000000000000000000000000000000000000000000000000000000000000000000000000000000000000000000000000000000000000000000000000000000000000000000000000000000000000000000000000000000000000000000000000000000000000000000000000000000000000000000000000000000000000000000000000000000000000000000000000000000000000000000000000000000000000000000000000000000000000000000000000000000000000000000000000000000000000000000000000000000000000000000000000000000000000000000000000000000000000000000000000000000000000000000000000000000000000000000000000000000000000000000000000000000000000000000000000000000000000000000000000000000000000000000000000000000000000000000000000000000000000000000000000000000000000000000000000000000000000000000000000000000000000000000000000000000000000000000000000000000000000000000000000000000000000000000000000000000000000000000000000000000000000000000000000000000000000000000000000000000000000000000000000000000000000000000000000000000000000000000000000000000000000000000000000000000000000000000000000000000000000000000000000000000000000000000000000000000000000000000000000000000000000000000000000000000000000000000000000000000000000000000000000000000000000000000000000000000000000000000000000000000000000000000000000000000000000000000000000000000000000000000000000000000000000000000000000000000000000000000000000000000000000000000000000000000000000000000000000000000000000000000000000000000000000000000000000000000000000000000000000000000000000000000000000000000000000000000000000000000000000000000000000000000000000000000000000000000000000000000000000000000000000000000000000000000000000000000000000000000000000000000000000000000000000000000000000000000000000000000000000000000000000000000000000000000000000000000000000000000052220000000000000000000000000000000000000000000000000000000000000000000000000000000000000000000000000000000000000000000000000000000000000000000000000000000000000000000000000000000000000000000000000000000000000000000000000000000000000000000000000000000000000000000000000000000000000000000000000000000000000000000000000000000000000000000000000000000000000000000000000000000000000000000000000000000000000000000000000000000000000000000000000000000000000000000000000000000000000000000000
