This file was generated by Ched 2.7.0.0.
#TITLE ""
#ARTIST ""
#DESIGNER ""
#DIFFICULTY 0
#PLAYLEVEL
#SONGID ""
#WAVE ""
#WAVEOFFSET 0
#JACKET ""
#REQUEST "ticks_per_beat 480"
#00002: 4
#BPM01: 200
#00008: 01
#TIL00: ""
#VOLUME: ""
#HISPEED 00
#MEASUREHS 00
#00018:1313
#00015:00130013
#00212:0013000000000000
#00218:0000130000000013
#00215:0000001300001300
#0021b:2300000000130000
#00318:00130000
#0031b:0000000000000013
#00312:0013000000000013
#00515:00130013
#00518:0013000000000000
#0051b:0000001300000000
#08914:0000140000000014
#08918:00140014
#08912:0000000000140000000000000000000024000000000000000000000000000000
#08916:0000000000140000000000140000000000000000000000000000000000000000
#08915:14
#0891a:1400000000000000000000140000000000000000000000000000000000000000
#08917:0024
#01118:0000000000000013
#0111b:13
#01112:0013
#01110:41
#01912:0013
#01918:0000000013000013
#01915:13000013
#0191b:13
#02018:0000001300130000
#02015:13001313
#08515:0013001300000000
#08518:13131300
#0851b:00000013
#08412:0013000000000013
#08415:0000001300130000
#08418:00130013
#0841b:0013
#08410:41
#07418:13
#07415:00230000
#02512:00231300
#0251b:1313
#02515:13000023
#02518:00230023
#01015:13130000
#01018:0013000000000000
#0871b:1313
#08715:0000001300000013
#08712:0013000000130000
#08718:00130013
#09812:14000014
#0981a:14000014
#09818:00140000
#09814:00140000
#09714:0014
#09718:0014
#09712:14000024
#0971a:00000024
#09612:14
#0961a:0014
#09616:00240024
#04918:00130000
#04915:13
#0491b:00000023
#04818:00000013
#04812:14
#0041b:0000000000000013
#00415:0013001300130000
#00418:00131300
#00412:0000000000000013
#0061b:0013000000000000
#00615:0000130000000013
#00618:0000001300001300
#00612:2300000000130000
#00715:00130000
#0071b:0013000000000013
#00712:0000000000000013
#00814:00000013
#00818:0000000000000013
#0081b:0013000000000000
#00812:00130000
#00819:0000000000130000
#00813:0013
#0081a:0000001300000000
#01215:13001313
#01218:0000001300130013
#01315:0000000000000013
#01312:13
#0131b:0013
#01418:13001313
#01415:0000001300130013
#0151b:13
#01512:0013
#0161b:1313
#01618:00130000
#01712:13000013
#01715:0013
#0211b:0013
#02115:0000000013000013
#02118:13000013
#02112:13
#02215:0000001300130000
#02218:13001313
#02315:13
#0231b:13
#02318:0013
#02312:0013
#02310:41
#02415:13
#02412:00130013
#0241b:13
#02418:00130013
#02618:0013
#02615:00000013
#02612:00240000
#0261a:24
#0271b:13
#02715:00001313
#02718:0000000000130013
#03015:13
#03018:0013
#02918:13
#0291b:00000013
#02912:0013
#02915:00130000
#02812:13
#0281b:00000013
#02818:0013
#02815:00130000
#03112:13
#03118:00001313
#03115:0000000000130013
#0321b:13
#03212:00000013
#03215:0013
#03218:00130000
#0351b:13
#03518:00001313
#03515:0000001300130013
#03510:41
#04012:00000013
#04018:0000000000000013
#04019:1525
#04016:00150000
#03612:0000130000000013
#0361b:1313
#0391b:13
#03912:0014
#03918:00230000
#03915:00000024
#04112:13
#0411b:0000001300000000
#04115:0013
#0411a:0000000000130000
#04114:00000013
#04119:0000000000000013
#03718:1300000000000013
#03715:0013
#03812:13
#03818:00001313
#03815:0000000000130013
#04312:13
#04315:00001313
#04318:0000001300130013
#0441b:0000130000000013
#04412:1313
#04515:13
#04518:0013
#04615:13
#0461a:0014
#04618:00000014
#04716:14
#04714:00140000
#04712:0014
#0471a:00000014
#04710:41
#05212:13
#05218:00001313
#05215:0000000000130013
#0521f:11
#05518:13
#05515:0013
#05415:13
#05412:00000013
#0541b:0013
#05418:00130000
#0531b:13
#05312:00000013
#05315:0013
#05318:00130000
#0561b:13
#05615:00001313
#05618:0000000000130013
#05712:13
#0571b:00000013
#05718:0013
#05715:00130000
#0601a:14
#06012:14
#06018:00000000000000000033333333333333
#06015:00000000000000000033333333333333
#06114:0000000000000014
#06118:00000014
#06819:0000000000140000
#06814:0014
#06813:00000014
#0681a:0000001400000000
#06812:14
#06818:0000000000000014
#0691a:0000140000000014
#06912:1414
#07012:14
#07014:00140000
#07016:0014
#07018:00000014
#0711a:14
#07112:0014
#07116:00000014
#07216:00140014
#0721a:14
#07212:0014
#0731a:14
#07315:00000013
#07818:0000001300000000
#0781b:0000000000000013
#07915:13130000
#07918:0013000000000000
#07615:13
#07618:0013
#07712:14
#07716:00140000
#0771a:0014
#08018:13
#08015:0013
#0811a:14
#08116:00140014
#08112:0014
#08214:0000001400000000
#08212:0000000000000014
#0881a:0000000000140000
#08817:00001424
#08815:1300230000140000
#08812:0013000014002400
#08818:0013000000000000
#0881b:13230000
#09018:14000013
#09012:0013
#09015:0000000000130000
#0901b:0000000000000013
#08615:00130000
#08612:0013
#09212:0013000000000013
#09218:00130013
#09215:0000001300000000
#0921b:23
#0931b:00130000
#09315:0000001300000000
#09318:0000000000000013
#09415:00130000
#09418:0000001300000013
#09412:0013
#0941b:0000000000130000
#09515:00130013
#09518:0000000000000013
#0951b:0000001300000000
#03415:00130000
#0341a:24
#05918:00130000
#05912:24000023
#0591b:00000023
#06212:0000140000000014
#0621a:2414
#0621f:21
#06316:14
#06318:0000000000130013
#06315:00001313
#06310:41
#06415:13
#0641b:13
#06418:00231400
#06412:00231400
#0641a:00000024
#06414:00000024
#06513:1525
#06512:00150026
#06519:1525
#06518:0000150000000026
#0661b:0000001300000000
#06616:0013
#06619:0000000000130000
#06614:00000013
#06617:0000000000000013
#06612:26
#06715:0000000000160000
#06718:00262600
#06712:2600002600000000
#00114:0024002400000000
#00118:24242400
#0011a:00000024
#00112:00000024
#0181a:00000024
#01812:00000024
#09914:2400002400240024
#09918:24242424
#00918:0023002400250026
#00912:00000026
#00913:0025
#00914:00240000
#00915:23
#04218:00262600
#04212:2600002600000000
#0331a:24
#03316:00240024
#03312:0024
#0581a:0024
#05816:00240024
#05812:24
#07518:24
#05014:24
#08316:24
#10019:0000005252525252
#0115b:63
#01152:0053
#02552:00135300
#0255b:6363
#02555:63000013
#02558:00130013
#01055:00630000
#01052:00000013
#0105b:00000013
#09852:54000054
#0985a:64000064
#09858:00540000
#09854:00640000
#09754:0064
#09752:54000014
#0975a:00000014
#09758:0054
#09652:54
#09656:00140014
#0965a:0064
#04958:00530000
#0495b:00000013
#0055b:0000006300000000
#00555:00000063
#0025b:13
#00355:0000000000130000
#00652:13
#00758:0000000000130000
#01255:63
#01352:53
#0135b:0063
#01458:53
#0155b:63
#01552:0053
#0165b:6363
#01658:00530000
#01752:53000053
#01755:0063
#01855:13
#01955:63
#0195b:63
#02055:63
#02158:53
#02152:53
#02258:53
#02355:63000013
#0235b:63000013
#02352:00135300
#02358:00135300
#02455:6313
#02452:00530053
#0245b:6313
#02458:00530053
#02652:00140000
#0265a:14
#0275b:63
#03055:63
#03058:0053
#03152:53
#0355b:63
#0365b:1363
#03652:00130000
#0395b:63
#03952:0054
#03958:00130000
#03955:00000014
#04152:53
#03758:53
#03755:0063
#03852:53
#04059:6515
#04056:00550000
#04252:16
#04258:00000016
#04352:53
#04452:1353
#0445b:00130000
#04555:63
#04558:0053
#04655:63
#04852:54
#04855:0013
#05252:53
#05558:53
#05555:0063
#0565b:63
#0605a:64
#06052:54
#06154:0014
#06158:0014
#06852:54
#0715a:64
#0735a:64
#07358:0013
#06952:1454
#0695a:00140000
#07452:00000013
#07455:00630000
#07955:00630000
#07952:0013
#07655:63
#07658:0053
#0775a:0064
#08058:53
#08055:0063
#08956:0000000000240000000000240000000000000000000000000000000000000000
#08952:0000000000240000000000000000000014000000000000000000000000000000
#08954:00540000
#08955:64
#08958:00540000
#0895a:6400000000000000000000240000000000000000000000000000000000000000
#08957:0014
#08857:00005414
#08852:0023000054001400
#0885b:63130000
#0885a:0000000000240000
#08855:6300130000240000
#08858:0023000000000000
#09058:54
#09155:00000013
#08658:13
#08655:00630013
#08652:0053
#08558:0053
#0855b:00000063
#0945b:0000000000630000
#09458:0000000000000053
#0955b:0000006300000000
#09252:0000000000000053
#09255:0000006300000000
#09355:0000006300000000
#09358:0000000000000053
#09954:14
#09958:14
#03455:00630000
#03452:00000013
#0345b:00000013
#05958:00530000
#05952:00000013
#0595b:00000013
#07558:54
#05054:64
#08356:54
#08458:16
#0625a:1464
#06252:00140000
#06356:54
#06455:63
#0645b:63
#06458:00135400
#06452:00135400
#0645a:00000014
#06454:00000014
#06553:6515
#06552:00550000
#06559:6515
#06558:00550000
#06755:0000000000260000
#06752:16
#06758:00006616
#06652:56
#003350:0000001300230000
#0053b0:0000001300000000
#005380:0000000000230000
#005350:00000013
#006320:23
#007380:0000001300230000
#010350:00130000
#010320:0000000033332300
#010330:00000000000000000033003300000000
#0103b1:0000000013332300
#0103a1:00000000000000000033003300000000
#0113b1:13
#011381:00230000
#011321:0013
#011351:00000023
#012351:13
#012321:00230000
#013321:13
#013351:00230000
#0133b1:0013
#013381:00000023
#014381:13
#0143b1:00230000
#0153b1:13
#015381:00230000
#015321:0013
#015351:00000023
#0163b1:1333
#016381:00330023
#017321:13000033
#017351:0033
#018351:23
#019351:13
#019321:00230000
#0193b0:13
#019380:00230000
#020350:13
#020320:00230000
#021380:13
#0213b0:00230000
#021321:13
#021351:00230000
#022381:13
#0223b1:00230000
#023351:13
#023321:00230000
#0233b0:13
#023380:00230000
#023380:0013
#0233b0:00000023
#023321:0013
#023351:00000023
#024351:1323
#024321:00330000
#0243b0:1323
#024380:00330000
#024380:00000013
#0253b0:33
#025380:00230000
#024321:00000013
#025351:33
#025321:00230000
#025321:0013
#025351:00000023
#0253b0:0013
#025380:00000023
#0273b0:13
#027380:0000002300000000
#030350:13
#030320:0000002300000000
#030380:0013
#0303b0:0000000000000023
#031320:13
#031350:0000002300000000
#034350:00130000
#034320:0000000033332300
#034330:00000000000000000033003300000000
#0343b1:0000000013332300
#0343a1:00000000000000000033003300000000
#0353b1:13
#035381:00230000
#0363b1:0013
#036381:00000023
#037381:13
#0373b1:00230000
#037351:0013
#037321:00000023
#038321:13
#038351:00230000
#0393b1:13
#039381:00230000
#039321:0014
#039351:00000024
#040391:1525
#040361:00350000
#041321:13
#041351:00230000
#042381:00001626
#043321:13
#043351:00230000
#044321:0013
#044351:00000023
#045351:13
#045321:00230000
#045381:0013
#0453b1:00000023
#046351:13
#046321:00230000
#048321:14
#048351:0000003323000000
#049381:00130000
#0493b1:00000023
#050341:14
#050321:0000343434003434
#050331:00000000000000000000000000340034
#051321:24
#051380:14340000
#0513a0:00003434
#052380:24
#052321:13
#052351:0000002300000000
#055381:13
#0553b1:0000002300000000
#055351:0013
#055321:0000000000000023
#0563b1:13
#056381:0000002300000000
#059381:00130000
#0593b1:0000000033332300
#0593a1:00000000000000000033003300000000
#059320:0000000013332300
#059330:00000000000000000033003300000000
#0603a0:14
#060380:00000000000000003333333333333333
#061380:34000000005400002400000000000000
#0613a0:00540000340000000000000000000000
#060321:14
#060351:00000000000000003333333333333333
#061341:34000000005400002400000000000000
#061321:00540000340000000000000000000000
#0623a1:0014
#062361:00000024
#063361:14
#0633a1:00240000
#064351:13
#064321:00230000
#0643b0:13
#064380:00230000
#064380:0014
#0643a0:00000024
#064321:0014
#064341:00000024
#065331:1525
#065321:00350000
#065390:1525
#065380:00350000
#066320:16
#066350:00260000
#067380:00001626
#067350:0000000000560000
#068320:14
#068360:00240000
#069320:0014
#069360:00000024
#0713a0:14
#071360:00240000
#0733a0:14
#073380:0000003323000000
#074350:00130000
#074320:00000023
#075380:14
#0753a0:0000343434003434
#075390:00000000000000000000000000340034
#0763a0:24
#076351:13
#076321:0000002300000000
#076381:0013
#0763b1:0000000000000023
#0773a1:0014
#077361:00000024
#078321:13230000
#078351:00001323
#079351:00130000
#079321:0023
#080381:13
#0803b1:0000002300000000
#080351:0013
#080321:0000000000000023
#0823a1:14240000
#082381:00001424
#083361:14
#083391:0000343434343535
#083381:00000000000000000034003400000000
#083371:00000000000000000000000000350035
#084381:26
#085381:0013
#0853b1:00000033
#086381:23
#086351:00130023
#086321:0033
#0883b1:13230000
#088381:0053000000000000
#088350:13230000
#088320:0053000000000000
#088320:00001424
#088350:0000000000540000
#088371:00001424
#0883a1:0000000000540000
#089351:14
#089321:0000000000540000000000000000000024000000000000000000000000000000
#089341:00340000
#089361:0000000000000000000000540000000000000000000000000000000000000000
#0893a0:1400000000000000000000540000000000000000000000000000000000000000
#089360:0000000000540000000000000000000000000000000000000000000000000000
#089380:00340000
#089370:0024
#090380:14
#0903b0:0000002300000000
#091350:1300333333002300
#092350:0000001300000000
#092320:0000000000230000
#092320:0000000000000013
#093350:0023000000000000
#093350:0000001300000000
#093320:0000000000230000
#093380:0000000000000013
#0943b0:0023000000000000
#0943b0:0000000000130000
#094380:0000000000000033
#0953b0:0023000000000000
#0953b0:0000001300000000
#095380:0000000000230000
#096320:14
#096360:00240000
#0963a0:0014
#096360:00000024
#097320:14000024
#097340:0000003434000000
#097381:0000001434000000
#0973a1:00000024
#098321:14000034
#098341:00340000
#099341:24
#0983a0:14000034
#098380:00340000
#099380:24
#100390:1200000000000022
