This file was generated by Ched 2.7.0.0.
#TITLE ""
#ARTIST ""
#DESIGNER ""
#DIFFICULTY 0
#PLAYLEVEL
#SONGID ""
#WAVE ""
#WAVEOFFSET 0
#JACKET ""
#REQUEST "ticks_per_beat 480"
#00002: 4
#BPM01: 200
#00008: 01
#TIL00: ""
#VOLUME: ""
#HISPEED 00
#MEASUREHS 00
#03318:1414
#03314:00140014
#03418:14
#08914:00000014
#0891a:1424
#08912:00240000
#0471a:14
#04713:00140000
#04719:0014
#04712:00000014
#04710:41
#04818:14
#04814:00000014
#07012:1414
#0701a:00140000
#07016:00000014
#0711a:14
#07114:0014
#07118:00000014
#07712:14
#07716:00140000
#0771a:0014
#0811a:1414
#08112:00140014
#08318:14
#09018:14
#09012:0014
#0901a:00000014
#00212:00140000
#0021a:2414
#00312:1414
#0031a:00140000
#00418:1414
#00414:00140014
#00518:14
#00514:00140000
#0061a:00140000
#00612:2414
#0071a:1414
#00712:00140000
#00814:1414
#00818:00140014
#00912:1414
#0091a:00140014
#0111a:14
#01114:0014
#01110:41
#0121a:14
#01214:0014
#01318:14
#01312:0014
#01418:14
#01412:0014
#0151a:14
#01514:0014
#01618:14
#01612:0014
#01912:1414
#01918:00140014
#0211a:1414
#02114:00140014
#02314:1414
#02318:00140014
#02310:41
#02412:1414
#0241a:00140014
#02514:14
#02518:00140000
#02512:0014
#0251a:00000014
#0271a:14
#02718:0014
#0281a:14
#02912:14
#02914:0014
#03012:14
#0311a:14
#03212:14
#02614:14
#03518:0014
#03514:00000014
#0351a:24
#03512:24
#03510:41
#0361a:14
#03612:00140000
#03618:0014
#03614:00000014
#0371a:14
#03713:00140000
#03719:0014
#03712:00000014
#03814:0014
#03818:14000014
#03912:14
#03913:0014
#03918:00240000
#03919:00000024
#04014:14
#04018:00000014
#0401a:00240000
#04012:0024
#04114:14000014
#04118:0014
#04314:0014
#04318:00000014
#04312:24
#0431a:24
#04412:14
#0441a:00140000
#04414:0014
#04418:00000014
#04512:14
#04519:00140000
#04513:0014
#0451a:00000014
#04618:0014
#04614:14000014
#04918:14
#04914:00140000
#05114:14
#05118:0014
#05018:14
#05614:14
#05214:14
#05212:0014
#0521f:11
#05314:14
#05418:14
#0541a:0014
#05518:14
#05718:14
#05814:1414
#05818:00140014
#05914:14
#0601a:14
#06018:0014
#06012:14
#06014:0014
#0621a:1414
#06212:00140000
#06216:00000014
#0621f:21
#06312:14
#06318:0014
#06314:00000014
#06310:41
#0641a:14
#06419:0014
#06414:00240000
#06413:00000024
#06518:14
#06514:00000014
#06512:00240000
#0651a:0024
#06618:14000014
#06614:0014
#06814:0014
#06818:00000014
#06812:24
#0681a:24
#06912:14
#0691a:00140000
#06914:0014
#06918:00000014
#07212:14
#07219:00140000
#07213:0014
#0721a:00000014
#07314:14
#07318:00000014
#07414:14
#07418:00140000
#07514:14
#0791a:14
#07916:00140000
#07912:0014
#08218:1414
#08214:00140014
#08414:00140000
#0841a:2414
#08412:00000014
#08410:41
#08518:14
#08512:00140000
#0851a:0014
#08514:00000014
#0861a:14
#08612:00140000
#08618:0014
#08614:00000014
#0871a:14
#08712:00140000
#08718:0014
#08714:00000014
#0881a:14
#08818:0014
#08812:00240000
#08814:00000024
#0921a:14
#09214:00140000
#09218:0014
#09212:00000014
#09318:14
#09314:00140000
#0931a:0014
#09612:14
#09614:0014
#0961a:00240000
#09618:00000024
#09512:0014
#0951a:00140000
#09514:14
#09518:00000014
#0941a:00000014
#09414:0014
#09418:00140000
#09412:14
#0761a:14
#07618:00140000
#07812:14
#07814:00140000
#0801a:14
#08018:00140000
#08012:14
#08014:00140000
#00114:00240024
#00118:2424
#04212:00260000
#04218:2626
#06718:00260000
#06712:2626
#06112:0026
#06118:0026
#09818:00000024
#09914:24
#09714:00000024
#10018:0000000000000053
#0025a:14
#04858:54
#08358:54
#0845a:14
#09154:00000014
#00652:14
#01054:00000014
#0185a:14
#0275a:64
#02758:0054
#0285a:64
#02952:54
#02954:0064
#03052:54
#0315a:64
#03252:54
#02654:64
#0355a:14
#03552:14
#03958:00140000
#03959:00000014
#0405a:00140000
#04052:0014
#04352:14
#0435a:14
#04954:00640000
#05058:54
#05654:64
#05254:64
#05252:0054
#05354:64
#05458:54
#0545a:0064
#05558:54
#05758:54
#0605a:64
#06058:0054
#06052:54
#06054:0064
#06454:00140000
#06453:00000014
#06552:00140000
#0655a:0014
#06852:14
#0685a:14
#06152:0016
#06158:0016
#07354:64
#07458:00540000
#07554:64
#08852:00140000
#08854:00000014
#08952:00140000
#0895a:0014
#0965a:00140000
#09658:00000014
#09858:00000014
#09754:00000014
#09954:64
#0765a:64
#07658:00240000
#07852:54
#07854:00240000
#0805a:64
#08058:00240000
#08052:54
#08054:00240000
#005380:00001424
#010320:14
#010340:00003424
#0173a0:14
#0183a0:24
#020320:1424
#0223a0:1424
#026340:14
#026320:00000024
#0273a0:14
#027380:0034
#0283a0:34
#028380:0024
#029320:14
#029340:0034
#030320:34
#030340:0024
#0313a0:14
#031380:0024
#032320:14
#032340:0024
#048380:14
#0483a0:0024
#049340:00140000
#049320:00000024
#050380:14
#0503a0:0024
#052340:14
#052320:0034
#053340:34
#053320:0024
#054380:14
#0543a0:0034
#055380:34
#0553a0:0024
#056340:14
#056320:0024
#057380:14
#0573a0:0024
#0603a0:14
#060380:0054
#061380:36362600
#060321:14
#060341:0054
#061321:36362600
#073341:14
#073321:0024
#074381:00140000
#0743a1:00000024
#075341:14
#075321:0024
#0763a1:1424
#076381:00540000
#078321:1424
#078341:00540000
#0803a1:1424
#080381:00540000
#080320:1424
#080340:00540000
#083380:14
#0833a0:0000000034343434
#0843a0:24
#091340:1400343434002400
#097320:14
#097340:00003424
#0983a0:14340000
#098380:00000024
#099340:14
#099320:00000024
#100380:1300003333333323
