This file was generated by Ched 2.7.0.0.
#TITLE ""
#ARTIST ""
#DESIGNER ""
#DIFFICULTY 0
#PLAYLEVEL
#SONGID ""
#WAVE ""
#WAVEOFFSET 0
#JACKET ""
#REQUEST "ticks_per_beat 480"
#00002: 4
#BPM01: 200
#00008: 01
#TIL00: ""
#VOLUME: ""
#HISPEED 00
#MEASUREHS 00
#0021a:0014
#00212:24
#00210:41
#00312:14
#0031a:0014
#00612:14
#0061a:0014
#00712:14
#0071a:0014
#0161a:14
#01614:0014
#01718:14
#01712:0014
#0181a:14
#01814:0014
#01918:14
#02014:0014
#02018:00000014
#02112:14
#02118:0014
#02114:00000014
#0221a:14
#02218:00000014
#02214:0014
#02418:0014
#02618:1400000000000014
#02614:00140000
#02812:14
#02818:0014
#02814:00000014
#02810:41
#02918:14
#0291a:0014
#03014:0014
#03018:00000014
#03114:14
#03112:0014
#0321a:0014
#03312:14
#03318:00140000
#03314:0014
#0331a:00000014
#04018:0016
#04012:26
#04010:41
#04114:1414
#04118:00140000
#04318:0014
#04314:00140000
#0431a:14
#04612:14
#04618:00140000
#04614:0014
#0461a:00000014
#04812:0016
#04818:26
#04918:1414
#04914:00140000
#05118:2400001400000000
#05214:00140014
#05218:0014
#05318:14
#05312:00140014
#0531a:0014
#0541a:14
#05418:0014
#05514:00140014
#05518:0014
#05618:16
#05612:0016
#05610:41
#05818:16
#0581b:00333333
#0611a:0014
#06112:54
#06312:0014
#0631a:54
#06519:0014
#06513:0014
#06512:54
#06714:0014
#0671a:54
#0681a:00140014
#06812:0014
#06912:14
#06918:0014
#06914:00000014
#0701a:14
#07018:0014
#07114:0014
#07118:00000014
#07215:00000015
#07212:25
#07618:00140000
#07614:0014
#0761a:00000014
#07612:26
#0761f:21
#07714:14
#07718:00140000
#07712:0014
#07710:41
#07918:14
#07914:00140000
#0791a:0014
#08014:14
#0801a:00140000
#08012:0014
#08018:00000014
#08112:14
#0811a:00140000
#08114:0014
#08218:14
#08212:00140000
#0821a:0014
#08214:00000014
#0831a:14
#08312:00140000
#08318:0014
#08412:14140000
#0841a:00001414
#08514:1414
#08518:00140000
#08718:00000034000014000000000000000000
#08714:00000034000014000000000000000000
#08713:24
#08719:24
#08818:00140000
#08814:0014
#0881a:00000014
#08912:14
#08918:00140000
#08914:0014
#0891a:00000014
#09012:14
#09015:0014
#09118:00141400
#09114:0000001400000000
#09112:00000014
#0951b:13
#09512:13
#09615:13
#09618:13
#01213:14
#01212:0014
#01210:41
#01313:14
#01314:0014
#01413:14
#01412:0014
#0661f:11
#0661a:5454
#06619:0054005400540054
#06618:00540054
#00812:24
#0101a:24
#02512:26
#03818:26
#04212:00000024
#04218:0024
#04214:00240000
#0421a:24
#05012:2424
#0501a:2424
#05718:26260000
#05712:00002626
#07418:26
#0781a:24
#07814:00240000
#07818:0024
#07812:00000024
#08613:2424
#08619:2424
#09319:25252500
#09312:25252500
#09218:26
#09212:0026
#06012:5400000000005454
#06013:0054000000540000
#06014:0000545454000000
#0621a:5400000000005454
#06219:0054000000540000
#06218:0000545454000000
#06412:5454
#06413:0054005400540054
#06414:00540054
#0971b:0053
#09712:0053
#00852:64
#0105a:54
#00954:0014
#01158:0014
#0165a:14
#01958:64
#0205a:14
#02152:14
#0225a:14
#02452:14
#02552:0000001600000000
#0275a:0014
#02658:0000000000000064
#02852:14
#02958:54
#0295a:0024
#03154:64
#03152:0024
#03254:14
#03452:0014
#0355a:0014
#03753:0014
#03958:0016
#04052:16
#04358:0014
#04752:0000001400000000
#04858:16
#0515a:00000014
#05158:0000006400000000
#0545a:64
#05458:0024
#05658:16
#05652:0016
#05858:66
#06754:0064
#0705a:64
#07058:0024
#07255:00000025
#07252:65
#07558:0016
#0795a:0014
#08154:0014
#07752:0014
#08358:0014
#08554:0014
#08752:00000014
#0875a:00000014
#08758:0000006400000000
#08754:0000006400000000
#09052:64
#09055:0024
#09258:16
#09252:0016
#09459:15
#09452:15
#0955b:63
#09552:53
#09655:63
#09658:53
#01253:64
#01252:0024
#01353:64
#01354:0024
#01453:64
#01452:0024
#004340:1424
#005380:1424
#008320:14
#008340:0000000034000034
#009340:0034003424000000
#0103a0:14
#010380:0000000034000034
#011380:0034003424000000
#012330:14
#012320:0054
#013330:54
#013340:0054
#014330:54
#014320:0054
#015330:24
#019380:14
#0203a0:24
#023320:14343434
#024320:24
#025320:1600002600000000
#026380:0000000014000034
#0273a0:0024
#029380:14
#0293a0:0054
#030380:24
#031340:14
#031320:0054
#032340:24
#034320:1424
#0353a0:1424
#036330:1400000034000034
#037330:0034003424000000
#038380:1600000036000036
#039380:0036003626000000
#044320:1626
#045380:1626
#047320:1400002400000000
#051380:1400003400000000
#0513a0:00000024
#0543a0:14
#054380:0054
#0553a0:24
#058380:16
#0583b0:00333333
#0593b0:3323
#067340:0014
#068320:24
#0703a0:14
#070380:0054
#0713a0:24
#072320:15
#072350:00000055
#073320:0025
#074380:1600000036000036
#075380:0036003626000000
#087330:14
#087340:00000034000034000000000000000000
#087320:00000024
#087391:14
#087381:00000034000034000000000000000000
#0873a1:00000024
#090321:14
#090351:0054
#091321:24
#093391:0015
#094391:25
#093320:0015
#094320:25
#0953b0:13
#096380:33
#0973b0:0023
#095321:13
#096351:33
#097321:0023
#060920:140000000000000000000000000000000000000000000000000000000000000000000000000000000000000000000000000000000000000000000000000000000000000000000000000000000000000000000000000000000000000000000000000000000000000000000000000000000000000000000000000000000000000000000000000000000000000000000000000000000000000000000000000000000000000000000000000000000000000000000000000000000000000000000000000000000000000000000000000000000000000000000000000000000000000000000000000000000000000000000000000000000000000000000000000000000000000000000000000000000000000000000000000000000000000000000000000000000000000000000000000000000000000000000000000000000000000000000000000000000000000000000000000000000000000000000000000000000000000000000000000000000000000000000000000000000000000000000000000000000000000000000000000000000000000000000000000000000000000000000000000000000000000000000000000000000000000000000000000000000000000000000000000000000000000000000000000000000000000000000000000000000000000000000000000000000000000000000000000000000000000000000000000000000000000000000000000000000000000000000000000000000000000000000000000000000000000000000000000000000000000000000000000000000000000000000000000000000000000000000000000000000000000000000000000000000000000000000000000000000000000000000000000000000000000000000000000000000000000000000000000000000000000000000000000000000000000000000000000000000000000000000000000000000000000000000000000000000000000000000000000000000000000000000000000000000000000000000000000000000000000000000000000000000000000000000000000000000000000000000000000000000000000000000000000000000000000000000000000000000000000000000000000000000000000000000000000000000000000000000000000000000000000000000000000000000000000000000000000000000000000000000000000000000000000000000000000000000000000000000000000000000000000000000000000000000000000000000000000000000000000000000000000000000000000000000000000000000000000000000000000000000000000000000000000000000000000000000000000000000000000000000000000000000000000000000000000000000000000000000000000000000000000000000000000000000000000000000000000000000000000000000000000000000000000000000000000000000000000000000000000000000000000000000000000000000000000000000000000000000000000000000000000000000000000000000000000000000000000000000000000000000000000000000000000000000000000000000000000000000000000000000000000000000000000000000000000000000000000000000000000000000000000000000000000000000000000000000000000000000000000000000000000000000000000000000000000000000000000000000000000000000000000000000000000000000000000000000000000000000000000000000000000000000000000000000000000000000000000000000000000000000000000000000000000000000000000000000000000000000000000000000000000000000000000000000000000000000000000000000000000000000000000000000000000000000000000000000000000000000000000000000000000000000000000000000000000000000000000000000000540000000000000000000000000000000000000000000000000000000000000000000000000000000000000000000000000000000000000000000000000000000000000000000000000000000000000000000000000000000000000000000000000000000000000000000000000000000000000000000000000000000000000000000000000000000000000000000000000000000000000000000000000000000000000000000000000000000000000000000000000000000000000000000000000000000000000000000000000000000000000000000000000000000000000000000000000000000000000000000000000000000000000000000000000000000000000000000000000000000000000000000000000000000000000000000000000000000000000000000000000000000000000000000000000000000000000000000000000000000000000000000000000000000000000000000000000000000000000000000000000000000000000000000000000000000000000000000000000000000000000000000000000000000000000000000000000000000000000000000000000000000000000000000000000000000000000000000000000000000000000000000000000000000000000000000000000000000000000054545454
#060940:00545400
#061920:24
#0629a0:140000000000000000000000000000000000000000000000000000000000000000000000000000000000000000000000000000000000000000000000000000000000000000000000000000000000000000000000000000000000000000000000000000000000000000000000000000000000000000000000000000000000000000000000000000000000000000000000000000000000000000000000000000000000000000000000000000000000000000000000000000000000000000000000000000000000000000000000000000000000000000000000000000000000000000000000000000000000000000000000000000000000000000000000000000000000000000000000000000000000000000000000000000000000000000000000000000000000000000000000000000000000000000000000000000000000000000000000000000000000000000000000000000000000000000000000000000000000000000000000000000000000000000000000000000000000000000000000000000000000000000000000000000000000000000000000000000000000000000000000000000000000000000000000000000000000000000000000000000000000000000000000000000000000000000000000000000000000000000000000000000000000000000000000000000000000000000000000000000000000000000000000000000000000000000000000000000000000000000000000000000000000000000000000000000000000000000000000000000000000000000000000000000000000000000000000000000000000000000000000000000000000000000000000000000000000000000000000000000000000000000000000000000000000000000000000000000000000000000000000000000000000000000000000000000000000000000000000000000000000000000000000000000000000000000000000000000000000000000000000000000000000000000000000000000000000000000000000000000000000000000000000000000000000000000000000000000000000000000000000000000000000000000000000000000000000000000000000000000000000000000000000000000000000000000000000000000000000000000000000000000000000000000000000000000000000000000000000000000000000000000000000000000000000000000000000000000000000000000000000000000000000000000000000000000000000000000000000000000000000000000000000000000000000000000000000000000000000000000000000000000000000000000000000000000000000000000000000000000000000000000000000000000000000000000000000000000000000000000000000000000000000000000000000000000000000000000000000000000000000000000000000000000000000000000000000000000000000000000000000000000000000000000000000000000000000000000000000000000000000000000000000000000000000000000000000000000000000000000000000000000000000000000000000000000000000000000000000000000000000000000000000000000000000000000000000000000000000000000000000000000000000000000000000000000000000000000000000000000000000000000000000000000000000000000000000000000000000000000000000000000000000000000000000000000000000000000000000000000000000000000000000000000000000000000000000000000000000000000000000000000000000000000000000000000000000000000000000000000000000000000000000000000000000000000000000000000000000000000000000000000000000000000000000000000000000000000000000000000000000000000000000000000000000000000000000000000000000000000000000540000000000000000000000000000000000000000000000000000000000000000000000000000000000000000000000000000000000000000000000000000000000000000000000000000000000000000000000000000000000000000000000000000000000000000000000000000000000000000000000000000000000000000000000000000000000000000000000000000000000000000000000000000000000000000000000000000000000000000000000000000000000000000000000000000000000000000000000000000000000000000000000000000000000000000000000000000000000000000000000000000000000000000000000000000000000000000000000000000000000000000000000000000000000000000000000000000000000000000000000000000000000000000000000000000000000000000000000000000000000000000000000000000000000000000000000000000000000000000000000000000000000000000000000000000000000000000000000000000000000000000000000000000000000000000000000000000000000000000000000000000000000000000000000000000000000000000000000000000000000000000000000000000000000000000000000000000000000000054545454
#062980:00545400
#0639a0:24
#064920:140000000000000000000000000000000000000000000000000000000000000000000000000000000000000000000000000000000000000000000000000000000000000000000000000000000000000000000000000000000000000000000000000000000000000000000000000000000000000000000000000000000000000000000000000000000000000000000000000000000000000000000000000000000000000000000000000000000000000000000000000000000000000000000000000000000000000000000000000000000000000000000000000000000000000000000000000000000000000000000000000000000000000000000000000000000000000000000000000000000000000000000000000000000000000000000000000000000000000000000000000000000000000000000000000000000000000000000000000000000000000000000000000000000000000000000000000000000000000000000000000000000000000000000000000000000000000000000000000000000000000000000000000000000000000000000000000000000000000000000000000000000000000000000000000000000000000000000000000000000000000000000000000000000000000000000000000000000000000000000000000000000000000000000000000000000000000000000000000000000000000000000000000000000000000000000000000000000000000000000000000000000000000000000000000000000000000000000000000000000000000000000000000000000000000000000000000000000000000000000000000000000000000000000000000000000000000000000000000000000000000000000000000000000000000000000000000000000000000000000000000000000000000000000000000000000000000000000000000000000000000000000000000000000000000000000000000000000000000000000000000000000000000000000000000000000000000000000000000000000000000000000000000000000000000000000000000000000000000000000000000000000000000000000000000000000000000000000000000000000000000000000000000000000000000000000000000000000000000000000000000000000000000000000000000000000000000000000000000000000000000000000000000000000000000000000000000000000000000000000000000000000000000000000000000000000000000000000000000000000000000000000000000000000000000000000000000000000000000000000000540000000000000000000000000000000000000000000000000000000000000000000000000000000000000000000000000000000000000000000000000000000000000000000000000000000000000000000000000000000000000000000000000000000000000000000000000000000000000000000000000000000000000000000000000000000000000000000000000000000000000000000000000000000000000000000000000000000000000000000000000000000000000000000000000000000000000000000000000000000000000000000000000000000000000000000000000000000000000000000000000000000000000000000000000000000000000000000000000000000000000000000000000000000000000000000000000000000000000000000000000000000000000000000000000000000000000000000000000000000000000000000000000000000000000000000000000000000000000000000000000000000000000000000000000000000000000000000000000000000000000000000000000000000000000000000000000000000000000000000000000000000000000000000000000000000000000000000000000000000000000000000000000000000000000000000000000000000000000000000000000000000000000000000000000000000000000000000000000000000000000000000000000000000000000000000000000000000000000000000000000000000000000000000000000000000000000000000000000000000000000000000000000000000000000000000000000000000000000000000000000000000000000000000000000000000000000000000000000000000000000000000000000000000000000000000000000000000000000000000000000000000000000000000000000000000000000000000000000000000000000000000000000000000000000000000000000000000000000000000000000000000000000000000000000000000000000000000000000000000000000000000000000000000000000000000000000000000000000000000000000000000000000000000000000000000000000000000000000000000000000000000000000000000000000000000000000000000000000000000000000000000000000000000000000000000000000000000000000000000000000000000000000000000000000000000000000000000000000000000000000000000000000000000000000000000000000000000000000000000000000000000000000000000000000000000000000000000000000054545454
#064940:00540054
#065920:24
#0669a0:140000000000000000000000000000000000000000000000000000000000000000000000000000000000000000000000000000000000000000000000000000000000000000000000000000000000000000000000000000000000000000000000000000000000000000000000000000000000000000000000000000000000000000000000000000000000000000000000000000000000000000000000000000000000000000000000000000000000000000000000000000000000000000000000000000000000000000000000000000000000000000000000000000000000000000000000000000000000000000000000000000000000000000000000000000000000000000000000000000000000000000000000000000000000000000000000000000000000000000000000000000000000000000000000000000000000000000000000000000000000000000000000000000000000000000000000000000000000000000000000000000000000000000000000000000000000000000000000000000000000000000000000000000000000000000000000000000000000000000000000000000000000000000000000000000000000000000000000000000000000000000000000000000000000000000000000000000000000000000000000000000000000000000000000000000000000000000000000000000000000000000000000000000000000000000000000000000000000000000000000000000000000000000000000000000000000000000000000000000000000000000000000000000000000000000000000000000000000000000000000000000000000000000000000000000000000000000000000000000000000000000000000000000000000000000000000000000000000000000000000000000000000000000000000000000000000000000000000000000000000000000000000000000000000000000000000000000000000000000000000000000000000000000000000000000000000000000000000000000000000000000000000000000000000000000000000000000000000000000000000000000000000000000000000000000000000000000000000000000000000000000000000000000000000000000000000000000000000000000000000000000000000000000000000000000000000000000000000000000000000000000000000000000000000000000000000000000000000000000000000000000000000000000000000000000000000000000000000000000000000000000000000000000000000000000000000000000000000000000000000540000000000000000000000000000000000000000000000000000000000000000000000000000000000000000000000000000000000000000000000000000000000000000000000000000000000000000000000000000000000000000000000000000000000000000000000000000000000000000000000000000000000000000000000000000000000000000000000000000000000000000000000000000000000000000000000000000000000000000000000000000000000000000000000000000000000000000000000000000000000000000000000000000000000000000000000000000000000000000000000000000000000000000000000000000000000000000000000000000000000000000000000000000000000000000000000000000000000000000000000000000000000000000000000000000000000000000000000000000000000000000000000000000000000000000000000000000000000000000000000000000000000000000000000000000000000000000000000000000000000000000000000000000000000000000000000000000000000000000000000000000000000000000000000000000000000000000000000000000000000000000000000000000000000000000000000000000000000000000000000000000000000000000000000000000000000000000000000000000000000000000000000000000000000000000000000000000000000000000000000000000000000000000000000000000000000000000000000000000000000000000000000000000000000000000000000000000000000000000000000000000000000000000000000000000000000000000000000000000000000000000000000000000000000000000000000000000000000000000000000000000000000000000000000000000000000000000000000000000000000000000000000000000000000000000000000000000000000000000000000000000000000000000000000000000000000000000000000000000000000000000000000000000000000000000000000000000000000000000000000000000000000000000000000000000000000000000000000000000000000000000000000000000000000000000000000000000000000000000000000000000000000000000000000000000000000000000000000000000000000000000000000000000000000000000000000000000000000000000000000000000000000000000000000000000000000000000000000000000000000000000000000000000000000000000000000000000000000000054545454
#066980:00540054
#0679a0:24
