This file was generated by Ched 2.7.0.0.
#TITLE ""
#ARTIST ""
#DESIGNER ""
#DIFFICULTY 0
#PLAYLEVEL
#SONGID ""
#WAVE ""
#WAVEOFFSET 0
#JACKET ""
#REQUEST "ticks_per_beat 480"
#00002: 4
#BPM01: 150
#00008: 01
#TIL00: ""
#VOLUME: ""
#HISPEED 00
#MEASUREHS 00
#0321a:1400000000000014
#03212:00000014
#03216:14140000
#03215:0000000013130000
#03218:00000000000000000013001300000000
#04713:00130013
#04718:14
#0471f:11
#0011a:0012
#00116:00000012
#00118:0000000000120000
#00114:0000120000000012
#00117:12120000
#00317:00140000
#0031b:0013
#00318:0000000000130000
#00315:24000013
#00312:0000140013000013
#0031a:24
#00412:00130013
#0041b:1300001300000000
#00415:0013
#00418:0000000000131300
#00416:13
#00512:00141300
#00515:0000000000130000
#0051a:14
#00517:00140000
#0051b:0000000013000013
#00518:00000013
#00815:00000013130000001300000000000000
#00818:0000000000130000
#0081b:1300001300001300
#00816:00000013
#00812:13
#00915:0013000000000013
#00912:00130013
#00918:0000000000130000
#00917:13
#0091b:00131300
#01016:00000014
#01012:00000023230000002300000013000000
#01018:2300002300000000
#0101b:0023
#0121b:0013000013000013
#01218:13130013
#01215:0000001300130000
#01212:1313
#0131a:00000000000000141400000000000000
#01318:00000013
#01315:0000000000130000
#0131b:0000000000000013
#01312:00140000
#01515:00000013
#01518:0000000026000013
#0151a:24
#01519:00250000
#01512:24252600
#02212:1516
#02214:0000000000160000
#02218:0000000000000016
#02216:0015000000001600
#02219:15150000
#02215:0000001500000000
#0241b:00000013
#0241a:1424
#02413:0014001400000000
#02418:00140000
#02416:00000013
#02412:2424
#02419:0024002400000000
#02414:00240000
#02515:00000013
#02518:0000000000000013
#0251b:00000013
#02516:24242400
#02512:2424
#0251a:00240000
#02510:41
#02618:00000013130000000000000000000000
#0261b:1300001300000000
#02612:1300001300000000
#02616:0013
#0261a:0014
#03018:0000000000000013
#0301b:1300001300001300
#03012:1300001315001300
#03019:0015
#03015:00000013130000000000000000000000
#03116:13001414
#03112:00000014
#0311a:0014
#03117:00130000
#03114:0000001300000000
#03119:0000001300000000
#0311b:13
#03312:25130000
#03319:0000001300000000
#03317:00130000
#03314:0000001300000000
#03316:00001414
#0331a:0024
#03914:000000150000000000150000000000150000000000150000000000150000000000150000000000150000000000150000000000001500000000000000150000000000000015000000000000001500000000000000150000000000000015000000
#03912:250000150000150000150000150000150000150000150000150000001500000015000000150000001500000015000000
#03913:000000150000000000150000000000150000000000150000000000150000000000150000000000150000000000150000000000150000000000150000000000150000000000150000000000150000000000150000000000150000000000150000000000001500000000000000150000000000000015000000000000001500000000000000150000000000000015000000000000001500000000000000150000000000000015000000000000001500000000000000150000000000000015000000
#0391a:00140000
#03918:00000014
#03910:41
#04012:1515151515150000
#04014:00150015001500150015001500000000
#04013:0015001500150015001500150015001500150015001500150000000000000000
#04018:00000014
#0401a:00140000
#0411b:13
#04117:0013000000000000
#04112:13
#04118:0000001300000000
#04215:00130000000013000000000000000000
#0421b:13130000
#04218:00001300000000001300000000000013
#04212:00000013000000001300000000001300
#04216:0000000000130000
#0481a:00130013
#04814:14
#04913:00130013
#0491a:14
#0501a:00130013
#05012:14
#05113:00130013
#0511a:14
#05116:0014
#0631b:0013
#06317:0000000000000013
#06312:002c0000
#06316:0023
#06712:14002413
#06718:0000000000000013
#06716:14242400
#0671b:00000013
#0671a:00240000
#06816:13
#06817:00000013130000000000000000000000
#06814:0000001300000000
#0681a:0014
#06815:00000013
#06818:0000000000000013
#06812:0014
#0681b:13
#06819:0000001300000000
#06810:41
#06912:1400130013000014
#06918:00130000
#06915:0000001300000000
#0691a:1414
#06916:0000000000141400
#07015:0000000000130013
#07012:00131313
#0701a:14
#07018:00000000000000000013000000130000
#0701b:00000000000000000000001300000013
#07115:00130000
#07118:0000001300002400
#07112:2624
#0711a:0024
#07114:00000024
#0021a:12000024
#00217:0012000000000000
#00214:00120000
#00218:0000001212000000
#00216:00000000000000120000120000000000
#00212:00000024
#00615:0000000000130000
#0061b:00000000000000000000001300000000
#00612:2424000024001600
#00618:00000000000000000013000000000000
#0061a:0000242400000000
#00617:2323000000000000
#00616:0000232300000000
#00712:1313
#00716:0013000000130000
#00717:00130000
#0071b:0000001300000000
#0071a:14
#00718:00000013
#00715:0000000000000013
#00710:41
#01116:0000141400000000
#01112:2414
#0111a:0014
#01117:000000000000000000000000000000000000000000000000000000000000000000000000000000000000000000000000000000000000000000000000000000000000000000000000000000000000000000000000000000000000000000000000000000000000000000000000000000000000000000000000000000000000000000000000000000000000000000000000000000000000000000000000000000000000000000000000000000000000000000000000000000000000000000000000000000000000000000000000000000000000000000000000000000000000000000000000000000000000000000000000000000000000000000000000000000000000000000000000000000000000000000000000000000000000000000000000000000000000000000000000000000000000000000000000000000000000000000000000000000000000000000000000000000000000000000000000000000000000000000000000000000000000000000000000000000000000000000000000000000000000000000000000000000000000000000000000000000000000000000000000000000000000000000000000000000000000000000000000000000000000000000000000000000000000000000000000000000000000000000000000000000000000000000000000000000000000000000000000000000000000000000000000000000000000000000000000000000000000000000000000000000000000000000000000000000000000000000000000000000000000000000000000000000000000000000000000000000000000000000000000000000000000000000000000000000000000000000000000000000000000000000000000000000000000000000000000000000000000000000000000000000000000000000000000000000000000000000000000000000000000000000000000000000000000000000000000000000000000000000000000000000000000000000000000000000000000000000000000000000000000000000000000000000000000000000000000000000000000000000000000000000000000000000000000000000000000000000000000000000000000000000000000000000000000000000000000000000000000000000000000000000000000000000000000000000000000000000000000000000000000000000000000000000000000000000000000000000000000000000000000000000000000000000000000000000000000000000000000000000000000000000000000000000000000000000000000000000000000000000000000000000000000000000000000000000000000000000000000000000000000000000000000000000000000000000000000000000000000000000000000000000000000000000000000000000000000000000000000000000000000000000000000000000000000000000000000000000000000000000000000000000000000000000000000000000000000000000000000000000000000000000000000000000000000000000000000000000000000000000000000000000000000000000000000000000000000000000000000000000000000000000000000000000000000000000000000000000000000000000000014000000000000000000000000000000000000000000000000000000000000000000000000000000000000000000000000000000000000000000000000000000000000000000000000000000000000000000000000000000000000000000000000000000000000000000000000000000000000000000000000000000000000000000000000000000000000000000000000000000000000000000000000000000000000000000000000000000000000000000000000000000000000000000000000000000000000000000000000000000000000000000000000000000000000000000000000000000000000000000000000000000000000000000000000000000000000000000000000000000000000000000000000000000000000000000000000000000000000000000000000000000000000000000000000000000000000000000000000000000000000000000000000000000000000000000000000000000000000000000000000000000000000000000000000000000000000000000000000000000000000000000000000000000000000000000000000000000000000000000000000000000000000000000000000000000000000000000000000000000000000000000000000000000000000000000000000000000000000000000000000000000000000000000000000000000000000000000000000000000000000000000000000000000000000000000000000000000000000000000000000000000000000000000000000000000000000000000000000000000000000000000000000000000000000000000000000000000000000000000000000000000000000000000000000000000000000000000000000000000000000000000000000000000000000000000000000000000000000000000000000000000000000000000000000000000000000000000000000000000000000000000000000000000000000000000000000000000000000000000000000
#01115:0000000000140000
#01412:0014
#01415:0000000000140000
#0141a:0000001400001400
#01417:0000000000000014
#01418:0014000000000000
#01419:0000000000140000
#01413:0000000000000014
#01619:1515000000000000
#01617:00150015000000002500000000000000
#01618:0015001500150015000000001300000000000000000000000000000000000000
#01612:0000130015150000
#0161b:00000013
#01615:0000000000000013
#01614:25000000000000000015001500000000
#01613:0000000000000000000000000000000000150015001500150000000000000000
#01610:41
#0171b:1313
#01712:1313
#01715:00000013000013000000000000000000
#01718:00130000
#01812:14002413
#01816:0014001300140000
#0181b:00130000
#0181a:2414
#01817:0000000000000013
#01912:13
#0191b:1300001300000000
#01918:00000013000000001300000000000000
#01915:00131300
#0201b:1300000013230000
#02016:13000000000000330000000000000000
#02012:00000033130000000000000000000000
#02017:0000130000001323
#02312:1600001323000000
#0231b:0013
#02318:26
#02712:1313
#0271b:00131300
#02718:00000013
#02715:00000000000000000000001300001300
#02714:0000001300000000
#02717:13
#02812:13141400
#02817:1313
#02816:0013140000000000
#0281b:0013000000000000
#02912:14240013
#02917:0014000000000000
#0291a:14240000
#02915:000000000000000000000000000000000000000000000000000000000000000000000000000000000000000000000000000000000000000000000000000000000000000000000000000000000000000000000000000000000000000000000000000000000000000000000000000000000000000000000000000000000000000000000000000000000000000000000000000000000000000000000000000000000000000000000000000000000000000000000000000000000000000000000000000000000000000000000000000000000000000000000000000000000000000000000000000000000000000000000014000000000000000000000000000000000000000000000000000000000000000000000000000000000000000000000000000000000000000000000000000000000000000000000000000000000000000000000000000000000000000000000000000000000000000000000000000000000000000000000000000000000000000000000000000000000000000000000000000000000000000000000000000000000000000000000000000000000000000000000000000000000000000000000000000000000000000000000000000000000000000000000000000000000000000000000000000000000000000000000000000000000000000000000000000000000000000000000000000000000000000000000000000000000000000000000000000000000000000000000000000000000000000000000000000000000000000000000000000000000000000000000000000000000000000000000000000000000000000000000000000000000000000000000000000000000000000000000000000000000000000000000000000000000000000000000000000000000000000000000000000000000000000000000000000000000000000000000000000000000000000000000000000000000000000000000000000000000000000000000000000000000000000000000000000000000000000000000000000000000000000000000000000000000000000000000000000000000000000000000000000000000000000000000000000000000000000000000000000000000000000000000000000000000000000000000000000000000000000000000000000000000000000000000000000000000000000000000000000000000000000000000000000000000000000000000000000000000000000000000000000000000000000000000000000000000000000000000000000000000000000000000000000000000000000000000000000000000000000000000000000000000000000000000000000000000000000000000000000000000000000000000000000000000000000000000000000000000000000000000000000000000000000000000000000000000000000000000000000000000000000000000000000000000000000000000000000000000000000000000000000000000000000000000000000000000000000000000000000000000000000000000000000000000000000000000000000000000000000000000000000000000000000000000000000000000000000000000000000000000000000000000000000000000000000000000000000000000000000000000000000000000000000000000000000000000000000000000000000000000000000000000000000000000000000000000000000000000000000000000000000000000000000000000000000000000000000000000000000000000000000000000000000000000000000000000000000000000000000000000000000000000000000000000000000000000000000000000000000000000000000000000000000000000000000000000000000000000000000000000000000000000000000000000000000000000000000000000000000000000000000000000000000000000000000000000000000000000000000000000000000000000000000000000000000000000000000000000000000000000000000000000000000000000000000000000000000000000000000000000000000000000000000000000000000000000000000000000000000000000000000000000000000000000000000000000000000000000000000000000000000000000000000000000000000000000000000000000000000000000000000000000000000000000000000000000000000000000000000000000000000000000000000000000000000000000000000000000000000000000000000000000000000000000000000000000000000000000000000000000000130000000000000000000000000000000000000000000000000000000000000000000000000000000000000000000000000000000000000000000000000000000000000000000000000000000000000000000000000000000000000000000000000000000000000000000000000000000000000000000000000000000000000000000000000000000000000000000000000000000000000000000000000000000000000000000000000000000000000000000000000000000000000000000000000000000000000000000000000000000000000000000000000000000000000000000000000000000000000000000000
#02918:00002413
#02914:0024
#03512:1300000013000013
#0351b:00131313
#03514:0000001300000000
#03518:0000000000130000
#03515:00000013
#0351a:24
#0361b:1300130013000013
#03612:00000013000000001300000013000000
#03618:0000001300001300
#03615:1300000000130000
#0431b:00130000000000000000000000130000
#04312:0000000000130013
#04318:00000000000000000000001300000013
#04315:23000013
#04415:13
#0441b:00130000000000000000000000000000
#04412:0000000000140000
#0441a:0000000000000014
#04512:00130000
#04518:00000000001300000000000000000000
#04515:0000001300000000
#0451b:23000000000000130000000000000000
#0521a:00130013
#05212:14
#05216:0014
#05415:00130000000000000000000000000000
#0541a:0013000000000000
#05414:00000013000000000000000000000000
#05413:00000000001300000000000000000000
#05418:0000001300000000
#05412:00000000000000130000000013000000
#0541b:23000013
#05419:00230000
#05417:0027
#05515:00000013
#05518:0000000000000013
#0551b:13
#05512:00130000
#05516:24242400
#0551a:0024
#0551f:21
#05618:00000013130000000000000000000000
#0561b:1300001300000000
#05612:1300001300130000
#05616:0000000013140000
#0561a:0014
#05610:41
#06015:00000013130000000000000013000000
#06018:0000001300000013
#0601b:13000013
#06012:1314
#0601a:0014
#06115:13
#06117:00130000
#06114:0000001300000000
#06119:0000001300000000
#0611b:1313
#06112:00000013
#06116:0013
#05712:13001324
#0571b:00130000
#05714:0000001300000000
#05717:13
#0571a:0000000024000024
#05718:00000000000000000000002300000000
#05715:0000000000230000
#05817:1313
#0581b:0013000000130000
#05816:0013140000140000
#05812:13141400
#05918:00002413
#05915:000000000000000000000000000000000000000000000000000000000000000000000000000000000000000000000000000000000000000000000000000000000000000000000000000000000000000000000000000000000000000000000000000000000000000000000000000000000000000000000000000000000000000000000000000000000000000000000000000000000000000000000000000000000000000000000000000000000000000000000000000000000000000000000000000000000000000000000000000000000000000000000000000000000000000000000000000000000000000000000014000000000000000000000000000000000000000000000000000000000000000000000000000000000000000000000000000000000000000000000000000000000000000000000000000000000000000000000000000000000000000000000000000000000000000000000000000000000000000000000000000000000000000000000000000000000000000000000000000000000000000000000000000000000000000000000000000000000000000000000000000000000000000000000000000000000000000000000000000000000000000000000000000000000000000000000000000000000000000000000000000000000000000000000000000000000000000000000000000000000000000000000000000000000000000000000000000000000000000000000000000000000000000000000000000000000000000000000000000000000000000000000000000000000000000000000000000000000000000000000000000000000000000000000000000000000000000000000000000000000000000000000000000000000000000000000000000000000000000000000000000000000000000000000000000000000000000000000000000000000000000000000000000000000000000000000000000000000000000000000000000000000000000000000000000000000000000000000000000000000000000000000000000000000000000000000000000000000000000000000000000000000000000000000000000000000000000000000000000000000000000000000000000000000000000000000000000000000000000000000000000000000000000000000000000000000000000000000000000000000000000000000000000000000000000000000000000000000000000000000000000000000000000000000000000000000000000000000000000000000000000000000000000000000000000000000000000000000000000000000000000000000000000000000000000000000000000000000000000000000000000000000000000000000000000000000000000000000000000000000000000000000000000000000000000000000000000000000000000000000000000000000000000000000000000000000000000000000000000000000000000000000000000000000000000000000000000000000000000000000000000000000000000000000000000000000000000000000000000000000000000000000000000000000000000000000000000000000000000000000000000000000000000000000000000000000000000000000000000000000000000000000000000000000000000000000000000000000000000000000000000000000000000000000000000000000000000000000000000000000000000000000000000000000000000000000000000000000000000000000000000000000000000000000000000000000000000000000000000000000000000000000000000000000000000000000000000000000000000000000000000000000000000000000000000000000000000000000000000000000000000000000000000000000000000000000000000000000000000000000000000000000000000000000000000000000000000000000000000000000000000000000000000000000000000000000000000000000000000000000000000000000000000000000000000000000000000000000000000000000000000000000000000000000000000000000000000000000000000000000000000000000000000000000000000000000000000000000000000000000000000000000000000000000000000000000000000000000000000000000000000000000000000000000000000000000000000000000000000000000000000000000000000000000000000000000000000000000000000000000000000000000000000000000000000000000000000000000000000000000000130000000000000000000000000000000000000000000000000000000000000000000000000000000000000000000000000000000000000000000000000000000000000000000000000000000000000000000000000000000000000000000000000000000000000000000000000000000000000000000000000000000000000000000000000000000000000000000000000000000000000000000000000000000000000000000000000000000000000000000000000000000000000000000000000000000000000000000000000000000000000000000000000000000000000000000000000000000000000000000000
#05912:14240013
#05917:0014000000000000
#0591a:14240000
#05914:0024
#06212:00141300
#06218:00000000000000000013000000000000
#06213:0000000000130000
#06219:00000000000000000000001300000000
#06214:00000013
#0621a:14000000000000340000000000130000
#06215:0000000000000013
#0621b:00000000000000000000000000000013
#06216:00140000
#0651b:1300001300130000
#06516:13
#06512:00000013130000000000000000001300
#06616:2323241424140000
#0661a:2424000000140000
#06612:00241400
#07318:1414000000000000
#07314:00140014000000000000000000000000
#07319:0000141400000000
#07313:00000000001400140000000000000000
#0731a:0000000014142400
#07312:64000000000000000014001400000000
#0741b:00001313
#07415:00000013
#07418:0000000000130000
#07412:0000140013000013
#07416:24140000
#0741a:24
#0761a:14
#07612:0000140013000013
#07616:00140000
#0761b:00001313
#07615:00000013
#07618:0000000000130000
#07512:00130013
#0751b:1313
#07518:0000000000131300
#07515:0013
#07519:0000001300000000
#07516:13
#07712:14000000240000000000002300000000
#0771a:24000014
#07716:0024000000000014
#07714:0000002400000000
#07718:00000000002400000000230000000000
#0771b:0023
#07715:00000000000000000023000000000000
#00017:00000012
#00014:00000012
#0641a:14000024240024000000140000000000
#06416:0000000024140000
#06412:2400002424000000
#02112:1300000013230000
#02117:13000000000000330000000000000000
#0211b:00000033130000000000000000000000
#02116:0000130000001323
#0341a:00000000000000001454545464000000
#03412:24
#03414:00343434343434340000000000000000
#03712:1314
#03716:14530054
#0371b:00130000
#0371a:00000000005300000000000014000000
#03713:00530000000000000054000000000000
#03714:0053000000540000
#03715:00000053000000000000005400000000
#03719:00000000000053000000000000540000
#03718:00000000000000530000000000005400
#03717:00000000000000005300000000000054
#03812:14541454
#0381a:00145400
#03818:00000000005400540000000026000000
#03814:00540054000000000054005400000000
#03816:5454005400540000
#0721a:1464
#07212:2614
#07219:00640000000000640000000000000000
#07218:0064006400000000
#07217:00000064006400000000000000000000
#07216:00640064
#07213:00000000000000000064000000000064
#07214:0000000000640064
#07215:00000000000000000000006400640000
#0461a:00000000140000141400140000000000
#04618:00000014
#04616:0000000000000014
#04615:26
#05312:24
#05317:23
#0531a:0024
#05316:0023
#07812:24
#0781a:24
#0325a:54
#03256:00240000
#07152:1614
#07158:00000014
#0715a:0014
#07154:00000014
#01056:00000054
#01058:53
#0155a:14
#01559:00150000
#01558:0016
#01552:14151600
#01654:15000000000000000025002500000000
#01659:2525000000000000
#01657:00250025000000001500000000000000
#01658:0055005500550055000000000000000000000000000000000000000000000000
#01652:0000000025250000
#01653:0000000000000000000000000000000000650065006500650000000000000000
#0245b:00000053
#02452:0014
#0245a:0014
#02556:14141400
#02552:1414
#0255a:00140000
#02652:53000013
#02656:00005314
#0265a:0054
#02952:54140000
#02958:0014
#02954:0014
#02957:0024000000000000
#0295a:64140000
#02955:000000000000000000000000000000000000000000000000000000000000000000000000000000000000000000000000000000000000000000000000000000000000000000000000000000000000000000000000000000000000000000000000000000000000000000000000000000000000000000000000000000000000000000000000000000000000000000000000000000000000000000000000000000000000000000000000000000000000000000000000000000000000000000000000000000000000000000000000000000000000000000000000000000000000000000000000000000000000000000000024000000000000000000000000000000000000000000000000000000000000000000000000000000000000000000000000000000000000000000000000000000000000000000000000000000000000000000000000000000000000000000000000000000000000000000000000000000000000000000000000000000000000000000000000000000000000000000000000000000000000000000000000000000000000000000000000000000000000000000000000000000000000000000000000000000000000000000000000000000000000000000000000000000000000000000000000000000000000000000000000000000000000000000000000000000000000000000000000000000000000000000000000000000000000000000000000000000000000000000000000000000000000000000000000000000000000000000000000000000000000000000000000000000000000000000000000000000000000000000000000000000000000000000000000000000000000000000000000000000000000000000000000000000000000000000000000000000000000000000000000000000000000000000000000000000000000000000000000000000000000000000000000000000000000000000000000000000000000000000000000000000000000000000000000000000000000000000000000000000000000000000000000000000000000000000000000000000000000000000000000000000000000000000000000000000000000000000000000000000000000000000000000000000000000000000000000000000000000000000000000000000000000000000000000000000000000000000000000000000000000000000000000000000000000000000000000000000000000000000000000000000000000000000000000000000000000000000000000000000000000000000000000000000000000000000000000000000000000000000000000000000000000000000000000000000000000000000000000000000000000000000000000000000000000000000000000000000000000000000000000000000000000000000000000000000000000000000000000000000000000000000000000000000000000000000000000000000000000000000000000000000000000000000000000000000000000000000000000000000000000000000000000000000000000000000000000000000000000000000000000000000000000000000000000000000000000000000000000000000000000000000000000000000000000000000000000000000000000000000000000000000000000000000000000000000000000000000000000000000000000000000000000000000000000000000000000000000000000000000000000000000000000000000000000000000000000000000000000000000000000000000000000000000000000000000000000000000000000000000000000000000000000000000000000000000000000000000000000000000000000000000000000000000000000000000000000000000000000000000000000000000000000000000000000000000000000000000000000000000000000000000000000000000000000000000000000000000000000000000000000000000000000000000000000000000000000000000000000000000000000000000000000000000000000000000000000000000000000000000000000000000000000000000000000000000000000000000000000000000000000000000000000000000000000000000000000000000000000000000000000000000000000000000000000000000000000000000000000000000000000000000000000000000000000000000000000000000000000000000000000000000000000000000000000000000000000000000000000000000000000000000000000000000000000000000000000000000000000000000000000000000000000000000000000000000000000000000000000000000000000000000000000000000000000000000000000000000000000000000000000000000000000000000000000000000000000000000000000000000000000000000000000000000000000000000000000000000000000000000000000000000000000000000000000000000000000000000000000000000000000000000000000000000000000000000000000000000000000000000000000000000000000000000000000000000000000000000000000000000000000000000000000000000000000000000000000000000000000000000000000
#03156:53001414
#0315a:0014
#03152:00000014
#03452:54
#03456:00000014
#0345a:00000014
#03954:000000250000000000250000000000250000000000250000000000250000000000250000000000250000000000250000000000002500000000000000250000000000000025000000000000002500000000000000250000000000000025000000
#03952:250000250000250000250000250000250000250000250000250000002500000025000000250000002500000025000000
#03953:000000650000000000650000000000650000000000650000000000650000000000650000000000650000000000650000000000650000000000650000000000650000000000650000000000650000000000650000000000650000000000650000000000006500000000000000650000000000000065000000000000006500000000000000650000000000000065000000000000006500000000000000650000000000000065000000000000006500000000000000650000000000000065000000
#0395a:00440000
#03958:00000044
#04052:2525252525250000
#04054:00250025002500250025002500000000
#04053:0065006500650065006500650065006500650065006500650000000000000000
#04058:00000044
#0405a:00440000
#0415b:53
#04157:0023000000000000
#04753:00130013
#04758:64
#0485a:00130013
#04854:54
#04953:00130013
#0495a:54
#0505a:00130013
#05052:64
#05153:00130013
#0515a:64
#05156:0054
#05356:00145314
#0535b:00130000
#05352:64000013
#05357:63
#0535a:0054
#0635b:0053
#06352:001c0000
#06752:5414
#06756:54141400
#0675a:00140000
#06856:53
#06852:0014
#0685a:0014
#06952:1400000000000024
#0695a:1454
#06956:0000000000245400
#0025a:52
#00257:0022000000000000
#0045b:53
#00452:00000063
#00652:00000016
#00752:6363
#00756:0023000000230000
#00757:00630000
#0075b:0000002300000000
#0085b:63
#00856:00000053
#00952:00530000
#01152:00006434
#0115a:00005444
#01157:000000000000000000000000000000000000000000000000000000000000000000000000000000000000000000000000000000000000000000000000000000000000000000000000000000000000000000000000000000000000000000000000000000000000000000000000000000000000000000000000000000000000000000000000000000000000000000000000000000000000000000000000000000000000000000000000000000000000000000000000000000000000000000000000000000000000000000000000000000000000000000000000000000000000000000000000000000000000000000000000000000000000000000000000000000000000000000000000000000000000000000000000000000000000000000000000000000000000000000000000000000000000000000000000000000000000000000000000000000000000000000000000000000000000000000000000000000000000000000000000000000000000000000000000000000000000000000000000000000000000000000000000000000000000000000000000000000000000000000000000000000000000000000000000000000000000000000000000000000000000000000000000000000000000000000000000000000000000000000000000000000000000000000000000000000000000000000000000000000000000000000000000000000000000000000000000000000000000000000000000000000000000000000000000000000000000000000000000000000000000000000000000000000000000000000000000000000000000000000000000000000000000000000000000000000000000000000000000000000000000000000000000000000000000000000000000000000000000000000000000000000000000000000000000000000000000000000000000000000000000000000000000000000000000000000000000000000000000000000000000000000000000000000000000000000000000000000000000000000000000000000000000000000000000000000000000000000000000000000000000000000000000000000000000000000000000000000000000000000000000000000000000000000000000000000000000000000000000000000000000000000000000000000000000000000000000000000000000000000000000000000000000000000000000000000000000000000000000000000000000000000000000000000000000000000000000000000000000000000000000000000000000000000000000000000000000000000000000000000000000000000000000000000000000000000000000000000000000000000000000000000000000000000000000000000000000000000000000000000000000000000000000000000000000000000000000000000000000000000000000000000000000000000000000000000000000000000000000000000000000000000000000000000000000000000000000000000000000000000000000000000000000000000000000000000000000000000000000000000000000000000000000000000000000000000000000000000000000000000000000000000000000000000000000000000000000000000000000000000000024000000000000000000000000000000000000000000000000000000000000000000000000000000000000000000000000000000000000000000000000000000000000000000000000000000000000000000000000000000000000000000000000000000000000000000000000000000000000000000000000000000000000000000000000000000000000000000000000000000000000000000000000000000000000000000000000000000000000000000000000000000000000000000000000000000000000000000000000000000000000000000000000000000000000000000000000000000000000000000000000000000000000000000000000000000000000000000000000000000000000000000000000000000000000000000000000000000000000000000000000000000000000000000000000000000000000000000000000000000000000000000000000000000000000000000000000000000000000000000000000000000000000000000000000000000000000000000000000000000000000000000000000000000000000000000000000000000000000000000000000000000000000000000000000000000000000000000000000000000000000000000000000000000000000000000000000000000000000000000000000000000000000000000000000000000000000000000000000000000000000000000000000000000000000000000000000000000000000000000000000000000000000000000000000000000000000000000000000000000000000000000000000000000000000000000000000000000000000000000000000000000000000000000000000000000000000000000000000000000000000000000000000000000000000000000000000000000000000000000000000000000000000000000000000000000000000000000000000000000000000000000000000000000000000000000000000000000000000000000000000
#01155:0000000000240000
#01452:0064
#01455:0000000000240000
#0145a:00000054
#01457:0000000000000024
#0175b:5353
#01752:0053
#01758:00000014
#01754:00000014
#0185a:1454
#01852:6414
#01856:0024000000240000
#01952:63000014
#01958:0063
#01955:0053
#0195a:00000014
#02056:53
#02052:00230000
#02252:65
#02256:0025000000000000
#02259:00550000
#02255:0000002500000000
#02358:66000016
#02352:00002316
#0235b:0023
#02752:63
#0275b:0013
#02852:00146400
#02856:00140014
#02857:0063
#0285b:00000013
#03356:00005464
#03352:35
#0335a:0044
#03552:53
#0355a:14
#0365b:63
#03858:00000016
#04252:0063
#04256:0000000000230000
#0455b:53
#0525a:00130013
#05252:54
#05256:0064
#05652:5300000000230000
#05656:0000000053241300
#0565a:00005414
#06155:53
#0615b:0063
#06152:00000053
#05752:63000014
#0575a:0014
#05856:0000140000240000
#05852:00146414
#05857:00006313
#0585b:0000000000230000
#0605b:63
#0605a:0014
#06052:0014
#05958:0014
#05954:0014
#05952:54140000
#05957:0024000000000000
#0595a:64140000
#05955:000000000000000000000000000000000000000000000000000000000000000000000000000000000000000000000000000000000000000000000000000000000000000000000000000000000000000000000000000000000000000000000000000000000000000000000000000000000000000000000000000000000000000000000000000000000000000000000000000000000000000000000000000000000000000000000000000000000000000000000000000000000000000000000000000000000000000000000000000000000000000000000000000000000000000000000000000000000000000000000024000000000000000000000000000000000000000000000000000000000000000000000000000000000000000000000000000000000000000000000000000000000000000000000000000000000000000000000000000000000000000000000000000000000000000000000000000000000000000000000000000000000000000000000000000000000000000000000000000000000000000000000000000000000000000000000000000000000000000000000000000000000000000000000000000000000000000000000000000000000000000000000000000000000000000000000000000000000000000000000000000000000000000000000000000000000000000000000000000000000000000000000000000000000000000000000000000000000000000000000000000000000000000000000000000000000000000000000000000000000000000000000000000000000000000000000000000000000000000000000000000000000000000000000000000000000000000000000000000000000000000000000000000000000000000000000000000000000000000000000000000000000000000000000000000000000000000000000000000000000000000000000000000000000000000000000000000000000000000000000000000000000000000000000000000000000000000000000000000000000000000000000000000000000000000000000000000000000000000000000000000000000000000000000000000000000000000000000000000000000000000000000000000000000000000000000000000000000000000000000000000000000000000000000000000000000000000000000000000000000000000000000000000000000000000000000000000000000000000000000000000000000000000000000000000000000000000000000000000000000000000000000000000000000000000000000000000000000000000000000000000000000000000000000000000000000000000000000000000000000000000000000000000000000000000000000000000000000000000000000000000000000000000000000000000000000000000000000000000000000000000000000000000000000000000000000000000000000000000000000000000000000000000000000000000000000000000000000000000000000000000000000000000000000000000000000000000000000000000000000000000000000000000000000000000000000000000000000000000000000000000000000000000000000000000000000000000000000000000000000000000000000000000000000000000000000000000000000000000000000000000000000000000000000000000000000000000000000000000000000000000000000000000000000000000000000000000000000000000000000000000000000000000000000000000000000000000000000000000000000000000000000000000000000000000000000000000000000000000000000000000000000000000000000000000000000000000000000000000000000000000000000000000000000000000000000000000000000000000000000000000000000000000000000000000000000000000000000000000000000000000000000000000000000000000000000000000000000000000000000000000000000000000000000000000000000000000000000000000000000000000000000000000000000000000000000000000000000000000000000000000000000000000000000000000000000000000000000000000000000000000000000000000000000000000000000000000000000000000000000000000000000000000000000000000000000000000000000000000000000000000000000000000000000000000000000000000000000000000000000000000000000000000000000000000000000000000000000000000000000000000000000000000000000000000000000000000000000000000000000000000000000000000000000000000000000000000000000000000000000000000000000000000000000000000000000000000000000000000000000000000000000000000000000000000000000000000000000000000000000000000000000000000000000000000000000000000000000000000000000000000000000000000000000000000000000000000000000000000000000000000000000000000000000000000000000000000000000000000000000000000000000000000000000000000000000000000000000000000000000000
#05452:00000053
#0555b:63
#05556:34443400
#05552:00530000
#0555a:0044
#06452:54005414
#06456:0000000054241400
#0645a:0000000000240000
#0655b:63
#06656:0000142464241400
#0665a:0000000000240000
#06652:00546414
#0705a:54
#07252:16
#07552:00000063
#0755b:53
#0775a:00000064
#07756:0000000000000024
#07754:0000001400000000
#07852:34
#0785a:44
#00057:00000052
#0015a:12
#00157:12120000
#00154:00120000
#00355:14
#0035a:14
#00357:00140000
#00352:00140000
#00555:14
#0055a:14
#00557:00140000
#00552:00140000
#04452:0000000000140000
#04458:0000000000140000
#04454:0000000000000014
#0445a:0000000000000014
#07456:14140000
#0745a:14
#07452:00140000
#07656:14140000
#0765a:14
#07652:00140000
#01352:00540000
#02157:63
#0215b:00230000
#03052:0015
#0305b:63
#03059:0015
#0625a:54
#06256:00240000
#04655:56
#000370:00000012
#0013a0:22
#0023a0:12220000
#002370:0052000000000000
#0043b0:13
#004370:00230000
#004320:00000013
#005350:24
#007320:13230000
#007360:0053000000000000
#007371:00132300
#0073b1:0000005300000000
#007320:00001323
#007360:0000000000530000
#0083b0:13
#008380:00000033230000000000000000000000
#008360:00000013
#009320:23
#009320:00130000
#009360:0023
#010380:13
#0103b0:00000033230000000000000000000000
#010360:00000014
#0103a0:0000000000000054
#0113a0:00240000
#011320:00001424
#011350:0000000000540000
#0113a1:00001424
#011371:000000000000000000000000000000000000000000000000000000000000000000000000000000000000000000000000000000000000000000000000000000000000000000000000000000000000000000000000000000000000000000000000000000000000000000000000000000000000000000000000000000000000000000000000000000000000000000000000000000000000000000000000000000000000000000000000000000000000000000000000000000000000000000000000000000000000000000000000000000000000000000000000000000000000000000000000000000000000000000000000000000000000000000000000000000000000000000000000000000000000000000000000000000000000000000000000000000000000000000000000000000000000000000000000000000000000000000000000000000000000000000000000000000000000000000000000000000000000000000000000000000000000000000000000000000000000000000000000000000000000000000000000000000000000000000000000000000000000000000000000000000000000000000000000000000000000000000000000000000000000000000000000000000000000000000000000000000000000000000000000000000000000000000000000000000000000000000000000000000000000000000000000000000000000000000000000000000000000000000000000000000000000000000000000000000000000000000000000000000000000000000000000000000000000000000000000000000000000000000000000000000000000000000000000000000000000000000000000000000000000000000000000000000000000000000000000000000000000000000000000000000000000000000000000000000000000000000000000000000000000000000000000000000000000000000000000000000000000000000000000000000000000000000000000000000000000000000000000000000000000000000000000000000000000000000000000000000000000000000000000000000000000000000000000000000000000000000000000000000000000000000000000000000000000000000000000000000000000000000000000000000000000000000000000000000000000000000000000000000000000000000000000000000000000000000000000000000000000000000000000000000000000000000000000000000000000000000000000000000000000000000000000000000000000000000000000000000000000000000000000000000000000000000000000000000000000000000000000000000000000000000000000000000000000000000000000000000000000000000000000000000000000000000000000000000000000000000000000000000000000000000000000000000000000000000000000000000000000000000000000000000000000000000000000000000000000000000000000000000000000000000000000000000000000000000000000000000000000000000000000000000000000000000000000000000000000000000000000000000000000000000000000000000000000000000000000000000000000000000000054000000000000000000000000000000000000000000000000000000000000000000000000000000000000000000000000000000000000000000000000000000000000000000000000000000000000000000000000000000000000000000000000000000000000000000000000000000000000000000000000000000000000000000000000000000000000000000000000000000000000000000000000000000000000000000000000000000000000000000000000000000000000000000000000000000000000000000000000000000000000000000000000000000000000000000000000000000000000000000000000000000000000000000000000000000000000000000000000000000000000000000000000000000000000000000000000000000000000000000000000000000000000000000000000000000000000000000000000000000000000000000000000000000000000000000000000000000000000000000000000000000000000000000000000000000000000000000000000000000000000000000000000000000000000000000000000000000000000000000000000000000000000000000000000000000000000000000000000000000000000000000000000000000000000000000000000000000000000000000000000000000000000000000000000000000000000000000000000000000000000000000000000000000000000000000000000000000000000000000000000000000000000000000000000000000000000000000000000000000000000000000000000000000000000000000000000000000000000000000000000000000000000000000000000000000000000000000000000000000000000000000000000000000000000000000000000000000000000000000000000000000000000000000000000000000000000000000000000000000000000000000000000000000000000000000000000000000000000000000000000
#013321:1424000000000000
#013360:0014240000000000
#013321:00140000
#013361:00000000000000342400000000000000
#014321:1424000000000000
#014341:0000142400000000
#014321:00001424
#014351:0000000000540000
#0143a0:00000014
#014370:0000000000000054
#0153a0:24
#016390:1555250000000000
#016380:0055005500550055000000000000000000000000000000000000000000000000
#016370:00550055000000000000000000000000
#016320:0000000015552500
#016330:0000000000000000000000000000000000550055005500550000000000000000
#016340:00000000000000000055005500000000
#0173b0:13
#017380:00000023000000000000000000000000
#017320:0013
#017340:00000024
#0173b1:0013
#017381:00000024
#018321:14240000
#018361:0054000000000000
#0183a1:00001424
#018361:0000000000540000
#019321:13
#019351:00000023000000000000000000000000
#019381:0013
#0193a1:00000024
#019350:0013
#019320:00000024
#020360:13000000000000333300230000000000
#020320:00000033330000000000000000000000
#020320:0000000000001323
#021370:13000000000000333300230000000000
#0213b0:00000033330000000000000000000000
#0213b0:0000000000001323
#022320:15250000
#022360:0055000000000000
#022391:00152500
#022351:0000005500000000
#023381:16000026
#0233b1:0000003333000000
#023320:00001326
#0243b0:00000013
#025360:24
#026320:13
#026350:00000033230000000000000000000000
#0263a0:0014
#026360:0000000000542400
#026361:0013
#026321:0000000000532300
#027321:13
#027361:00230000
#028321:0014
#028361:0000000000542400
#028370:0013
#0283b0:0000000000532300
#029320:14240000
#029350:000000000000000000000000000000000000000000000000000000000000000000000000000000000000000000000000000000000000000000000000000000000000000000000000000000000000000000000000000000000000000000000000000000000000000000000000000000000000000000000000000000000000000000000000000000000000000000000000000000000000000000000000000000000000000000000000000000000000000000000000000000000000000000000000000000000000000000000000000000000000000000000000000000000000000000000000000000000000000000000054000000000000000000000000000000000000000000000000000000000000000000000000000000000000000000000000000000000000000000000000000000000000000000000000000000000000000000000000000000000000000000000000000000000000000000000000000000000000000000000000000000000000000000000000000000000000000000000000000000000000000000000000000000000000000000000000000000000000000000000000000000000000000000000000000000000000000000000000000000000000000000000000000000000000000000000000000000000000000000000000000000000000000000000000000000000000000000000000000000000000000000000000000000000000000000000000000000000000000000000000000000000000000000000000000000000000000000000000000000000000000000000000000000000000000000000000000000000000000000000000000000000000000000000000000000000000000000000000000000000000000000000000000000000000000000000000000000000000000000000000000000000000000000000000000000000000000000000000000000000000000000000000000000000000000000000000000000000000000000000000000000000000000000000000000000000000000000000000000000000000000000000000000000000000000000000000000000000000000000000000000000000000000000000000000000000000000000000000000000000000000000000000000000000000000000000000000000000000000000000000000000000000000000000000000000000000000000000000000000000000000000000000000000000000000000000000000000000000000000000000000000000000000000000000000000000000000000000000000000000000000000000000000000000000000000000000000000000000000000000000000000000000000000000000000000000000000000000000000000000000000000000000000000000000000000000000000000000000000000000000000000000000000000000000000000000000000000000000000000000000000000000000000000000000000000000000000000000000000000000000000000000000000000000000000000000000000000000000000000000000000000000000000000000000000000000000000000000000000000000000000000000000000000000000000000000000000000000000000000000000000000000000000000000000000000000000000000000000000000000000000000000000000000000000000000000000000000000000000000000000000000000000000000000000000000000000000000000000000000000000000000000000000000000000000000000000000000000000000000000000000000000000000000000000000000000000000000000000000000000000000000000000000000000000000000000000000000000000000000000000000000000000000000000000000000000000000000000000000000000000000000000000000000000000000000000000000000000000000000000000000000000000000000000000000000000000000000000000000000000000000000000000000000000000000000000000000000000000000000000000000000000000000000000000000000000000000000000000000000000000000000000000000000000000000000000000000000000000000000000000000000000000000000000000000000000000000000000000000000000000000000000000000000000000000000000000000000000000000000000000000000000000000000000000000000000000000000000000000000000000000000000000000000000000000000000000000000000000000000000000000000000000000000000000000000000000000000000000000000000000000000000000000000000000000000000000000000000000000000000000000000000000000000000000000000000000000000000000000000000000000000000000000000000000000000000000000000000000000000000000000000000000000000000000000000000000000000000000000000000000000000000000000000000000000000000000000000000000000000000000000000000000000000000000000000000000000000000000000000000000000000000000000000000000000000000000000000000000000000000000000000000000000000000000000000000000000000000000000000000000
#0293a1:14240000
#029371:0054000000000000
#0303b1:13
#030381:00000033230000000000000000000000
#031361:13
#031321:00230000
#0323a1:1424
#032361:00540000
#033361:0014
#033321:00000024
#033360:00000014
#0343a0:24
#034321:14
#034341:00343434343434340000000000000000
#034361:00000000000000003434343424000000
#035321:13
#035361:00230000
#0363b1:13
#036371:00000023000000000000000000000000
#039321:150000550000550000550000550000550000550000550000550000005500000055000000550000005500000055000000
#039331:000000550000000000550000000000550000000000550000000000550000000000550000000000550000000000550000000000550000000000550000000000550000000000550000000000550000000000550000000000550000000000550000000000005500000000000000550000000000000055000000000000005500000000000000550000000000000055000000000000005500000000000000550000000000000055000000000000005500000000000000550000000000000055000000
#039341:000000550000000000550000000000550000000000550000000000550000000000550000000000550000000000550000000000005500000000000000550000000000000055000000000000005500000000000000550000000000000055000000
#040321:5555555555552500
#040331:0055005500550055005500550055005500550055005500550000000000000000
#040341:00550055005500550055005500000000
#0413b1:13230000
#041371:0053000000000000
#041320:0000132300000000
#0413b0:0000000013230000
#041351:0000000000132300
#041380:0000000000001323
#041321:0000000000000013
#042321:23
#042321:00001323
#042361:0000000000530000
#0423b0:0000000000001323
#043350:0013230000000000
#043381:0000132300000000
#043320:0000001323000000
#0433b1:0000000013230000
#044321:0013230000000000
#0443b0:0000132300000000
#044351:0000001323000000
#044380:0000000014240000
#044340:0000000000001424
#0453b0:13
#045370:00230000
#045320:0000000013230000
#045381:0000000000132300
#045350:0000000000001323
#0453b1:0000000000000013
#0463b1:23
#046350:16
#046320:0054
#047320:24
#047381:14
#0483b1:22
#048340:14
#049330:22
#0493a1:14
#050381:22
#050320:14
#051360:22
#0513a1:14
#051361:00240000
#051361:0014
#0513a1:00000024
#052321:14
#052361:00240000
#052361:0014
#052321:00000024
#053321:14
#053361:00240000
#053370:13
#0533b0:00230000
#0533a0:0014
#053360:00000024
#053361:0013
#053321:00000023
#054321:00000013
#055361:24
#0553b0:13
#055360:00240000
#055321:00130000
#055361:0024
#056321:13
#056351:00000033230000000000000000000000
#0563a1:00001424
#056361:0000000000540000
#056360:00001323
#056320:0000000000530000
#057320:13
#057360:00230000
#058320:00001424
#058360:0000000000540000
#058371:00001323
#0583b1:0000000000530000
#059321:14240000
#059351:000000000000000000000000000000000000000000000000000000000000000000000000000000000000000000000000000000000000000000000000000000000000000000000000000000000000000000000000000000000000000000000000000000000000000000000000000000000000000000000000000000000000000000000000000000000000000000000000000000000000000000000000000000000000000000000000000000000000000000000000000000000000000000000000000000000000000000000000000000000000000000000000000000000000000000000000000000000000000000000054000000000000000000000000000000000000000000000000000000000000000000000000000000000000000000000000000000000000000000000000000000000000000000000000000000000000000000000000000000000000000000000000000000000000000000000000000000000000000000000000000000000000000000000000000000000000000000000000000000000000000000000000000000000000000000000000000000000000000000000000000000000000000000000000000000000000000000000000000000000000000000000000000000000000000000000000000000000000000000000000000000000000000000000000000000000000000000000000000000000000000000000000000000000000000000000000000000000000000000000000000000000000000000000000000000000000000000000000000000000000000000000000000000000000000000000000000000000000000000000000000000000000000000000000000000000000000000000000000000000000000000000000000000000000000000000000000000000000000000000000000000000000000000000000000000000000000000000000000000000000000000000000000000000000000000000000000000000000000000000000000000000000000000000000000000000000000000000000000000000000000000000000000000000000000000000000000000000000000000000000000000000000000000000000000000000000000000000000000000000000000000000000000000000000000000000000000000000000000000000000000000000000000000000000000000000000000000000000000000000000000000000000000000000000000000000000000000000000000000000000000000000000000000000000000000000000000000000000000000000000000000000000000000000000000000000000000000000000000000000000000000000000000000000000000000000000000000000000000000000000000000000000000000000000000000000000000000000000000000000000000000000000000000000000000000000000000000000000000000000000000000000000000000000000000000000000000000000000000000000000000000000000000000000000000000000000000000000000000000000000000000000000000000000000000000000000000000000000000000000000000000000000000000000000000000000000000000000000000000000000000000000000000000000000000000000000000000000000000000000000000000000000000000000000000000000000000000000000000000000000000000000000000000000000000000000000000000000000000000000000000000000000000000000000000000000000000000000000000000000000000000000000000000000000000000000000000000000000000000000000000000000000000000000000000000000000000000000000000000000000000000000000000000000000000000000000000000000000000000000000000000000000000000000000000000000000000000000000000000000000000000000000000000000000000000000000000000000000000000000000000000000000000000000000000000000000000000000000000000000000000000000000000000000000000000000000000000000000000000000000000000000000000000000000000000000000000000000000000000000000000000000000000000000000000000000000000000000000000000000000000000000000000000000000000000000000000000000000000000000000000000000000000000000000000000000000000000000000000000000000000000000000000000000000000000000000000000000000000000000000000000000000000000000000000000000000000000000000000000000000000000000000000000000000000000000000000000000000000000000000000000000000000000000000000000000000000000000000000000000000000000000000000000000000000000000000000000000000000000000000000000000000000000000000000000000000000000000000000000000000000000000000000000000000000000000000000000000000000000000000000000000000000000000000000000000000000000000000000000000000000000000000000000000000000000000000000000000000000000000000000000000000000000000000000000000000000000000000000000000000
#0593a0:14240000
#059370:0054000000000000
#0603b0:13
#060380:00000033230000000000000000000000
#061350:13
#061320:00230000
#0613b0:0013
#061360:00000024
#061321:00000013
#062361:24
#0623a0:14000000000000342400000000000000
#062360:00540000
#063350:16
#063320:002c0000
#0633b0:0013
#063370:00000023
#063321:0000000000001323
#064321:14
#064361:00000034240000000000000000000000
#064321:00001424
#064361:0000000000540000
#064360:00001424
#0643a0:0000000000540000
#0653b0:13
#065370:00000033230000000000000000000000
#065350:0000000013230000
#065380:0000000000001323
#066320:00143424
#066360:0000005400540000
#066361:00001424
#0663a1:0000000000540000
#067321:14
#067361:00540000240000000000000000000000
#067360:14
#0673a0:00540000240000000000000000000000
#068360:13
#068320:00000033230000000000000000000000
#0693a0:00001424
#069360:0000000000540000
#069361:00000014
#069321:0000000000000054
#070361:24
#0703a0:14
#070370:0023
#0753b0:13
#075370:00230000
#075320:00000013
#076360:24
#0773a0:00000014
#077360:0000000000000054
#0783a0:24
#0349a0:000000000000000000000000000000000000000000000000000000000000000000000000000000000000000000000000000000000000000000000000000000000000000000000000000000000000000000000000000000000000000000000000000000000000000000000000000000000000000000000000000000000000000000000000000000000000000000000000000000000000000000000000000000000000000000000000000000000000000000000000000000000000000000000000000000000000000000000000000000000000000000000000000000000000000000000000000000000000000000000000000000000000000000000000000000000000000000000000000000000000000000000000000000000000000000000000000000000000000000000000000000000000000000000000000000000000000000000000000000000000000000000000000000000000000000000000000000000000000000000000000000000000000000000000000000000000000000000000000000000000000000000000000000000000000000000000000000000000000000000000000000000000000000000000000000000000000000000000000000000000000000000000000000000000000000000000000000000000000000000000000000000000000000000000000000000000000000000000000000000000000000000000000000000000000000000000000000000000000000000000000000000000000000000000000000000000000000000000000000000000000000000000000000000000000000000000000000000000000000000000000000000000000000000000000000000000000000000000000000000000000000000000000000000000000000000000000000000000000000000000000000000000000000000000000000000000000000000000000000000000000000000000000000000000000000000000000000000000000000000000000000000000000000000000000000000000000000000000000000000000000000000000000000000000000000000000000000000000000000000000000000000000000000000000000000000000000000000000000000000000000000000000000000000000000000000000000000000000000000000000000000000000000000000000000000000000000000000000000000000000000000000000000000000000000000000000000000000000000000000000000000000000000000000000000000000000000000000000000000000000000000000000000000000000000000000000000000000000000000000000140000000000000000000000000000000000000000000000000000000000000000000000000000000000000000000000000000000000000000000000000000000000000000000000000000000000000000000000000000000000000000000000000000000000000000000000000000000000000000000000000000000000000000000000000000000000000000000000000000000000000000000000000000000000000000000000000000000000000000000000000000000000000000000000000000000000000000000000000000000000000000000000000000000000000000000000000000000000000000000000000000000000000000000000000000000000000000000000000000000000000000000000000000000000000000000000000000000000000000000000000000000000000000000000000000000000000000000000000000000000000000000000000000000000000000000000000000000000000000000000000000000000000000000000000000000000000000000000000000000000000000000000000000000000000000000000000000000000000000000000000000000000000000000000000000000000000000000000000000000000000000000000000000000000000000000000000000000000000000000054240000000000000000000000000000000000000000000000000000000000000000000000000000000000000000000000000000000000000000000000000000000000000000000000000000000000000000000000000000000000000000000000000000000000000000000000000000000000000000000000000000000000000000000000000000000000000000000000000000000000000000000000000000000000000000000000000000000000000000000000000000000000000000000000000000000000000000000000000000000000000000000000000000000000000000000000000000000000000000000000000000000000000000000000000000000000000000000000000000000000000000000000000000000000000000000000000000000000000000000000000000000000000000000000000000000000000000000000000000000000000000000000000000000000000000000000000000000000000000000000000000000000000000000000000000000000000000000000000000000000000000000000000000000000000000000000000000000000000000000000000000000000000000000000000000000000000000000000000000000000000000000000000000000000000000000000000000000000000000000000
#037920:13
#037960:000000000000000000000000000000000000000000000000000000000000000000000000000000000000000000000000000000000000000000000000000000000000000000000000000000000000000000000000000000000000000000000000000000000000000000000000000000000000000000000000000000000000000000000000000000000000000000000000000000000000000000000000000000000000000000000000000000000000000000000000000000000000000000000000000000000000000000000000000000000000000000000000000000000000000000000000000000000000000000000053230000000000000000000000000000000000000000000000000000000000000000000000000000000000000000000000000000000000000000000000000000000000000000000000000000000000000000000000000000000000000000000000000000000000000000000000000000000000000000000000000000000000000000000000000000000000000000000000000000000000000000000000000000000000000000000000000000000000000000000000000000000000000000000000000000000000000000000000000000000000000000000000000000000000000000000000000000000000000000000000000000000000000000000000000000000000000000000000000000000000000000000000000000000000000000000000000000000000000000000000000000000000000000000000000000000000000000000000000000000000000000000000000000000000000000000000000000000000000000000000000000000000000000000000000000000000000000000000000000000000000000000000000000000000000000000000000000000000000000000000000000000000000000000000000000000000000000000000000000000000000000000000000000000000000000000000000000000000000000000000000000000000000000000000000000000000000000000000000000000000000000000000000000000000000000000000000000000000000000000000000000000000000000000000000000000000000000000000000000000000000000000000000000000000000000000000000000000000000000000000000000000000000000000000000000000000000000000000000000000000000000000000000000000000000000000000000000000000000000000000000000000000000000000000000000000000000000000000000000000000000000000000000000000000000000000000000000000000000000000000
#0379b1:00130000
#037971:000000000000000000000000000000000000000000000000000000000000000000000000000000000000000000000000000000000000000000000000000000000000000000000000000000000000000000000000000000000000000000000000000000000000000000000000000000000000000000000000000000000000000000000000000000000000000000000000000000000000000000000000000000000000000000000000000000000000000000000000000000000000000000000000000000000000000000000000000000000000000000000000000000000000000000000000000000000000000000000000000000000000000000000000000000000000000000000000000000000000000000000000000000000000000000000000000000000000000000000000000000000000000000000000000000000000000000000000000000000000000000000000000000000000000000000000000000000000000000000000000000000000000000000000000000000000000000000000000000000000000000000000000000000000000000000000000000000000000000000000000000000000000000000000000000000000000000000000000000000000000000000000000000000000000000000000000000000000000000000053230000000000000000000000000000000000000000000000000000000000000000000000000000000000000000000000000000000000000000000000000000000000000000000000000000000000000000000000000000000000000000000000000000000000000000000000000000000000000000000000000000000000000000000000000000000000000000000000000000000000000000000000000000000000000000000000000000000000000000000000000000000000000000000000000000000000000000000000000000000000000000000000000000000000000000000000000000000000000000000000000000000000000000000000000000000000000000000000000000000000000000000000000000000000000000000000000000000000000000000000000000000000000000000000000000000000000000000000000000000000000000000000000000000000000000000000000000000000000000000000000000000000000000000000000000000000000000000000000000000000000000000000000000000000000000000000000000000000000000000000000000000000000000000000000000000000000000000000000000000000000000000000000000000000000000000000000000000000000000000000
#037920:0014
#037960:000000000000000000000000000000000000000000000000000000000000000000000000000000000000000000000000000000000000000000000000000000000000000000000000000000000000000000000000000000000000000000000000000000000000000000000000000000000000000000000000000000000000000000000000000000000000000000000000000000000000000000000000000000000000000000000000000000000000000000000000000000000000000000000000000000000000000000000000000000000000000000000000000000000000000000000000000000000000000000000000000000000000000000000000000000000000000000000000000000000000000000000000000000000000000000000000000000000000000000000000000000000000000000000000000000000000000000000000000000000000000000000000000000000000000000000000000000000000000000000000000000000000000000000000000000000000000000000000000000000000000000000000000000000000000000000000000000000000000000000000000000000000000000000000000000000000000000000000000000000000000000000000000000000000000000000000000000000000000000000000000000000000000000000000000000000000000000000000000000000000000000000000000000000000000000000000000000000000000000000000000000000000000000000000000000000000000000000000000000000000000000000000000000000000000000000000000000000000000000000000000000000000000000000000000000000000000000000000000000000000000000000000000000000000000000000000000000000000000000000000000000000000000000000000000000000000000000000000000000000000000000000000000000000000000000000000000000000000000000000054240000000000000000000000000000000000000000000000000000000000000000000000000000000000000000000000000000000000000000000000000000000000000000000000000000000000000000000000000000000000000000000000000000000000000000000000000000000000000000000000000000000000000000000000000000000000000000000000000000000000000000000000000000000000000000000000000000000000000000000000000000000000000000000000000000000000000000000000000000000000000000000000000000000000000000000000000000000000000000000000
#0379a1:00000014
#037961:000000000000000000000000000000000000000000000000000000000000000000000000000000000000000000000000000000000000000000000000000000000000000000000000000000000000000000000000000000000000000000000000000000000000000000000000000000000000000000000000000000000000000000000000000000000000000000000000000000000000000000000000000000000000000000000000000000000000000000000000000000000000000000000000000000000000000000000000000000000000000000000000000000000000000000000000000000000000000000000000000000000000000000000000000000000000000000000000000000000000000000000000000000000000000000000000000000000000000000000000000000000000000000000000000000000000000000000000000000000000000000000000000000000000000000000000000000000000000000000000000000000000000000000000000000000000000000000000000000000000000000000000000000000000000000000000000000000000000000000000000000000000000000000000000000000000000000000000000000000000000000000000000000000000000000000000000000000000000000000000000000000000000000000000000000000000000000000000000000000000000000000000000000000000000000000000000000000000000000000000000000000000000000000000000000000000000000000000000000000000000000000000000000000000000000000000000000000000000000000000000000000000000000000000000000000000000000000000000000000000000000000000000000000000000000000000000000000000000000000000000000000000000000000000000000000000000000000000000000000000000000000000000000000000000000000000000000000000000000000000000000000000000000000000000000000000000000000000000000000000000000000000000000000000000000000000000000000000000000000000000000000000000000000000000000000000000000000000000000000000000000000000000000000000000000000000000000000000000000000000000000000000000000000000000000000000000000000000000000000000000000000000000000000000000000000000000000000000000000000000000000000000000000000000000000000000000000000000000000000000000000000000000000000000000000000000000000000000000000000054
#038961:24
#038920:140000000000000000000000000000000000000000000000000000000000000000000000000000000000000000000000000000000000000000000000000000000000000000000000000000000000000000000000000000000000000000000000000000000000000000000000000000000000000000000000000000000000000000000000000000000000000000000000000000000000000000000000000000000000000000000000000000000000000000000000000000000000000000000000000000000000000000000000000000000000000000000000000000000000000000000000000000000000000000005454240000000000000000000000000000000000000000000000000000000000000000000000000000000000000000000000000000000000000000000000000000000000000000000000000000000000000000000000000000000000000000000000000000000000000000000000000000000000000000000000000000000000000000000000000000000000000000000000000000000000000000000000000000000000000000000000000000000000000000000000000000000000000000000000000000000000000000000000000000000000000000000000000000000000000000000000000000000000000000000000000000000000000000000000000000000000000000000000000000000000000000000000000000000000000000000000000000000000000000000000000000000000000000000000000000000000000000000000000000000000000000000000000000000000000000000000000000000000000000000000000000000000000000000000000000000000000000000000000000000000000000000000000000000000000000000000000000000000000000000000000000000000000000000000000000000000000000000000000000000000000000000000000000000000000000000000000000000000000000000000000000000000000000000000000000000000000000000000000000000000000000000000000000000000000000000000000000000000000000000000000000000000000000000000000000000000000000000000000000000000000000000000000000000000000000000000000000000000000000000000000000000000000000000000000000000000000000000000000000000000000000000000000000000000000000000000000000000000000000000000000000000000000000000000000000000000000000000000000000000000000000000000000000000000000000000000000000000000000000000000
#038960:0054000000000000
#0389a1:000000000000000000000000000000000000000000000000000000000000000000000000000000000000000000000000000000000000000000000000000000000000000000000000000000000000000000000000000000000000000000000000000000000000000000000000000000000000000000000000000000000000000000000000000000000000000000000000000000000000000000000000000000000000000000000000000000000000000000000000000000000000000000000000000000000000000000000000000000000000000000000000000000000000000000000000000000000000000000000000140000000000000000000000000000000000000000000000000000000000000000000000000000000000000000000000000000000000000000000000000000000000000000000000000000000000000000000000000000000000000000000000000000000000000000000000000000000000000000000000000000000000000000000000000000000000000000000000000000000000000000000000000000000000000000000000000000000000000000000000000000000000000000000000000000000000000000000000000000000000000000000000000000000000000000000000000000000000000000005454240000000000000000000000000000000000000000000000000000000000000000000000000000000000000000000000000000000000000000000000000000000000000000000000000000000000000000000000000000000000000000000000000000000000000000000000000000000000000000000000000000000000000000000000000000000000000000000000000000000000000000000000000000000000000000000000000000000000000000000000000000000000000000000000000000000000000000000000000000000000000000000000000000000000000000000000000000000000000000000000000000000000000000000000000000000000000000000000000000000000000000000000000000000000000000000000000000000000000000000000000000000000000000000000000000000000000000000000000000000000000000000000000000000000000000000000000000000000000000000000000000000000000000000000000000000000000000000000000000000000000000000000000000000000000000000000000000000000000000000000000000000000000000000000000000000000000000000000000000000000000000000000000000000000000000000000000000000000000000000000
#038961:0000005400000000
#038920:000000000000000000000000000000000000000000000000000000000000000000000000000000000000000000000000000000000000000000000000000000000000000000000000000000000000000000000000000000000000000000000000000000000000000000000000000000000000000000000000000000000000000000000000000000000000000000000000000000000000000000000000000000000000000000000000000000000000000000000000000000000000000000000000000000000000000000000000000000000000000000000000000000000000000000000000000000000000000000000000000000000000000000000000000000000000000000000000000000000000000000000000000000000000000000000000000000000000000000000000000000000000000000000000000000000000000000000000000000000000000000000000000000000000000000000000000000000000000000000000000000000000000000000000000000000000000000000000000000000000000000000000000000000000000000000000000000000000000000000000000000000000000000000000000000000000000000000000000000000000000000000000000000000000000000000000000000000000000000000000140000000000000000000000000000000000000000000000000000000000000000000000000000000000000000000000000000000000000000000000000000000000000000000000000000000000000000000000000000000000000000000000000000000000000000000000000000000000000000000000000000000000000000000000000000000000000000000000000000000000000000000000000000000000000000000000000000000000000000000000000000000000000000000000000000000000000000000000000000000000000000000000000000000000000000000000000000000000000000005454240000000000000000000000000000000000000000000000000000000000000000000000000000000000000000000000000000000000000000000000000000000000000000000000000000000000000000000000000000000000000000000000000000000000000000000000000000000000000000000000000000000000000000000000000000000000000000000000000000000000000000000000000000000000000000000000000000000000000000000000000000000000000000000000000000000000000000000000000000000000000000000000000000000000000000000000000000000000000000000000
#038960:0000000000540000
#0729a0:140000000000000000000000000000000000000000000000000000000000000000000000000000000000000000000000000000000000000000000000000000000000000000000000000000000000000000000000000000000000000000000000000000000000000000000000000000000000000000000000000000000000000000000000000000000000000000000000000000000000000000000000000000000000000000000000000000000000000000000000000000000000000000000000000000000000000000000000000000000000000000000000000000000000000000000000000000000000000000000000000000000000000000000000000000000000000000000000000000000000000000000000000000000000000000000000000000000000000000000000000000000000000000000000000000000000000000000000000000000000000000000000000000000000000000000000000000000000000000000000000000000000000000000000000000000000000000000000000000000000000000000000000000000000000000000000000000000000000000000000000000000000000000000000000000000000000000000000000000000000000000000000000000000000000000000000000000000000000000005454240000000000000000000000000000000000000000000000000000000000000000000000000000000000000000000000000000000000000000000000000000000000000000000000000000000000000000000000000000000000000000000000000000000000000000000000000000000000000000000000000000000000000000000000000000000000000000000000000000000000000000000000000000000000000000000000000000000000000000000000000000000000000000000000000000000000000000000000000000000000000000000000000000000000000000000000000000000000000000000000000000000000000000000000000000000000000000000000000000000000000000000000000000000000000000000000000000000000000000000000000000000000000000000000000000000000000000000000000000000000000000000000000000000000000000000000000000000000000000000000000000000000000000000000000000000000000000000000000000000000000000000000000000000000000000000000000000000000000000000000000000000000000000000000000000000000000000000000000000000000000000000000000000000000000000000000000000000000000000000000
#072960:00540000
#072921:000000000000000000000000000000000000000000000000000000000000000000000000000000000000000000000000000000000000000000000000000000000000000000000000000000000000000000000000000000000000000000000000000000000000000000000000000000000000000000000000000000000000000000000000000000000000000000000000000000000000000000000000000000000000000000000000000000000000000000000000000000000000000000000000000000000000000000000000000000000000000000000000000000000000000000000000000000000000000000000000000000000000000000000000000000000000000000000000000000000000000000000000000000000000000000000000000000000000000000000000000000000000000000000000000000000000000000000000000000000000000000000000000000000000000000000000000000000000000000000000000000000000000000000000000000000000000000000000000000000000000000000000000000000000000000000000000000000000000000000000000000000000000000000000000000000000000000000000000000000000000000000000000000000000000000000000000000000000000000000000140000000000000000000000000000000000000000000000000000000000000000000000000000000000000000000000000000000000000000000000000000000000000000000000000000000000000000000000000000000000000000000000000000000000000000000000000000000000000000000000000000000000000000000000000000000000000000000000000000000000000000000000000000000000000000000000000000000000000000000000000000000000000000000000000000000000000000000000000000000000000000000000000000000000000000000000000000000000000000000000000000000000000000000000000000000000000000000000000000000000000000000000000000000000000000000000000000000000000000000000000000000000000000000000000000000000000000000000000000000000000000000000000000000000000000000000000000000000000000000000000000000000000000000000000000000000000000000000000000000000000000000000000000000000000000000000000000000000000000000000000000000000000000000000000000000000000000000000000000000000000000000000000000000000000000000000000000000000000000005454
#072961:00000054
#073921:24
