This file was generated by Ched 2.7.0.0.
#TITLE ""
#ARTIST ""
#DESIGNER ""
#DIFFICULTY 0
#PLAYLEVEL
#SONGID ""
#WAVE ""
#WAVEOFFSET 0
#JACKET ""
#REQUEST "ticks_per_beat 480"
#00002: 4
#BPM01: 140
#00008: 01
#TIL00: "74'1440:1, 74'1438:10000"
#VOLUME: ""
#HISPEED 00
#MEASUREHS 00
#05114:14
#03018:0014
#03012:00000014
#03014:00140000
#0301a:24
#0021a:14
#00212:0014
#00318:1414
#00314:00140000
#00412:14
#0041a:0014
#00514:1414
#00518:00140000
#0061a:1414
#00612:00140014
#00718:1414
#00714:00140014
#00812:00140000
#00818:0014
#00814:00000014
#0081a:14
#00912:00140000
#00918:0014
#00914:00000014
#0091a:14
#02012:1414
#0201a:00140014
#02114:14141414
#02118:0014001400140000
#0221a:14
#02318:0014000000000000
#02514:0014000000000000
#02718:0014000000000000
#02712:000000000000000000000000000000000034000000000000
#02914:0014000000000000
#0291a:000000000000000000000000000000000034000000000000
#03118:14
#03114:00140000
#0311a:0014
#03116:00000014
#04412:14
#04418:00140000
#04414:0014
#0441a:00000014
#04410:41
#04514:14
#04518:00140000
#04512:0014
#0461a:14
#04614:00140000
#04618:0014
#04612:00000014
#04718:14
#04714:00140000
#0471a:0014
#04812:14
#0481a:00140000
#04813:0014
#04819:00000014
#04914:14
#04918:00140000
#04913:0014
#04919:00000014
#05012:14
#0501a:00140000
#05014:0014
#05018:00000014
#05412:1414
#0541a:00140014
#05514:14141414
#05518:0014001400140000
#0521a:14
#05217:0000000000000014
#0181a:14
#01817:0000000000000014
#01810:41
#0601a:14
#06014:00140000
#06018:0014
#06012:00000014
#0611a:14
#06114:00140000
#06118:0014
#06112:00000014
#0621a:14
#06214:00140000
#06218:0014
#06212:00000014
#06413:0000000000140014
#06419:00000014
#06418:0014001400000000
#06412:24140000
#0641f:21
#0651a:0014001400000000
#06514:0000140000140014
#06518:00000014
#06510:41
#03214:0014
#0321a:00000014
#03218:00140000
#03212:24
#03314:14
#03318:00140000
#03312:0014
#03316:00000014
#06914:0000140000140014
#06918:00000014
#0691a:0014001400000000
#0661a:0014001400000000
#06614:00140000
#06613:0000000000140014
#06619:00000014
#06718:0014001400001400
#06712:00140000
#06714:0000000000140014
#0681a:0014001400000000
#06814:00140000
#06812:0000000000140014
#06818:00000014
#0701a:0014000000000000
#07014:0000140000000014
#07018:0000001400001400
#07012:0000000000140000
#0711a:0014000000000000
#07114:0000140000140014
#07118:0000001400001400
#07214:00000018
#0721a:0034003414000000
#07218:0000000000340034
#0561f:11
#02614:000000000000000000000000000000000034000000000000
#02610:41
#02818:000000000000000000000000000000000034000000000000
#0341a:0034003400000000
#03418:0000000000340000
#03416:0000000000003434
#03516:0034340000000000
#03518:0000003400000000
#07316:0034000000340034
#0731a:0000003400000000
#01010:41
#03610:41
#05154:64
#0305a:14
#0225a:14
#02452:14
#0265a:14
#02852:14
#0355a:00000014
#0525a:64
#05257:0000000000000024
#0185a:64
#01857:0000000000000024
#06452:14
#07254:00000028
#0725a:0064
#0745a:14
#0103a0:14
#010380:0034
#0113a0:34
#011380:0024
#012320:14
#012340:0034
#013320:34
#013340:0024
#0143a0:14
#014380:0024
#015320:14
#015340:0024
#016380:14
#0163a0:0024
#017340:14
#017320:0024
#0183a0:14
#018370:0000000000000054
#0193a0:00000024
#022340:000000000000140000000000340000000034000000240000
#023320:000000000000140000000000340000000034000000340000
#024320:24
#024380:000000000000140000000000340000000034000000240000
#0253a0:000000000000140000000000340000000034000000340000
#0263a0:24
#026340:000000000000140000000000000000000034000000240000
#026320:0034
#027320:000000000000140000000000000000000034000000340000
#027340:0034
#028320:24
#028380:000000000000140000000000000000000034000000240000
#0283a0:0034
#0293a0:000000000000140000000000000000000034000000340000
#029380:0034
#0303a0:24
#0343a0:1434003434000000
#034370:00340000
#034380:0000000000340000
#034360:0000000000003434
#035340:38
#035360:0034340000000000
#035380:0000003400000000
#0353a0:0000000034342400
#036320:14
#036340:0034
#037320:34
#037340:0024
#0383a0:14
#038380:0034
#0393a0:34
#039380:0024
#040320:14
#040340:0024
#0413a0:14
#041380:0024
#042340:14
#042320:0024
#043380:14
#0433a0:0024
#051340:14
#051320:00000024
#0523a0:14
#052370:0000000000000054
#0533a0:00000024
#0563a0:14000024
#056380:0034
#057320:14000024
#057340:0034
#058380:14000024
#0583a0:0034
#059340:14000024
#059320:0034
#0633a0:14
#063380:00000024
#0723a0:1434003434000000
#072370:00340000
#072380:0000000000340034
#072340:00000038
#0733a0:3400003434000000
#073360:0034340000343434
#0743a0:24
#0749d0:000000000000000000000000000000000000000000000000000000000000000000000000000000000000000000000000000000000000000000000000000000000000000000000000000000000000000000000000000000000000000000000000000000000000000000000000000000000000000000000000000000000000000000000000000000000000000000000000000000000000000000000000000000000000000000000000000000000000000000000000000000000000000000000000000000000000000000000000000000000000000000000000000000000000000000000000000000000000000000000000000000000000000000000000000000000000000000000000000000000000000000000000000000000000000000000000000000000000000000000000000000000000000000000000000000000000000000000000000000000000000000000000000000000000000000000000000000000000000000000000000000000000000000000000000000000000000000000000000000000000000000000000000000000000000000000000000000000000000000000000000000000000000000000000000000000000000000000000000000000000000000000000000000000000000000000000000000000000000000000000000000000000000000000000000000000000000000000000000000000000000000000000000000000000000000000000000000000000000000000000000000000000000000000000000000000000000000000000000000000000000000000000000000000000000000000000000000000000000000000000000000000000000000000000000000000000000000000000000000000000000000000000000000000000000000000000000000000000000000000000000000000000000000000000000000000000000000000000000000000000000000000000000000000000000000000000000000000000000000000000000000000000000000000000000000000000000000000000000000000000000000000000000000000000000000000000000000000000000000000000000000000000000000000000000000000000000000000000000000000000000000000000000000000000000000000000000000000000000000000000000000000000000000000000000000000000000000000000000000000000000000000000000000000000000000000000000000000000000000000000000000000000000000000000000000000000000000000000000000000000000000000000000000000000000000000000000000000000000000000000000000000000000000000000000000000000000000000000000000000000000000000000000000000000000000000000000000000000000000000000000000000000000000000000000000000000000000000000000000000000000000000000000000000000000000000000000000000000000000000000000000000000000000000000000000000000000000000000000000000000000000000000000000000000000000000000000000000000000000000000000000000000000000000000000000000000000000000000000000000000000000000000000000000000000000000000000000000000000000000000000000000000000000000000000000000000000000000000000000000000000000000000000000000000000000000000000000000000000000000000000000000000000000000000000000000000000000000000000000000000000000000000000000000000000000000000000000000000000000000000000000000000000000000000000000000000000000000000000000000000000000000000000000000000000000000000000000000000000000000000000000000000000000000000000000000000000000000000000000000000000000000000000000000000000000000000000000000000000000000000112100000000000000000000000000000000000000000000000000000000000000000000000000000000000000000000000000000000000000000000000000000000000000000000000000000000000000000000000000000000000000000000000000000000000000000000000000000000000000000000000000000000000000000000000000000000000000000000000000000000000000000000000000000000000000000000000000000000000000000000000000000000000000000000000000000000000000000000000000000000000000000000000000000000000000000000000000000000000000000000000000000000000000000000000000000000000000000000000000000000000000000000000000000000000000000000000000000000000000000000000000000000000000000000000000000000000000000000000000000000000000000000000000000000000000000000000000000000000000000000000000000000000000000000000000000000000000000000000000000000000000000000000000000000000000000000000000000000000000000000000000000000000000000000000000000000000000000000000000000000000000000000000000000000000000000000000000000000000000000000
