This file was generated by Ched 2.7.0.0.
#TITLE ""
#ARTIST ""
#DESIGNER ""
#DIFFICULTY 0
#PLAYLEVEL
#SONGID ""
#WAVE ""
#WAVEOFFSET 0
#JACKET ""
#REQUEST "ticks_per_beat 480"
#00002: 4
#BPM01: 192
#00008: 01
#TIL00: ""
#VOLUME: ""
#HISPEED 00
#MEASUREHS 00
#00514:14
#00618:14
#00712:14
#0081a:14
#00914:14
#01018:14
#01112:14
#0121a:14
#01312:14
#01412:14
#01518:14
#01618:14
#01714:14
#01814:14
#0191a:14
#0201a:14
#02112:14
#02110:41
#02218:14
#0251a:14
#02614:14
#02912:14
#03018:14
#03114:14
#0321a:14
#03312:14
#03418:14
#03712:0016
#03718:26
#03710:41
#03918:16
#03912:0016
#04112:16
#04118:0016
#03818:16
#03812:0016
#04312:16
#04318:0016
#04212:16
#04218:0016
#04512:0016
#04518:16
#04718:16
#04712:0016
#04618:16
#04612:0016
#04912:1616
#04910:41
#05018:1616
#05112:1616
#05218:1616
#05818:14
#05914:14
#0601a:14
#06112:14
#06218:14
#06314:14
#06310:41
#0641a:14
#07314:14
#07418:2616
#0741f:21
#07410:0041
#07618:16
#07612:0016
#07512:1616
#07812:1616
#08012:16
#08018:0016
#07918:1616
#08218:1616
#08418:16
#08412:0016
#08312:1616
#09012:16
#09218:16
#08612:16
#08610:41
#08718:16
#08812:16
#08918:16
#0951a:14
#09614:14
#09718:14
#09812:14
#0991a:14
#10014:14
#10118:14
#0651f:11
#0041a:24
#05712:24
#09412:24
#09258:56
#09052:56
#0003a0:14
#0013a0:24
#002320:14
#003320:24
#023320:14
#024320:24
#0273a0:14
#0283a0:24
#035340:14
#036340:24
#040380:1626
#044320:1626
#048380:1626
#053320:16
#054320:0024
#055380:16
#0563a0:0024
#065320:14
#066340:24
#0673a0:14
#068380:24
#069340:14
#070320:24
#071380:14
#0723a0:24
#077380:1626
#081320:1626
#085380:1626
#090320:16
#091320:0024
#092380:16
#0933a0:0024
#102320:14
#103320:34
#104320:34
#105320:24
