This file was generated by Ched 2.7.0.0.
#TITLE ""
#ARTIST ""
#DESIGNER ""
#DIFFICULTY 0
#PLAYLEVEL
#SONGID ""
#WAVE ""
#WAVEOFFSET 0
#JACKET ""
#REQUEST "ticks_per_beat 480"
#00002: 4
#BPM01: 192
#00008: 01
#TIL00: ""
#VOLUME: ""
#HISPEED 00
#MEASUREHS 00
#0651f:11
#0651b:00000013
#06516:00140000
#06515:53000013
#06512:0013
#0651a:14
#09812:16
#09815:00001313
#09818:00240024
#1011b:13
#10115:00130000
#10114:000000005300001400140014
#10118:000000530000140014001400
#10112:0053
#10113:000000000053000000000000
#1011a:005300000000000000000000
#10119:005300000000
#06112:14
#06115:00001313
#06118:00240024
#04112:13
#0411b:1313
#04118:000013000000000000130013
#04115:000000130000000013000000
#07815:000014000000000000140014
#07812:1424
#07817:000000140000000014000000
#0781a:24
#04313:00140000
#04312:14
#04314:000000000000000000000014
#04319:000000000014000000000000
#0431a:001400000000
#0441b:000000130013000000000000
#04412:000000000013000000000000
#04417:000000000000000000000014
#07915:000000000000000000140014
#07917:000000130000000000000000000000001400000000000000
#0791a:24
#09718:000000000000000013000013
#09712:1313
#09714:00240024
#09312:140013
#09313:0014
#0931a:0014
#09316:00000015
#09315:00140000
#0851a:000000000000000000130013
#08513:000000131300
#08512:14140000
#08516:260000000013
#08517:000000260000001300000000
#08314:13131313
#0831a:00000024
#08319:0024
#08318:00240000
#08317:24
#07619:000000000013000000000000
#07617:001300000000
#0761b:000013
#07612:240000000000000000000024
#07616:0024
#07614:00240000
#0741a:001400001400
#07417:000000000014000000000014
#0741f:21
#07412:00240024
#07415:2424
#07410:0041
#07518:001300000000
#0751a:000000000000000000000014
#07515:24000014
#07517:000014
#04714:00140000
#04712:140000000000000000000013
#04719:000000000013000000000000
#04717:001300000000
#0471b:000000000000000000130013
#04716:0014
#04617:000014000000000000000014
#04615:00000014
#0461a:000014
#04612:001400000000
#0451a:001400001400
#04515:00140014
#04517:000000000014000000000014
#04512:2424
#0401a:000000000014000000000000
#04016:001400000013000000000000
#04018:00140000
#04012:001300000000000000000000
#04014:00130000
#04019:0034
#04015:0033
#0391a:140000000000000000000014
#03916:000013000000140000000013
#03918:00140000
#03914:000000000013000000000000
#03912:000023
#03815:000014000000000000000014
#03817:00000014
#03812:000014
#0381a:001400000000
#03712:001400001400
#03717:00140014
#03715:000000000014000000000014
#0371a:2424
#03710:41
#0771b:000000130000001300000000
#07719:0013
#07717:000000000013000000000000
#07716:000000140000001400000000
#07714:0014
#07712:000000000014000000000000
#08112:000000130013000000000000
#0811b:000000000013000000000000
#08016:000000000000000000000014
#08013:000000000014000000000000
#08015:001400000000
#08018:00240000
#0801a:24
#06315:130000000000130013000013
#06312:00130000
#06318:00240024
#06310:41
#06418:1353
#06415:0013
#06412:00240053
#0641a:000053005300000000240000
#06419:005300000053000000000000
#0641b:00530000
#06414:000000000000005300000053
#06413:000000005353
#05414:14
#05412:0014
#05416:0014
#05418:14
#05515:14
#06012:2414
#06015:00140000
#04818:00000000130000001413000000000000
#04815:00000000130000000013000000000000
#0481a:0000001400000000
#04812:0000001400000000
#04814:0014
#03414:00130013
#03419:000013000000000000130000
#03416:0014
#02715:130000000013000013000000
#02712:001300000000
#02717:000000000000000000000013
#0271b:1313
#02718:00130000
#02816:00130000
#0281b:00130000
#02819:000000000013000000000000
#02814:000000000013000000000000
#02812:13
#02318:130000000013000013000000
#0231b:001300000000
#02316:000000000000000000000013
#02312:1313
#02315:00130000
#02618:00130000
#02613:001400000000
#02619:13
#02514:240000000000000000000014
#02518:000000000013000000000000
#02519:001300000000
#02513:00140000
#02512:0014
#02517:000013
#02417:00130000
#02412:00130000
#02414:000000000013000000000000
#02419:000000000013000000000000
#0241b:13
#01115:000000130000000000130013
#01118:005400000054000013001300
#01112:0013
#01117:1454
#01119:005454000000
#0111a:00540000
#00814:00000013
#00817:14
#00819:00000013
#00816:0013
#00917:130013000013000000000000
#00912:130000000013000000000000
#0101b:130000131300
#01015:130000131300
#01018:00130000
#01012:000000130000000000000013
#00419:00000013
#00415:14
#00414:00000013
#00417:0013
#0041a:24
#00516:130013000013000000000000
#0051b:130000000013000000000000
#00612:130000131300
#00618:130000131300
#00615:00130000
#0061b:00130000
#03013:00321232
#03016:12
#03019:00120012
#0301b:0012
#07219:000000151500
#07217:13130000
#07212:540000252500
#07112:24141400
#0711a:14005414
#07113:000000000000005400000054
#07114:000000005454
#07115:00000054
#07119:005400000054000000000000
#07118:005454000000
#07117:00540000
#0071a:2414
#00717:00140000
#10213:0012
#10216:00000012
#1021b:1252
#09612:1313
#09618:130000000000130013000013
#0961b:00130000
#09614:00240024
#09418:26001313
#09412:25
#09414:00240024
#0951b:130013000013000000000000
#09514:00240024
#10015:130000000000130013000013
#1001b:1313
#10012:00130000
#10018:00240024
#09912:130013000013000000000000
#09918:00240024
#09115:15
#0911b:23000023
#09118:000000000023000000000000
#0841a:14141414
#08412:00000025
#08413:0025
#08414:00250000
#08415:25
#08218:13131313
#08212:00000023
#08213:0023
#08214:00230000
#08215:23
#07016:00000013
#07014:0013
#07012:00130000
#07015:13
#06712:1313
#0671b:13130000
#06718:00000013
#06715:000000000000000000000013
#06618:13000013
#06612:14000013
#0661b:0013
#06616:00140000
#06212:130013000013000000000000
#06218:00240024
#04917:2414
#0491a:00140014
#04910:41
#05015:0014
#05012:00140014
#0511a:00140000
#05112:00000014
#05718:00001313
#0571a:24
#05712:24
#05714:00240024
#0581b:130013000013000000000000
#05814:00240024
#05918:130000131300
#0591b:00130000
#05914:00240024
#05618:00000013
#05615:00000013
#0561a:14
#0521a:00000014
#05212:0014
#05213:000000000000005400000054
#05214:000000005454
#05215:00000054
#04212:0013000000000000
#04218:000000000000000000130013
#04215:130013
#03315:0013
#0331b:000000130000000000000013
#03318:2313
#03312:000000130000000033000000
#03212:0013
#03215:13
#03219:00130013
#0321b:0013
#03213:00330033
#0311b:0013
#03118:130000000000000000000033
#03114:00130013
#03112:0013
#0311a:000000330000000033000000
#02915:00120012
#02913:0012
#0291b:000000320000120032000000
#02918:12
#02919:000000000000000000000032
#02115:000000000013000000000000
#02114:001300000000
#02119:00140000
#0211a:0014
#02116:000013
#02118:240000000000000000000024
#02110:41
#02014:000000000000140014000014
#02018:000000000000001400140000
#02015:13
#02016:00130000
#01913:0013
#01914:00000013
#01912:00130000
#01817:13
#01819:0013
#01818:00130000
#0181a:00000024
#01719:0013
#01718:00000013
#0171a:00130000
#01615:00130000
#01614:0013
#01616:13
#01612:00000024
#01515:00000013
#01514:0013
#01513:00130000
#01417:13
#01419:0013
#01418:00130000
#0141a:00000024
#01319:0013
#0131b:13
#0131b:12
#01318:00000013
#0131a:00130000
#0691b:00130000
#06918:13
#10418:000000120000000012000012
#10415:0012
#1041b:12
#10318:00000012
#10316:000012000012000000000000
#10319:12
#07318:00000016
#07315:23232300
#0531a:0014
#05316:24
#05312:64
#03615:13
#03618:13
#0361a:000000242400
#03612:000000242400
#03512:00000013
#0351b:23000013
#03518:0013
#03515:0013
#0031a:00000014
#00318:23232300
#00314:000052520000520000620000
#00212:120000525200
#00214:000000520000000000000052
#0001c:120000525200
#0001a:000000520000000000000052
#0921a:24
#09012:24
#0901a:24
#0891a:24636200
#08916:00002222
#08818:24636200
#08715:24636200
#01216:00000022
#01218:000000000022000000000000
#0121a:22
#02216:0023
#02215:00230000
#02214:23
#0221a:000000000024000000000000
#02219:002400000000
#08612:24636200
#08610:41
#0011a:000052520000520000520000
#04358:000000000000000000000014
#04354:000000000000000000000054
#07552:000000000013000000000000
#0755b:000000000013000000000000
#07555:54
#07558:005300000000
#04655:000000000014000000000000
#0465a:000000000014000000000000
#04652:005400000000
#04657:005400000000
#04052:002300000000000014000000
#04057:000014
#0405a:000000000024000000000000
#04056:002400000023000000000000
#04058:00540000
#04054:00530000
#03857:000000000014000000000000
#03852:000000000014000000000000
#0385a:006400000000
#03855:006400000000
#0775a:000014
#07755:000014
#0775b:000000630000002300000000
#07759:0063
#07757:000000000023000000000000
#07756:000000640000002400000000
#07754:0064
#07752:000000000024000000000000
#08052:000000000000000000000014
#08056:000000000000000000000064
#07952:000000000014000000000000
#0795a:540000000014000000000000
#07957:0023000000000000
#04858:000000000000000000000000630000000000000000000000640000230000000045000000000000000000000000000000
#04853:000035
#04855:00000000530000000023000000000000
#0485a:0000002400000000
#04852:0000002400000000
#04854:0054
#0615a:14
#06152:14
#04258:000000000013000000000000
#04255:530000000013000000000000
#04252:0023000000000000
#02857:000013
#02852:530013
#02856:00230000
#0285b:00230000
#02859:000000000063000000000000
#02854:000000000063000000000000
#02652:000014
#02657:000013
#09458:46
#09452:45
#07058:13
#07056:00000023
#07054:0053
#07052:00230000
#07055:63
#07152:34
#06955:13
#0695b:00230000
#06958:63
#02456:000013
#0245b:630013
#02457:00230000
#02452:00230000
#02454:000000000053000000000000
#02459:000000000053000000000000
#05752:14
#0575a:14
#0225a:000014
#02256:000013
#02059:00140000
#00852:14
#00857:64
#09252:14
#05559:45
#05555:64
#05352:14
#05356:54
#0535a:0024
#06555:13
#06556:00240000
#0655a:64
#07652:000000000000000000000054
#0765b:000063
#03952:000053
#0395a:000000000000000000000054
#03956:000000000000640000000053
#08557:00160000
#08556:16
#0835a:00000014
#08359:0014
#08358:00140000
#08357:14
#07455:14
#06052:5454
#06055:00540000
#02158:14
#02156:000053
#0905a:14
#08452:00000015
#08453:0015
#08454:00150000
#08455:15
#08252:00000013
#08253:0013
#08254:00130000
#08255:13
#0045a:14
#00455:54
#0075a:6464
#00757:00640000
#09852:36
#0445b:000000000063000000000000
#04452:000000000063000000000000
#09352:640023
#09353:0054
#0935a:0054
#09356:00000025
#09355:00240000
#08152:000000000053000000000000
#0815b:000000000053000000000000
#07857:00540000
#05454:64
#05452:0024
#05456:0024
#05458:54
#0475b:000000000000000000000063
#04756:0054
#04752:000000000000000000000053
#02757:000000000000000000000053
#02755:000053
#02557:000063
#00952:000000000053000000000000
#00957:000000000053000000000000
#03053:0022
#03056:52
#0955b:000000000053000000000000
#09952:000000000063000000000000
#09155:55
#06752:6363
#0675b:00530000
#06758:00000053
#06755:000000000000000000000063
#06658:13
#06656:00240000
#06652:54
#06252:000000000063000000000000
#02356:000000000000000000000063
#02358:000063
#0585b:000000000053000000000000
#05658:00000023
#05655:00000023
#0565a:54
#04155:00630000
#03355:0053
#03252:0023
#03255:53
#0315b:0023
#03158:63
#0295b:0022
#02958:62
#0055b:000000000063000000000000
#00556:000000000063000000000000
#0135b:13
#09658:000000000000000000000063
#03655:53
#03658:53
#03552:00000023
#0355b:00000023
#03558:0053
#03555:0053
#004350:14
#004320:0023
#0053b0:000013000033000000000000
#005370:00000023
#005361:000000000013000000000000
#005321:00000023
#006321:000000000000000000000014
#008321:24
#0073a0:1434
#007370:00340024
#008370:14
#0083b0:0023
#009320:000013000033000000000000
#009360:00000023
#009371:000000000013000000000000
#0093b1:00000023
#013321:140000000000000000000000000000543654000000000000000000000000000000000000000000543654000000000000000000000000000000000000000000543654000000000000000000000000000000000000000000543654000000000000
#014321:000000000000000000000000000000543654000000000000000000000000000000000000000000543654000000000000000000000000000000000000000000543654000000000000000000000000000000000000000000543654000000000000
#015321:24
#0153a0:140000000000000000000000000000540054000000000000000000000000000000000000000000540054000000000000000000000000000000000000000000540054000000000000000000000000000000000000000000540054000000000000
#015380:000036000036000036000036
#0163a0:000000000000000000000000000000540054000000000000000000000000000000000000000000540054000000000000000000000000000000000000000000540054000000000000000000000000000000000000000000540054000000000000
#016380:000036000036000036000036
#0173a0:24
#017321:140000000000000000000000000000543600000000000000000000000000000000000000000000003654000000000000000000000000000000000000000000543600000000000000000000000000000000000000000000003654000000000000
#017331:000000000000000000000000000000000054000000000000000000000000000000000000000000540000000000000000000000000000000000000000000000000054000000000000000000000000000000000000000000540000000000000000
#018321:000000000000000000000000000000543600000000000000000000000000000000000000000000003654000000000000000000000000000000000000000000543600000000000000000000000000000000000000000000003654000000000000
#018331:000000000000000000000000000000000054000000000000000000000000000000000000000000540000000000000000000000000000000000000000000000000054000000000000000000000000000000000000000000540000000000000000
#019321:24
#0193a0:140000000000000000000000000000540000000000000000000000000000000000000000000000000054000000000000000000000000000000000000000000540000000000000000000000000000000000000000000000000054000000000000
#019380:000036000036000036000036
#019390:000000000000000000000000000000000054000000000000000000000000000000000000000000540000000000000000000000000000000000000000000000000054000000000000000000000000000000000000000000540000000000000000
#0203a0:0000000000540000000000000000000000000000000000000000000000000000
#020380:003600000000
#020390:000000000000000000000000000000000054000000000000240000000000000000000000000000000000000000000000000000000000000000000000000000000000000000000000000000000000000000000000000000000000000000000000
#021360:000013
#021320:000000000000000000000023
#0223a0:000000000014000024000000
#022361:000000132300
#023381:000013
#0233b1:000000000000000000000023
#023360:000000000000000000000013
#024320:00330000
#024340:000000000033000000000000
#024360:000000000000005323000000
#0243b1:130000000000005323000000
#024371:00330000
#024391:000000000033000000000000
#025371:000013
#0253b1:000000000000000000000023
#026321:000000000014000024000000
#026370:000000132300
#027350:000013
#027320:000000000000000000000023
#027371:000000000000000000000013
#0283b1:00330000
#028391:000000000033000000000000
#028371:000000000000005323000000
#028320:130000000000005323000000
#028360:00330000
#028340:000000000033000000000000
#029380:12
#0293b0:000000320000320032000000
#029390:000000000000000000000032
#030380:22
#030361:12
#030331:00323232
#031361:22
#031380:130000000000000000000033
#0313a0:000000330000000033000000
#0313b0:0033
#032380:23
#032351:13
#032331:00330033
#032321:0033
#033351:23
#033351:0013
#033321:000000000000000033000023
#0353b1:13000053
#035381:0053
#036381:53
#0363b1:00230000
#035320:13000053
#035350:0053
#036350:53
#036320:00230000
#0383a0:143400000000
#038370:000000000024000000000000
#038351:001400000000
#038321:000000000024000000000000
#039361:0014
#0393a1:000000000000000000000034
#040361:005400000000000000000000
#040381:00340000
#0403a1:000000000054000000000000
#040391:0034
#040371:000024
#039320:000013
#039360:000000000000000000000033
#040320:005300000000000024000000
#040340:00330000
#040360:000000000053000000000000
#040350:0033
#041350:00130000
#041320:0023
#042350:130000330023000000000000
#042320:0053000000000000
#042381:000000130023000000000000
#043341:000000000000140000000034
#044321:000000530033000000000000
#044351:00000023
#043380:000000000000000014000024
#0443b0:000000000013000000000000
#044380:00000023
#046320:143400000000
#046350:000000000024000000000000
#046371:001400000000
#0463a1:000000000024000000000000
#047361:0014
#047321:000000000000000000000033
#048351:00000000330000000053000000000000
#048321:0000005400000000
#048341:0034
#048331:000025
#0473b0:000000000000000000000013
#048380:000000000000000000000000330000000000000000000000340000530000000025000000000000000000000000000000
#0483a0:0000005400000000
#049320:1434
#049350:00340034
#050320:24
#0503a1:1434
#050371:00340034
#0513a1:24
#051320:1424
#051350:00340000
#0513a1:0014
#051371:00000034
#0523a1:24
#052320:14
#052350:00240000
#0523a1:00140000
#052371:0024
#053361:14
#0533a1:0054
#054381:54
#054361:0054
#055391:25
#054340:14
#054320:0054
#055350:54
#055360:005400000000
#056360:24
#0563a1:14
#056381:00003353
#0573a1:24
#056350:00001353
#057320:24
#0583b0:000000000013000000000000
#058380:00000023
#0593a0:000000000000000000000014
#0613a0:24
#060321:1434
#060351:00340024
#062320:000000000013000000000000
#062350:00000023
#0653a0:1424
#065360:00540000
#066320:1424
#066360:00540000
#067320:13
#067350:00230000
#0673b1:00130000
#067381:0023
#067320:0013
#067350:00000023
#067381:00000013
#0683b1:00230000
#067350:000000000000000000000013
#068320:00230000
#068380:0013
#069380:3323
#0693b0:00530000
#068351:00000013
#069351:23
#069351:0013
#070351:33
#070321:00530000
#070341:0053
#070361:00000053
#071321:24
#069380:00000013
#070380:23
#075351:14
#075321:000000000023000000000000
#075380:001300000000
#0753b0:000000000023000000000000
#0763b0:000013
#076370:000000000000000000000023
#076321:000000000000000000000014
#077361:000000340000005400000000
#077321:000000000054000000000000
#077341:0034
#077351:000024
#0773b0:000000130000005300000000
#077370:000000000053000000000000
#077390:0033
#0773a0:000024
#078370:00140000
#0783b0:0023
#0793a0:140000340024000000000000
#079370:0053000000000000
#079321:000000140024000000000000
#080361:000000000000140000000034
#0813b1:000000530033000000000000
#081381:00000023
#080320:000000000000000014000024
#081320:000000000013000000000000
#081350:00000023
#090320:1400005400005400005400000054000000000000000000000000000000000000000000000000000000000000000000000000000000000000000000000000000000000000000000000000000000000000000000000000000000000000000000000000000000000000000000000000000000000000000000000000000000000000
#090330:0054000000540054000000540000000054005400000000000000000000000000000000000000000000000000000000000000000000000000000000000000000000000000000000000000000000000000000000000000000000000000000000000000000000000000000000000000000000000000000000000000000000000000
#090340:0000000000000000000054005400540000000054545400540054005400000000000000000000000000000000000054000000000000000000000000000054000000000054000000000000000000000000000000000000000000000000000000000000000000000000000000000000000000000000000000000000000000000000
#090350:0000000000000000000000000000000000540000000054005400000000005400540000540054000000540000540000005400540054005400540054000000005400540000005400000054005400540054005400540054005400540054005400540054005400540000540054005400540054005400540054005400540054005400
#090360:0000000000000000000000000000000000000000000000000000540054000054005400005400005400000054005400540054005400540054005400005400540054005400540000540000540054005400540054005400540054005400540054005400540054000054005400540054005400540054005400540054005400540054
#091350:35
#091320:000000000054000000000000
#092320:24
#0923a1:1400005400005400005400000054000000000000000000000000000000000000000000000000000000000000000000000000000000000000000000000000000000000000000000000000000000000000000000000000000000000000000000000000000000000000000000000000000000000000000000000000000000000000
#092391:0054000000540054000000540000000054005400000000000000000000000000000000000000000000000000000000000000000000000000000000000000000000000000000000000000000000000000000000000000000000000000000000000000000000000000000000000000000000000000000000000000000000000000
#092381:0000000000000000000054005400540000000054545400540054005400000000000000000000000000000000000054000000000000000000000000000054000000000054000000000000000000000000000000000000000000000000000000000000000000000000000000000000000000000000000000000000000000000000
#092371:0000000000000000000000000000000000540000000054005400000000005400540000540054000000540000540000005400540054005400540054000000005400540000005400000054005400540054005400540054005400540054005400540054005400540000540054005400540054005400540054005400540054005400
#092361:0000000000000000000000000000000000000000000000000000540054000054005400005400005400000054005400540054005400540054005400005400540054005400540000540000540054005400540054005400540054005400540054005400540054000054005400540054005400540054005400540054005400540054
#093361:24
#093320:140053
#093350:00540000
#093330:0054
#094320:25
#0933a1:0014
#093361:00000055
#094381:26
#0953b1:000000000013000000000000
#095381:00000023
#096381:000000000000000000000013
#0973b1:0023
#099321:000000000013000000000000
#099351:00000023
#0009c0:120000525200
#0009a0:000000520000000000000052
#0019a0:000052520000000000220000
#002920:120000525200
#002940:000000520000000000000052
#003940:000052520000000000220000
#011970:1424
#0119a0:00540000
#052920:000000000000000000000000000000000000000000000000000000000000000000000000000000000000000000000000000000000000000000000000000000000000000000000000000000000000000000000000000000000000000000000000000000000000000000000000000000000000000000000000000000000000000000000000000000000000000000000000000000000000000000000000000000000000000000000000000000000000000000000000000000000000000000000000000000000000000000000000000000000000000000000000000000000000000000000000000000000000000000000000000000000000000000000000000000000000000000000000000000000000000000000000000000000000000000000000000000000000000000000000000000000000000000000000000000000000000000000000000000000000000000000000000000000000000000000000000000000000000000000000000000000000000000000000000000000000000000000000000000000000000000000000000000000000000000000000000000000000000000000000000000000000000000000000000000000000000000000000000000000000000000000000000000000000000000000000000000000000000000000000000000000000000000000000000000000000000000000000000000000000000000000000000000000000000000000000000000000000000000000000000000000000000000000000000000000000000000000000000000000000000000000000000000000000000000000000000000000000000000000000000000000000000000000000000000000000000000000000000000000000000000000000000000000000000000000000000000000000000000000000000000000000000000000000000000000000000000000000000000000000000000000000000000000000000000000000000000000000000000000000000000000000000000000000000000000000000000000000000000000000000000000000000000000000000000000000000000000000000000000000000000000000000000000000000000000000000000000000000000000000000000000000000000000000000000000000000000000000000000000000000000000000000000000000000000000000000000000000000000000000000000000000000000000000000000000000000000000000000000000000000000000000000000000000000000000000000000000000000000000000000000000000000000000000000000000000000000000000000000000000140000000000000000000000000000000000000000000000000000000000000000000000000000000000000000000000000000000000000000000000000000000000000000000000000000000000000000000000000000000000000000000000000000000000000000000000000000000000000000000000000000000000000000000000000000000000000000000000000000000000000000000000000000000000000000000000000000000000000000000000000000000000000000000000000000000000000000000000000000000000000000000000000000000000000000000000000000000000000000000000000000000000000000000000000000000000000000000000000000000000000000000000000000000000000000000000000000000000000000000000000000000000000000000000000000000000000000000000000000000000000000000000000000000000000000000000000000000000000000000000000000000000000000000000000000000000000000000000000000000000000000000000000000000000000000000000000000000000000000000000000000000000000000000000000000000000000000000000000000000000000000000000000000000000000000000000000000000000000000000000000000000000000000000000000000000000000000000000000000000000000000000000000000000000000000000000000000000000000000000000000000000000000000000000000000000000000000000000000000000000000000000000000000000000000000000000000000000000000000000000000000000000000000000000000000000000000000000000000000000000000000000000000000000000000000000000000000000000000000000000000000000000000000000000000000000000000000000000000000000000000000000000000000000000000000000000000000000000000000000000000000000000000000000000000000000000000000000000000000000000000000000000000000000000000000000000000000000000000000000000000000000000000000000000000000000000000000000000000000000000000000000000000000000000000000000000000000000000000000000000000000000000000000000000000000000000000000000000000000000000000000000000000000000000000000000000000000000000000000000000000000000000000000000000000000000000000000000000000000000000000000000000000000000000000000000000000000000000000000545454
#052950:00000054
#053920:24
#064980:1323
#0649b0:00530000
#064951:0013
#064921:00000053
#065951:23
#0719a1:1424
#071971:00540000
#071920:0014
#071950:00000054
#072920:24
#086920:140000000000000000000000000000000000000000000000000000000000000000000000000000000000000000000000000000000000000000000000000000000000000000000000000000000000000000000000000000000000000000000000000000000000000000000000000000000000000000000000000000000000000000000000000000000000000000000000000000000000000000000000000000000000000000000000000000000000000000000000000000000000000000000000000000000000000000000000000000000000000000000000000000000000000000000000000000000000000000000000000000000000000000000000000000000000000000000000000000000000000000000000000000000000000000000000000000000000000000000000000000000000000000000000000000000000000000000000000000000000000000000000000000000000000000000000000000000000000000000000000000000000000000000000000000000000000000000000000000000000000000000000000000000000000000000000000000000000000000000000000000000000000000000000000000000000000000000000000000000000000000000000000000000000000000000000000000000000000000000000000000000000000000000000000000000000000000000000000000000000000000000000000000000000000000000000000000000000000000000000000000000000000000000000000000000000000000000000000000000000000000000000000000000000000000000000000000000000000000000000000000000000000000000000000000000000000000000000000000000000000000000000000000000000000000000000000000000000000000000000000000000000000000000000000000000000000000000000000000000000000000000000000000000000000000000000000000000000000000000000000000000000000000000000000000000000000000000000000000000000000000000000000000000000000000000000000000000000000000000000000000000000000000000000000000000000000000000000000000000000000000000000000000000000000000000000000000000000000000000000000000000000000000000000000000000000000000000000000000000000000000000000000000000000000000000000000000000000000000000000000000000000000000000000000000000000000000000000000000000000000000000000000000000000000000000000000000000000000000005252220000000000000000000000000000000000000000000000000000000000000000000000000000000000000000000000000000000000000000000000000000000000000000000000000000000000000000000000000000000000000000000000000000000000000000000000000000000000000000000000000000000000000000000000000000000000000000000000000000000000000000000000000000000000000000000000000000000000000000000000000000000000000000000000000000000000000000000000000000000000000000000000000000000000000000000000000000000000000000000000000000000000000000000000000000000000000000000000000000000000000000000000000000000000000000000000000000000000000000000000000000000000000000000000000000000000000000000000000000000000000000000000000000000000000000000000000000000000000000000000000000000000000000000000000000000000000000000000000000000000000000000000000000000000000000000000000000000000000000000000000000000000000000000000000000000000000000000000000000000000000000000000000000000000000000000000000000000000000000000000000000000000000000000000000000000000000000000000000000000000000000000000000000000000000000000000000000000000000000000000000000000000000000000000000000000000000000000000000000000000000000000000000000000000000000000000000000000000000000000000000000000000000000000000000000000000000000000000000000000000000000000000000000000000000000000000000000000000000000000000000000000000000000000000000000000000000000000000000000000000000000000000000000000000000000000000000000000000000000000000000000000000000000000000000000000000000000000000000000000000000000000000000000000000000000000000000000000000000000000000000000000000000000000000000000000000000000000000000000000000000000000000000000000000000000000000000000000000000000000000000000000000000000000000000000000000000000000000000000000000000000000000000000000000000000000000000000000000000000000000000000000000000000000000000000000000000000000000000000000000000000000000000000000000000000000000000000000000000000000000
#087950:140000000000000000000000000000000000000000000000000000000000000000000000000000000000000000000000000000000000000000000000000000000000000000000000000000000000000000000000000000000000000000000000000000000000000000000000000000000000000000000000000000000000000000000000000000000000000000000000000000000000000000000000000000000000000000000000000000000000000000000000000000000000000000000000000000000000000000000000000000000000000000000000000000000000000000000000000000000000000000000000000000000000000000000000000000000000000000000000000000000000000000000000000000000000000000000000000000000000000000000000000000000000000000000000000000000000000000000000000000000000000000000000000000000000000000000000000000000000000000000000000000000000000000000000000000000000000000000000000000000000000000000000000000000000000000000000000000000000000000000000000000000000000000000000000000000000000000000000000000000000000000000000000000000000000000000000000000000000000000000000000000000000000000000000000000000000000000000000000000000000000000000000000000000000000000000000000000000000000000000000000000000000000000000000000000000000000000000000000000000000000000000000000000000000000000000000000000000000000000000000000000000000000000000000000000000000000000000000000000000000000000000000000000000000000000000000000000000000000000000000000000000000000000000000000000000000000000000000000000000000000000000000000000000000000000000000000000000000000000000000000000000000000000000000000000000000000000000000000000000000000000000000000000000000000000000000000000000000000000000000000000000000000000000000000000000000000000000000000000000000000000000000000000000000000000000000000000000000000000000000000000000000000000000000000000000000000000000000000000000000000000000000000000000000000000000000000000000000000000000000000000000000000000000000000000000000000000000000000000000000000000000000000000000000000000000000000000000000000000005252220000000000000000000000000000000000000000000000000000000000000000000000000000000000000000000000000000000000000000000000000000000000000000000000000000000000000000000000000000000000000000000000000000000000000000000000000000000000000000000000000000000000000000000000000000000000000000000000000000000000000000000000000000000000000000000000000000000000000000000000000000000000000000000000000000000000000000000000000000000000000000000000000000000000000000000000000000000000000000000000000000000000000000000000000000000000000000000000000000000000000000000000000000000000000000000000000000000000000000000000000000000000000000000000000000000000000000000000000000000000000000000000000000000000000000000000000000000000000000000000000000000000000000000000000000000000000000000000000000000000000000000000000000000000000000000000000000000000000000000000000000000000000000000000000000000000000000000000000000000000000000000000000000000000000000000000000000000000000000000000000000000000000000000000000000000000000000000000000000000000000000000000000000000000000000000000000000000000000000000000000000000000000000000000000000000000000000000000000000000000000000000000000000000000000000000000000000000000000000000000000000000000000000000000000000000000000000000000000000000000000000000000000000000000000000000000000000000000000000000000000000000000000000000000000000000000000000000000000000000000000000000000000000000000000000000000000000000000000000000000000000000000000000000000000000000000000000000000000000000000000000000000000000000000000000000000000000000000000000000000000000000000000000000000000000000000000000000000000000000000000000000000000000000000000000000000000000000000000000000000000000000000000000000000000000000000000000000000000000000000000000000000000000000000000000000000000000000000000000000000000000000000000000000000000000000000000000000000000000000000000000000000000000000000000000000000000000000000000000000000
#088980:140000000000000000000000000000000000000000000000000000000000000000000000000000000000000000000000000000000000000000000000000000000000000000000000000000000000000000000000000000000000000000000000000000000000000000000000000000000000000000000000000000000000000000000000000000000000000000000000000000000000000000000000000000000000000000000000000000000000000000000000000000000000000000000000000000000000000000000000000000000000000000000000000000000000000000000000000000000000000000000000000000000000000000000000000000000000000000000000000000000000000000000000000000000000000000000000000000000000000000000000000000000000000000000000000000000000000000000000000000000000000000000000000000000000000000000000000000000000000000000000000000000000000000000000000000000000000000000000000000000000000000000000000000000000000000000000000000000000000000000000000000000000000000000000000000000000000000000000000000000000000000000000000000000000000000000000000000000000000000000000000000000000000000000000000000000000000000000000000000000000000000000000000000000000000000000000000000000000000000000000000000000000000000000000000000000000000000000000000000000000000000000000000000000000000000000000000000000000000000000000000000000000000000000000000000000000000000000000000000000000000000000000000000000000000000000000000000000000000000000000000000000000000000000000000000000000000000000000000000000000000000000000000000000000000000000000000000000000000000000000000000000000000000000000000000000000000000000000000000000000000000000000000000000000000000000000000000000000000000000000000000000000000000000000000000000000000000000000000000000000000000000000000000000000000000000000000000000000000000000000000000000000000000000000000000000000000000000000000000000000000000000000000000000000000000000000000000000000000000000000000000000000000000000000000000000000000000000000000000000000000000000000000000000000000000000000000000000000000000005252220000000000000000000000000000000000000000000000000000000000000000000000000000000000000000000000000000000000000000000000000000000000000000000000000000000000000000000000000000000000000000000000000000000000000000000000000000000000000000000000000000000000000000000000000000000000000000000000000000000000000000000000000000000000000000000000000000000000000000000000000000000000000000000000000000000000000000000000000000000000000000000000000000000000000000000000000000000000000000000000000000000000000000000000000000000000000000000000000000000000000000000000000000000000000000000000000000000000000000000000000000000000000000000000000000000000000000000000000000000000000000000000000000000000000000000000000000000000000000000000000000000000000000000000000000000000000000000000000000000000000000000000000000000000000000000000000000000000000000000000000000000000000000000000000000000000000000000000000000000000000000000000000000000000000000000000000000000000000000000000000000000000000000000000000000000000000000000000000000000000000000000000000000000000000000000000000000000000000000000000000000000000000000000000000000000000000000000000000000000000000000000000000000000000000000000000000000000000000000000000000000000000000000000000000000000000000000000000000000000000000000000000000000000000000000000000000000000000000000000000000000000000000000000000000000000000000000000000000000000000000000000000000000000000000000000000000000000000000000000000000000000000000000000000000000000000000000000000000000000000000000000000000000000000000000000000000000000000000000000000000000000000000000000000000000000000000000000000000000000000000000000000000000000000000000000000000000000000000000000000000000000000000000000000000000000000000000000000000000000000000000000000000000000000000000000000000000000000000000000000000000000000000000000000000000000000000000000000000000000000000000000000000000000000000000000000000000000000000000000000
#0899a0:140000000000000000000000000000000000000000000000000000000000000000000000000000000000000000000000000000000000000000000000000000000000000000000000000000000000000000000000000000000000000000000000000000000000000000000000000000000000000000000000000000000000000000000000000000000000000000000000000000000000000000000000000000000000000000000000000000000000000000000000000000000000000000000000000000000000000000000000000000000000000000000000000000000000000000000000000000000000000000000000000000000000000000000000000000000000000000000000000000000000000000000000000000000000000000000000000000000000000000000000000000000000000000000000000000000000000000000000000000000000000000000000000000000000000000000000000000000000000000000000000000000000000000000000000000000000000000000000000000000000000000000000000000000000000000000000000000000000000000000000000000000000000000000000000000000000000000000000000000000000000000000000000000000000000000000000000000000000000000000000000000000000000000000000000000000000000000000000000000000000000000000000000000000000000000000000000000000000000000000000000000000000000000000000000000000000000000000000000000000000000000000000000000000000000000000000000000000000000000000000000000000000000000000000000000000000000000000000000000000000000000000000000000000000000000000000000000000000000000000000000000000000000000000000000000000000000000000000000000000000000000000000000000000000000000000000000000000000000000000000000000000000000000000000000000000000000000000000000000000000000000000000000000000000000000000000000000000000000000000000000000000000000000000000000000000000000000000000000000000000000000000000000000000000000000000000000000000000000000000000000000000000000000000000000000000000000000000000000000000000000000000000000000000000000000000000000000000000000000000000000000000000000000000000000000000000000000000000000000000000000000000000000000000000000000000000000000000000000000005252220000000000000000000000000000000000000000000000000000000000000000000000000000000000000000000000000000000000000000000000000000000000000000000000000000000000000000000000000000000000000000000000000000000000000000000000000000000000000000000000000000000000000000000000000000000000000000000000000000000000000000000000000000000000000000000000000000000000000000000000000000000000000000000000000000000000000000000000000000000000000000000000000000000000000000000000000000000000000000000000000000000000000000000000000000000000000000000000000000000000000000000000000000000000000000000000000000000000000000000000000000000000000000000000000000000000000000000000000000000000000000000000000000000000000000000000000000000000000000000000000000000000000000000000000000000000000000000000000000000000000000000000000000000000000000000000000000000000000000000000000000000000000000000000000000000000000000000000000000000000000000000000000000000000000000000000000000000000000000000000000000000000000000000000000000000000000000000000000000000000000000000000000000000000000000000000000000000000000000000000000000000000000000000000000000000000000000000000000000000000000000000000000000000000000000000000000000000000000000000000000000000000000000000000000000000000000000000000000000000000000000000000000000000000000000000000000000000000000000000000000000000000000000000000000000000000000000000000000000000000000000000000000000000000000000000000000000000000000000000000000000000000000000000000000000000000000000000000000000000000000000000000000000000000000000000000000000000000000000000000000000000000000000000000000000000000000000000000000000000000000000000000000000000000000000000000000000000000000000000000000000000000000000000000000000000000000000000000000000000000000000000000000000000000000000000000000000000000000000000000000000000000000000000000000000000000000000000000000000000000000000000000000000000000000000000000000000000000000000000000
#1019b0:13
#101980:000000000000000000000000000000000000000000000000000000000000000000000000000000000000000000000000000000000000000000000000000000000000000000000000000000000000000000000000000000000000000000000000000000000000000000000000000000000000000000000000000000000000000000000000000000000000000000000000000000000000000000000000000000000000000000000000000000000000000000000000000000000000000000000000000000000000000000000000000000000000000000000000000000000000000000000000000000000000000000000000000000000000000000000000000000000000000000000000000000000000000000000000000000000000000000000000000000000000000000000000000000000000000000000000000000000000000000000000000000000000000000000000000000000000000000000000000000000000000000000000000000000000000000000000000000000000000000000000000000000000000000000000000000000000000000000000000000000000000000000000000000000000000000000000000000000000000000000000000000000000000000000000000000000000000000000000000000000000000000535353230000000000000000000000000000000000000000000000000000000000000000000000000000000000000000000000000000000000000000000000000000000000000000000000000000000000000000000000000000000000000000000000000000000000000000000000000000000000000000000000000000000000000000000000000000000000000000000000000000000000000000000000000000000000000000000000000000000000000000000000000000000000000000000000000000000000000000000000000000000000000000000000000000000000000000000000000000000000000000000000000000000000000000000000000000000000000000000000000000000000000000000000000000000000000000000000000000000000000000000000000000000000000000000000000000000000000000000000000000000000000000000000000000000000000000000000000000000000000000000000000000000000000000000000000000000000000000000000000000000000000000000000000000000000000000000000000000000000000000000000000000000000000000000000000000000000000000000000000000000000000000000000000000000000000000000000000000000000000000000000000000000000000000000000000000000000000000000000000000000000000000000000000000000000000000000000000000000000000000000000000000000000000000000000000000000000000000000000000000000000000000000000000000000000000000000000000000000000000000000000000000000000000000000000000000000000000000000000000000000000000000000000000000000000000000000000000000000000000000000000000000000000000000000000000000000000000000000000000000000000000000000000000000000000000000000000000000000000000000000000000000000000000000000000000000000000000000000000000000000000000000000000000000000000000000000000000000000000000000000000000000000000000000000000000000000000000000000000000000000000000000000000000000000000000000000000000000000000000000000000000000000000000000000000000000000000000000000000000000000000000000000000000000000000000000000000000000000000000000000000000000000000000000000000000000000000000000000000000000000000000000000000000000000000000000000000000000000000000000000000000000000000000000000000000000000000000000000000000000000000000000000000000000000000000000000000000000000000000000000000000000000000000000000000000000000000000000000000000000000000000000000000000000000000000000000000000000000000000000000000000000000000000000000000000000000000000000000000000000000000000000000000000000000000000000000000000000000000000000000000000000000000000000000000000000000000000000000000000000000000000000000000000000000000000000000000000000000000000000000000000000000000000000000000000000000000000000000000000000000000000000000000000000000000000000000000000000000000000000000000000000000000000000000000000000000000000000000000000000000000000000000000000000000000000000000000000000000000000000000000000000000000000000000000000000000000000000000000000000000000000000000000000000000000000000000000000000000000000000000000000000000000000000000000000000000000000000000000000000000000000000000000000000000000000000000000000000000000000000000000
#101951:00130000
#101921:000000000000000000000000000000000000000000000000000000000000000000000000000000000000000000000000000000000000000000000000000000000000000000000000000000000000000000000000000000000000000000000000000000000000000000000000000000000000000000000000000000000000000000000000000000000000000000000000000000000000000000000000000000000000000000000000000000000000000000000000000000000000000000000000000000000000000000000000000000000000000000000000000000000000000000000000000000000000000000000000000000000000000000000000000000000000000000000000000000000000000000000000000000000000000000000000000000000000000000000000000000000000000000000000000000000000000000000000000000000000000000000000000000000000000000000000000000000000000000000000000000000000000000000000000000000000000000000000000000000000000000000000000000000000000000000000000000000000000000000000000000000000000000000000000000000000000000000000000000000000000000000000000000000000000000000000000000000000000000000000000000000000000000000000000000000000000000000000000000000000000000000000000000000000000000000000000000000000000000000000000000000000000000000000000000000000000000000000000000000000000000000000000000000000000000000000000000000000000000000000000000000000000000000000000000000000000000000000000000000000000000000000000000000000000000000000000000000000000000000000000000000000000000000000000000000000000000000000000000000000000000000000000000000000000000000000000000000000000000000000000000000000000000000000000000000000000000000000000000000000000000000000000000000000000000000000000000000000000000000000000000000000000000000000000000000000000000000000000000000000000000000000000000000000000000000000000000000000000000000000000000000000000000000000000000000000000000000000000000000000000000000000000000000000000000000000000000000000000000000000000000000000000000000000000000000000000000000000000000000000000000000000000000000000000000000000000000000000000000535353230000000000000000000000000000000000000000000000000000000000000000000000000000000000000000000000000000000000000000000000000000000000000000000000000000000000000000000000000000000000000000000000000000000000000000000000000000000000000000000000000000000000000000000000000000000000000000000000000000000000000000000000000000000000000000000000000000000000000000000000000000000000000000000000000000000000000000000000000000000000000000000000000000000000000000000000000000000000000000000000000000000000000000000000000000000000000000000000000000000000000000000000000000000000000000000000000000000000000000000000000000000000000000000000000000000000000000000000000000000000000000000000000000000000000000000000000000000000000000000000000000000000000000000000000000000000000000000000000000000000000000000000000000000000000000000000000000000000000000000000000000000000000000000000000000000000000000000000000000000000000000000000000000000000000000000000000000000000000000000000000000000000000000000000000000000000000000000000000000000000000000000000000000000000000000000000000000000000000000000000000000000000000000000000000000000000000000000000000000000000000000000000000000000000000000000000000000000000000000000000000000000000000000000000000000000000000000000000000000000000000000000000000000000000000000000000000000000000000000000000000000000000000000000000000000000000000000000000000000000000000000000000000000000000000000000000000000000000000000000000000000000000000000000000000000000000000000000000000000000000000000000000000000000000000000000000000000000000000000000000000000000000000000000000000000000000000000000000000000000000000000000000000000000000000000000000000000000000000000000000000000000000000000000000000000000000000000000000000000000000000000000000000000000000000000000000000000000000000000000000000000000000000000000000000000000000000000000000000000000000000000000000000000000000000000000000000000000000000000000000
#1029b1:120000000000000000000000000000000000000000000000000000000000000000000000000000000000000000000000000000000000000000000000000000000000000000000000000000000000000000000000000000000000000000000000000000000000000000000000000000000000000000000000000000000000000000000000000000000000000000000000000000000000000000000000000000000000000000000000000000000000000000000000000000000000000000000000000000000000000000000000000000000000000000000000000000000000000000000000000000000000000000000000000000000000000000000000000000000000000000000000000000000000000000000000000000000000000000000000000000000000000000000000000000000000000000000000000000000000000000000000000000000000000000000000000000000000000000000000000000000000000000000000000000000000000000000000000000000000000000000000000000000000000000000000000000000000000000000000000000000000000000000000000000000000000000000000000000000000000000000000000000000000000000000000000000000000000000000000000000000000000000000000000000000000000000000000000000000000000000000000000000000000000000000000000000000000000000000000000000000000000000000000000000000000000000000000000000000000000000000000000000000000000000000000000000000000000000000000000000000000000000000000000000000000000000000000000000000000000000000000000000000000000000000000000000000000000000000000000000000000000000000000000000000000000000000000000000000000000000000000000000000000000000000000000000000000000000000000000000000000000000000000000000000000000000000000000000000000000000000000000000000000000000000000000000000000000000000000000000000000000000000000000000000000000000000000000000000000000000000000000000000000000000000000000000000000000000000000000000000000000000000000000000000000000000000000000000000000000000000000000000000000000000000000000000000000000000000000000000000000000000000000000000000000000000000000000000000000000000000000000000000000000000000000000000000000000000000000000000000000000000005252220000000000000000000000000000000000000000000000000000000000000000000000000000000000000000000000000000000000000000000000000000000000000000000000000000000000000000000000000000000000000000000000000000000000000000000000000000000000000000000000000000000000000000000000000000000000000000000000000000000000000000000000000000000000000000000000000000000000000000000000000000000000000000000000000000000000000000000000000000000000000000000000000000000000000000000000000000000000000000000000000000000000000000000000000000000000000000000000000000000000000000000000000000000000000000000000000000000000000000000000000000000000000000000000000000000000000000000000000000000000000000000000000000000000000000000000000000000000000000000000000000000000000000000000000000000000000000000000000000000000000000000000000000000000000000000000000000000000000000000000000000000000000000000000000000000000000000000000000000000000000000000000000000000000000000000000000000000000000000000000000000000000000000000000000000000000000000000000000000000000000000000000000000000000000000000000000000000000000000000000000000000000000000000000000000000000000000000000000000000000000000000000000000000000000000000000000000000000000000000000000000000000000000000000000000000000000000000000000000000000000000000000000000000000000000000000000000000000000000000000000000000000000000000000000000000000000000000000000000000000000000000000000000000000000000000000000000000000000000000000000000000000000000000000000000000000000000000000000000000000000000000000000000000000000000000000000000000000000000000000000000000000000000000000000000000000000000000000000000000000000000000000000000000000000000000000000000000000000000000000000000000000000000000000000000000000000000000000000000000000000000000000000000000000000000000000000000000000000000000000000000000000000000000000000000000000000000000000000000000000000000000000000000000000000000000000000000000000000000000000
