This file was generated by Ched 2.7.0.0.
#TITLE ""
#ARTIST ""
#DESIGNER ""
#DIFFICULTY 0
#PLAYLEVEL
#SONGID ""
#WAVE ""
#WAVEOFFSET 0
#JACKET ""
#REQUEST "ticks_per_beat 480"
#00002: 4
#BPM01: 235
#00008: 01
#TIL00: ""
#VOLUME: ""
#HISPEED 00
#MEASUREHS 00
#0001a:14
#00212:14
#00418:14
#00918:16
#01012:16
#01112:16
#01412:16
#01518:16
#0201a:14
#02010:41
#0211a:14
#02214:14
#02314:14
#02418:14
#02518:14
#02818:14
#02918:14
#03014:14
#03114:14
#0321a:14
#0331a:14
#0441a:14
#04414:0014
#05212:0016
#05218:26
#05318:16
#05412:16
#05418:0016
#05512:16
#05618:16
#05612:0016
#05718:16
#05712:0016
#06014:14
#06018:0014
#06010:41
#06218:14
#06214:0014
#06114:14
#06318:14
#06412:14
#0641a:0014
#06512:14
#0651a:0014
#07114:14
#0881a:2414
#0881f:21
#0891a:14
#09012:1414
#09010:41
#09112:14
#09218:1414
#09314:1414
#09913:14
#09919:14
#10514:14
#10618:14
#10714:14
#0361a:14
#03614:0014
#0371a:14
#03812:14
#03818:0014
#03912:14
#04518:14
#04612:14
#04618:0014
#04714:14
#07714:14
#07612:14
#07918:14
#08518:14
#0841a:14
#08714:14
#0941a:14
#10216:16
#0721f:11
#07214:24
#00818:26
#00810:41
#01612:26
#01718:26
#01812:26
#05818:26
#03412:26
#03410:41
#06818:24
#07418:24
#09614:24
#10018:26
#08018:24
#08214:24
#10818:26
#10912:26
#10913:000000000036000000000000
#04810:41
#07754:24
#07652:64
#08558:24
#0845a:54
#0945a:64
#09654:64
#10058:56
#10256:26
#006340:14
#007340:24
#012380:16
#013380:26
#018320:16
#019320:26
#026320:14
#027320:24
#0403a0:14
#0413a0:24
#042320:14
#043320:24
#0483a0:14
#049380:24
#050320:14
#051340:24
#058380:1636
#059380:26
#066340:1434
#067340:24
#068380:14
#069390:34
#0703a0:24
#072340:14
#073340:24
#074380:14
#075380:24
#076320:14
#077340:34
#078320:24
#080380:14
#081380:24
#082340:14
#083340:24
#0843a0:14
#085380:34
#0863a0:24
#0943a0:14
#095380:24
#096340:14
#097320:34
#098320:24
#100380:16
#102360:56
#104380:26
#109320:16
#109330:000000000036000000360000
#111330:36
#117320:24
