This file was generated by Ched 2.7.0.0.
#TITLE ""
#ARTIST ""
#DESIGNER ""
#DIFFICULTY 0
#PLAYLEVEL
#SONGID ""
#WAVE ""
#WAVEOFFSET 0
#JACKET ""
#REQUEST "ticks_per_beat 480"
#00002: 4
#BPM01: 235
#00008: 01
#TIL00: ""
#VOLUME: ""
#HISPEED 00
#MEASUREHS 00
#00018:13
#0001b:0033
#00416:15
#00419:0035
#0101b:13130000
#01012:00001313
#01118:130000130000000014000000
#01114:0014
#01112:000000000000000000000024
#01216:000000000014000000000000
#0131b:00130000
#01315:0013
#01318:00000013
#01412:13
#0151b:13
#02018:13
#02015:00000013
#02010:41
#02212:13
#02218:00130000
#02215:0013
#0221b:00000013
#0241b:13
#02415:00000013
#0251a:14
#02512:000000000014000000000000
#02517:00000014
#0281b:13
#02815:00130000
#02818:0013
#02812:00000013
#0291b:13
#03012:13
#03018:00130000
#03015:0013
#0301b:00000013
#03112:13
#0321b:13
#03215:00130000
#03218:0013
#03212:00000013
#0331b:130000000000000033130000
#03312:00130000
#03318:0013
#0361b:13130000
#03615:00001313
#03715:00000013
#03718:130000000000000000000013
#0371b:003300000000
#03918:00000013
#03915:130000000000000000000013
#03912:003300000000
#04015:00130000
#0401b:13
#04012:000000000000000000000023
#04412:13
#04415:00130000
#04418:0013
#0441b:00000013
#04518:000000000000000013000013
#04512:13
#04515:003300000000
#04615:13130000
#0461b:000000000013000000000000
#04815:00000013
#0481b:00000013
#04818:23
#04812:23
#04810:41
#04915:13
#0491b:13
#05112:0013
#05118:00000013
#0511b:0013
#0511a:24
#05114:24
#0531b:0013
#05315:00000013
#05312:0013
#05512:0013
#05518:0013
#05515:00000013
#0561b:13
#05618:00130000
#05615:0013
#05612:00000013
#05717:13
#0571b:000000000033000000000000
#0591b:0013
#05915:00000013
#05912:2413
#05918:24
#06112:0013
#0611b:00000013
#06118:0013
#0631b:0013
#06315:0013
#06318:00000013
#06712:13
#06716:000000000000000000133300000000000000000000000000
#0661b:13
#0681b:13
#0681a:000000000033000000000000
#06819:00000033
#07315:0013
#07318:00000013
#0731a:24
#07812:13
#0781b:13
#07814:000000000000000000000024
#07818:000033330033330000000024
#07815:000033330033330000000000
#0791b:0013
#07912:0013
#07915:00000013
#0861b:130000000000000000000053
#08619:000053530000000053530000
#08617:000000000053530000000000
#08712:0013
#08718:00000013
#0871b:5313
#0891b:0013
#08912:00000013
#08915:0013
#09112:0013
#09118:0013
#09115:00000013
#0921b:13
#09218:00130000
#09212:0013
#09215:00000013
#09612:13
#0961b:13
#09613:000000000033000000000000
#09614:00000033
#0961a:000000000033000000000000
#09619:00000033
#1041b:00130000
#10412:24
#10518:001300000000
#10512:000000000014000000000000
#10514:24
#10612:00130000
#1061a:24
#10715:001300000000
#1071a:000000000014000000000000
#10712:000014
#10718:24
#10918:00000016
#10914:26
#10912:000000000026000000260000
#07118:16
#07112:26
#00215:14
#00212:0034
#00818:14
#00810:41
#00914:14
#02315:0000001400000000
#02312:14
#0211b:13
#0261a:0000001400000000
#02712:00000013
#03812:13130000
#03818:00001313
#04215:00000013
#04218:14
#0421b:000000000000000000000023
#06015:0013
#06018:0013
#06012:23
#0601b:23
#06010:41
#0621b:0013
#06212:0013
#06215:23
#06218:23
#0541b:0013
#05415:0013
#05418:23
#05412:23
#05212:0013
#05218:0013
#05215:23
#0521b:23
#06412:13
#06415:00130000
#06418:0013
#0641b:00000013
#06516:13
#06512:000000000033000000000000
#06915:0013
#06918:0013
#07618:13000013
#0761b:0013
#0771b:13
#08118:0013
#08115:00000013
#08112:24
#08415:13000013
#08412:0013
#08512:13
#08515:00130000
#0881b:2313
#08818:00130013
#08812:2313
#08815:00130013
#0881f:21
#0901b:00130013
#09018:2313
#09012:00130013
#09015:2313
#09010:41
#0931b:13
#09317:000000000013000000000000
#09515:13
#09518:00000013
#09718:0013
#09715:0013
#10117:00000014
#10112:00000014
#00619:14
#00613:14
#00615:000000000023000000000000
#00618:000023
#00719:15
#00712:15
#00718:000000000023000000000000
#00715:000023
#0721f:11
#07212:24
#07216:0024
#01612:24
#0161a:24
#01614:000024
#01618:000024
#11112:25
#11119:25
#03512:0026
#03514:26
#10015:24
#1001a:24
#01812:00230000
#0181b:00230000
#01815:000000333300
#01818:000000333300
#05012:24
#05018:24
#05013:0024
#05019:0024
#05812:24
#05818:24
#05814:0024
#0581a:0024
#07412:26
#07415:0026
#07512:0023
#07518:26
#0831b:0023
#08312:26
#09812:26
#09818:26
#09915:24
#0991a:24
#09912:0024
#09917:0024
#10818:26
#10816:0026
#01719:000024
#01713:000024
#04712:002300000000
#04718:0023
#04715:00000023
#0801a:24
#08016:0024
#08218:26
#08215:0026
#03416:0026
#03418:26
#03410:41
#07018:26
#0011b:33
#00312:34
#00519:35
#11712:63
#1171b:63
#04115:00630063
#04112:0063
#04318:00630063
#0431b:0063
#00058:53
#00456:55
#0085a:000000000014000000000000
#00858:64
#00952:000000000014000000000000
#00954:64
#01256:000000000024000000000000
#01452:63
#0155b:53
#01654:000054
#01658:000054
#01652:14
#0165a:14
#0175a:14
#01752:14
#0185b:00530000
#01852:00530000
#01858:000000000000000000000014
#01854:000000000000000000000014
#02058:53
#0245b:53
#02757:14
#0295b:53
#02958:000000000013000000000000
#03152:63
#03155:000000000013000000000000
#03552:0016
#03554:16
#0425a:000000000014000000000000
#0425b:000000000000000000000053
#04258:64
#04955:53
#0495b:53
#05052:14
#05053:0014
#05059:0014
#05058:14
#05154:14
#0515a:14
#05255:53
#0525b:53
#05252:0053
#05258:0053
#05458:63
#05452:63
#0545b:0063
#05455:0063
#05355:13
#0535b:13
#05552:13
#05558:13
#05757:53
#05852:14
#05858:14
#0585a:0014
#05854:0014
#05952:14
#05958:14
#06052:63
#0605b:53
#06055:0053
#06058:0063
#06255:53
#06258:63
#0625b:0063
#06252:0053
#06152:13
#0615b:13
#06355:13
#06358:13
#06752:53
#06756:0000002300000000
#0665b:53
#0685b:53
#07252:14
#07256:0014
#0735a:14
#07452:16
#07455:0016
#07852:53
#0785b:53
#07854:000000000000000000000014
#07858:000000000000000000000014
#07552:0053
#07558:16
#0835b:0063
#08352:16
#09652:63
#0965b:53
#0885b:5363
#08858:00230023
#08852:6353
#08855:00230023
#09058:6363
#0905b:00230023
#09052:00230023
#09055:5353
#09158:14
#09154:14
#09955:14
#0995a:14
#09952:0014
#09957:0014
#1045b:00530000
#10552:000000000014000000000000
#10652:00630000
#1075a:000000000014000000000000
#10752:000014
#10952:00000016
#10958:00000016
#07158:16
#07152:16
#10055:54
#1005a:54
#11152:55
#11159:65
#00255:64
#0015b:000000000013000000000000
#00352:000000000014000000000000
#00559:000000000015000000000000
#01152:000000000000000000000064
#02355:0000006400000000
#02352:64
#02158:000000000013000000000000
#0215b:63
#02557:00000064
#0265a:0000002400000000
#03358:0063
#0335b:00000023
#0375b:000000000013000000000000
#03758:63
#03955:53
#03952:000000000013000000000000
#04052:000000000000000000000063
#04552:63
#04555:000000000013000000000000
#04658:000000000000000000000013
#0465b:000000000053000000000000
#04858:63
#04852:63
#04155:00630000
#04152:0063
#04358:00630000
#0435b:0063
#06556:63
#07052:16
#07058:16
#06955:0023
#06958:0023
#07658:63000063
#0765b:0063
#0775b:63
#07757:000000000013000000000000
#0805a:14
#08056:0014
#08152:14
#08258:16
#08255:0016
#08455:63000063
#08452:0063
#08552:23
#08555:00630000
#0895a:44
#08952:34
#0935b:63000013
#09357:000000000063000000000000
#09555:53
#09552:000000000013000000000000
#09758:0023
#09755:0023
#09858:46
#09852:36
#10157:00000024
#10152:00000024
#03456:0016
#03458:16
#000380:13
#0003b0:0033
#0013b0:330000000023000000000000
#002350:14
#002320:0034
#003320:340000000024000000000000
#004360:15
#004390:0035
#005390:350000000025000000000000
#008380:14
#0083a0:000000000024000000000000
#009340:14
#009320:000000000024000000000000
#011320:000000000000000000000014
#012360:000000000054000000000000
#013320:24
#014320:13
#014350:0023
#0153b0:13
#015380:0023
#016380:000014
#0173a0:24
#016341:000014
#017321:24
#018321:00130000
#018351:000000333300
#018341:000000000000000000000024
#0183b0:00130000
#018380:000000000000330033000024
#020380:13
#0203b0:0023
#0213b0:13
#021380:000000330023000000000000
#023320:14000024
#023350:0000003400000000
#0243b0:13
#024380:0023
#025370:00000014
#0263a0:0000005400000000
#027370:24
#0293b0:13
#029380:000000000023000000000000
#031320:13
#031350:000000000023000000000000
#033380:0013
#0333b0:000000000000000033530000
#034380:26
#037380:13
#0373b0:000033000023000000000000
#039350:13
#039320:000033000023000000000000
#040380:000000000013000023000000
#042380:14
#0423a0:000000000024000000000000
#045320:13
#045350:000033000023000000000000
#0463b0:000000000013000000000000
#046380:000000000000000033000023
#048380:13
#0483b0:0023
#048321:13
#048351:0023
#0493b1:13
#049381:0023
#049350:13
#049320:0023
#0523b0:13
#052380:0033
#0533b0:23
#052351:13
#052321:0033
#053351:23
#054321:13
#054351:0033
#055321:23
#054380:13
#0543b0:0033
#055380:23
#057370:13
#0573b0:000000000033000000230000
#060320:13
#060350:0033
#061320:23
#0603b1:13
#060381:0033
#0613b1:23
#062351:13
#062321:0033
#063351:23
#062380:13
#0623b0:0033
#063380:23
#065360:13
#065320:000000000033000000230000
#0663b0:13
#066380:0023
#067320:13000023
#067360:000000000000000000533300000000000000000000000000
#0683b0:13
#0683a0:000000000033000000000000
#068390:00000033
#069380:3333
#070380:26
#069351:1333
#070321:26
#075321:0013
#076351:23
#076380:13000033
#0763b0:0033
#0773b0:33
#077370:000000000023000000000000
#078320:13
#078350:000033330033330000000000
#078340:000000000000000034000024
#0783b1:13
#078381:000033330033330034000024
#0833b1:0013
#084381:23
#084350:13000033
#084320:0033
#085320:53000023
#085350:00330000
#0883b0:1333
#088380:00530053
#0893a0:24
#088321:1333
#088351:00530053
#089321:24
#090381:1333
#0903b1:00530053
#091381:24
#090350:1333
#090320:00530053
#091340:24
#0933b0:13000023
#093370:000000000033000000000000
#094350:1323
#094381:0013
#095381:23
#095350:13
#095320:000000000023000000000000
#096320:13
#096330:000000000033000000000000
#096340:00000033
#097350:3333
#098320:26
#0963b1:13
#0963a1:000000000033000000000000
#096391:00000033
#097381:3333
#098381:26
#100351:14
#101321:00000054
#103351:0024
#1003a0:14
#101370:00000054
#1033a0:0024
#1043b0:00130000
#104380:00000023
#106320:00130000
#106350:00000023
#111320:15
#117320:23
#111391:15
#1173b1:23
#040920:000000000000000000000013
#041950:000000000000000000000000000000000000000000000000000000000000000000000000000000000000000000000000000000000000000000000000000000000000000000000000000000000000000000000000000000000000000000000000000000000000000000000000000000000000000000000000000000000000000000000000000000000000000000000000000000000000000000000000000000000000000000000000000000000000000000000000000000000000000000000000000000000000000000000000000000000000000000000000000000000000000000000000000000000000000000000000000000000000000000000000000000000000000000000000000000000000000000000000000000000000000000000000000000000000000000000000000000000000000000000000000000000000000000000000000000000000000000000000000000000000000000000000000000000000000000000000000000000000000000000000000000000000000000000000000000000000000000000000000000000000000000000000000000000000000000000000000000000000000000000000000000000000000000000000000000000000000000000000000000000000000000000000000000000000000000000000530000000000000000000000000000000000000000000000000000000000000000000000000000000000000000000000000000000000000000000000000000000000000000000000000000000000000000000000000000000000000000000000000000000000000000000000000000000000000000000000000000000000000000000000000000000000000000000000000000000000000000000000000000000000000000000000000000000000000000000000000000000000000000000000000000000000000000000000000000000000000000000000000000000000000000000000000000000000000000000000000000000000000000000000000000000000000000000000000000000000000000000000000000000000000000000000000000000000000000000000000000000000000000000000000000000000000000000000000000000000000000000000000000000000000000000000000000000000000000000000000000000000000000000000000000000000000000000000000000000000000000000000000000000000000000000000000000000000000000000000000000000000000000000000000000000000000000000000000000000000000000000000000000000000000000000000000000000000000000000000000000000000000000000000000000000000000000000000000000000000000000000000000000000000000000000000000000000000000000000000000000000000000000000000000000000000000000000000000000000000000000000000000000000000000000000000000000000000000000000000000000000000000000000000000000000000000000000000000000000000000000000000000000000000000000000000000000000000000000000000000000000000000000000000000000000000000000000000000000000000000000000000000000000000000000000000000000000000000000000000000000000000000000000000000000000000000000000000000000000000000000000000000000000000000000000000000000000000000000000000000000000000000000000000000000000000000000000000000000000000000000000000000000000000000000000000000000000000000000000000000000000000000000000000000000000000000000000000000000000000000000000000000000000000000000000000000000000000000000000000000000000000000000000000000000000000000000000000000000000000000000000000000000000000000000000000000000005300000053005353230000000000000000000000000000000000000000000000000000000000000000000000000000000000000000000000000000000000000000000000000000000000000000000000000000000000000000000000000000000000000000000000000000000000000000000000000000000000000000000000000000000000000000000000000000000000000000000000000000000000000000000000000000000000000000000000000000000000000000000000000000000000000000000000000000000000000000000000000000000000000000000000000000000000000000000000000000000000000000000000000000000000000000000000000000000000000000000000000000000000000000000000000000000000000000000000000000000000000000000000000000000000000000000000000000000000000000000000000000000000000000000000000000000000000000000000000000000000000000000000000000000000000000000000000000000000000000000000000000000000000000000000000000000000000000000000000000000000000000000000000000000000000000000000000000000000000000000000000000000000000000000000000000000000000000000000000000000000000000000000
#041920:0053
#0429b0:000000000000000000000013
#043980:000000000000000000000000000000000000000000000000000000000000000000000000000000000000000000000000000000000000000000000000000000000000000000000000000000000000000000000000000000000000000000000000000000000000000000000000000000000000000000000000000000000000000000000000000000000000000000000000000000000000000000000000000000000000000000000000000000000000000000000000000000000000000000000000000000000000000000000000000000000000000000000000000000000000000000000000000000000000000000000000000000000000000000000000000000000000000000000000000000000000000000000000000000000000000000000000000000000000000000000000000000000000000000000000000000000000000000000000000000000000000000000000000000000000000000000000000000000000000000000000000000000000000000000000000000000000000000000000000000000000000000000000000000000000000000000000000000000000000000000000000000000000000000000000000000000000000000000000000000000000000000000000000000000000000000000000000000000000000000000000530000000000000000000000000000000000000000000000000000000000000000000000000000000000000000000000000000000000000000000000000000000000000000000000000000000000000000000000000000000000000000000000000000000000000000000000000000000000000000000000000000000000000000000000000000000000000000000000000000000000000000000000000000000000000000000000000000000000000000000000000000000000000000000000000000000000000000000000000000000000000000000000000000000000000000000000000000000000000000000000000000000000000000000000000000000000000000000000000000000000000000000000000000000000000000000000000000000000000000000000000000000000000000000000000000000000000000000000000000000000000000000000000000000000000000000000000000000000000000000000000000000000000000000000000000000000000000000000000000000000000000000000000000000000000000000000000000000000000000000000000000000000000000000000000000000000000000000000000000000000000000000000000000000000000000000000000000000000000000000000000000000000000000000000000000000000000000000000000000000000000000000000000000000000000000000000000000000000000000000000000000000000000000000000000000000000000000000000000000000000000000000000000000000000000000000000000000000000000000000000000000000000000000000000000000000000000000000000000000000000000000000000000000000000000000000000000000000000000000000000000000000000000000000000000000000000000000000000000000000000000000000000000000000000000000000000000000000000000000000000000000000000000000000000000000000000000000000000000000000000000000000000000000000000000000000000000000000000000000000000000000000000000000000000000000000000000000000000000000000000000000000000000000000000000000000000000000000000000000000000000000000000000000000000000000000000000000000000000000000000000000000000000000000000000000000000000000000000000000000000000000000000000000000000000000000000000000000000000000000000000000000000000000000000000000000000000000005300000053005353230000000000000000000000000000000000000000000000000000000000000000000000000000000000000000000000000000000000000000000000000000000000000000000000000000000000000000000000000000000000000000000000000000000000000000000000000000000000000000000000000000000000000000000000000000000000000000000000000000000000000000000000000000000000000000000000000000000000000000000000000000000000000000000000000000000000000000000000000000000000000000000000000000000000000000000000000000000000000000000000000000000000000000000000000000000000000000000000000000000000000000000000000000000000000000000000000000000000000000000000000000000000000000000000000000000000000000000000000000000000000000000000000000000000000000000000000000000000000000000000000000000000000000000000000000000000000000000000000000000000000000000000000000000000000000000000000000000000000000000000000000000000000000000000000000000000000000000000000000000000000000000000000000000000000000000000000000000000000000000000
#0439b0:0053
#0869b0:130000000000000000000000000000000000000000000000000000000000000000000000000000000000000000000000000000000000000000000000000000000000000000000000000000000000000000000000000000000000000000000000000000000000000000000000000000000000000000000000000000000000000000000000000000000000000000000000000000000000000000000000000000000000000000000000000000000000000000000000000000000000000000000000000000000000000000000000000000000000000000000000000000000000000000000000000000000000000000000000000000000000000000000000000000000000000000000000000000000000000000000000000000000000000000000000000000000000000000000000000000000000000000000000000000000000000000000000000000000000000000000000000000000000000000000000000000000000000000000000000000000000000000000000000000000000000000000000000000000000000000000000000000000000000000000000000000000000000000000000000000000000000000000000000000000000000000000000000000000000000000000000000000000000000000000000000000000000000000000000000000000000000000000000000000000000000000000000000000000000000000000000000000000000000000000000000000000000000000000000000000000000000000000000000000000000000000000000000000000000000000000000000000000000000000000000000000000000000000000000000000000000000000000000000000000000000000000000000000000000000000000000000000000000000000000000000000000000000000000000000000000000000000000000000000000000000000000000000000000000000000000000000000000000000000000000000000000000000000000000000000000000000000000000000000000000000000000000000000000000000000000000000000000000000000000000000000000000000000000000000000000000000000000000000000000000000000000000000000000000000000000000000000000000000000000000000000000000000000000000000000000000000000000000000000000000000000000000000000000000000000000000000000000000000000000000000000000000000000000000000000000000000000000000000000000000000000000000000000000000000000000000000000000000000000000000000000000000000000000000000000000000000000000000000000000000000000000000000000000000000000000000000000000000000000000000000000000000000000000000000000000000000000000000000000000000000000000000000000000000000000000000000000000000000000000000000000000000000000000000000000000000000000000000000000000000000000000000000000000000000000000000000000000000000000000000000000000000000000000000000000000000000000000000000000000000000000000000000000000000000000000000000000000000000000000000000000000000000000000000000000000000000000000000000000000000000000000000000000000000000000000000000000000000000000000000000000000000000000000000000000000000000000000000000000000000000000000000000000000000000000000000000000000000000000000000000000000000000000000000000000000000000000000000000000000000000000000000000000000000000000000000000000000000000000000000000000000000000000000000000000000000000000000000000000000000000000000000000000000000000000000000000000000000000000000000000000000000000000000000000000000000000000000000000000000000000000000000000000000000000000000000000000000000000000000000000000000000000000000000000000000000000000000000000000000000000000000000000000000000000000000000000000000000000000000000000000000000000000000000000000000000000000000000000000000000000000000000000000000000000000000000000000000000000000000000000000000000000000000000000000000000000000000000000000000000000000000000000000000000000000000000000000000000000000000000000000000000000000000000000000000000000000000000000000000000000000000000000000000000000000000000000000000000000000000000000000000000000000000000000000000000000000000000000000000000000053000000000000000000000000000000000000000000000000000000000000000000000000000000000000000000000000000000000000000000000000000000000000000000000000000000000000000000000000000000000000000000000000000000000000000000000000000000000000000000000000005300530000005300530000005300530000005300530000005300530000005300530000005353
#086990:000053530000000053530000
#086970:000000000053530000000000
#0879b0:23
