This file was generated by Ched 2.7.0.0.
#TITLE ""
#ARTIST ""
#DESIGNER ""
#DIFFICULTY 0
#PLAYLEVEL
#SONGID ""
#WAVE ""
#WAVEOFFSET 0
#JACKET ""
#REQUEST "ticks_per_beat 480"
#00002: 4
#BPM01: 235
#00008: 01
#TIL00: ""
#VOLUME: ""
#HISPEED 00
#MEASUREHS 00
#0201a:14
#02014:0014
#02010:41
#0211a:14
#02212:14
#02218:0014
#0241a:14
#02414:0014
#02518:14
#02512:0014
#02812:14
#02818:0014
#02914:14
#03212:14
#03218:0014
#04712:14
#0711a:14
#07112:14
#0761a:14
#07614:0014
#09212:14
#09218:00140000
#09214:0014
#0921a:00000014
#1071a:14
#10714:00140000
#10718:0014
#10712:00000014
#0101a:14
#01014:0014
#01119:14
#01113:0014
#01218:14
#01412:14
#01414:0014
#01518:14
#0151a:0014
#02312:14
#0261a:14
#02618:0014
#03018:14
#03014:0014
#0311a:14
#03314:14
#0331a:0014
#03612:1414
#03618:00140014
#03712:14
#0381a:1414
#03814:00140014
#0391a:14
#04014:1414
#04018:00140000
#0411a:1414
#04112:00140000
#04214:14
#04418:1414
#04414:00140014
#0451a:14
#04614:1414
#04618:00140014
#05118:0014
#05114:24000014
#0511a:24
#05314:0014
#05318:00000014
#05518:0014
#05514:00000014
#0561a:1414
#05612:00140014
#05912:0014
#05918:00000014
#0611a:0014
#06114:00000014
#06314:0014
#06318:00000014
#06412:1414
#0641a:00140014
#07712:0014
#07718:14
#07818:14
#08314:0014
#08614:00140000
#08619:0014
#08613:00000014
#08618:14
#0871a:14
#08714:0014
#08718:00000014
#08918:0014
#08914:00000014
#09114:0014
#09118:00000014
#09312:14
#09318:00140000
#09314:0014
#0931a:00000014
#10412:14
#10418:00140000
#10414:0014
#1051a:14
#10514:00140000
#10518:0014
#10612:14
#10618:00140000
#10614:0014
#0051a:14
#0041a:14
#00312:14
#00212:14
#0011a:14
#0001a:14
#00614:14
#05718:1414
#05714:00140014
#05818:0014
#0581a:24
#06518:00140014
#06514:1414
#06614:14
#06718:14
#06812:14
#06814:0000003400003400
#06914:14
#06913:0034
#07512:0014
#07318:0014
#0811a:0014
#07912:0014
#08418:14
#08412:0014
#0851a:14
#08514:0014
#09518:0014
#09514:00000014
#0961a:14
#09618:0000003400003400
#09718:14
#09719:0034
#0721f:11
#07214:24
#01612:26
#01718:26
#01812:26
#0081a:24
#00814:24
#00810:41
#00912:24
#00918:24
#09912:24
#09918:24
#09913:0024
#09919:0024
#10014:24
#1001a:24
#1081a:24
#10818:0034
#05012:24
#05018:24
#05013:0024
#05019:0024
#05412:24
#06014:24
#06010:41
#06218:24
#08812:24
#0881f:21
#0901a:24
#09010:41
#09412:24
#0981a:24
#07012:24
#07418:24
#08012:24
#0821a:24
#0521a:24
#11119:25
#11112:25
#10918:340000000034000000000000
#03410:41
#04810:41
#1171b:63
#11712:63
#01258:64
#01652:16
#01758:16
#01952:16
#0265a:64
#02658:0024
#04254:54
#04252:0000000000000014
#0595a:14
#07858:54
#0795a:14
#00752:14
#0985a:14
#07052:14
#00654:64
#05858:0064
#0585a:64
#06654:64
#06758:64
#06852:64
#06954:24
#0875a:14
#0965a:64
#09758:24
#1085a:64
#10958:00000014
#006340:14
#007320:24
#012380:14
#0133a0:24
#018320:16
#019320:26
#0263a0:14
#026380:0054
#0273a0:24
#034320:1626
#035380:1626
#042340:14
#042320:0000000000000024
#0483a0:1424
#048321:1424
#049331:1424
#049390:1424
#0523a0:14
#052380:0034
#0533a0:24
#054320:14
#054340:0034
#055320:24
#0583a0:14
#058380:0034
#0593a0:24
#060340:14
#060320:0034
#061340:24
#062380:14
#0623a0:0034
#063380:24
#066340:14
#066320:0024
#067380:14
#0673a0:0024
#068320:14
#068340:0000003400003400
#069340:34
#069330:0034
#070320:24
#072340:14
#072320:0034
#073340:24
#074380:14
#0743a0:0034
#075380:24
#078380:14
#0793a0:24
#080320:14
#080340:0034
#081320:24
#0823a0:14
#082380:0034
#0833a0:24
#088320:14
#088340:0034
#089320:24
#0903a0:14
#090380:0034
#0913a0:24
#094320:14
#094340:0034
#095320:24
#0963a0:14
#096380:0000003400003400
#097380:34
#097390:0034
#0983a0:24
#100340:14
#103320:0025
#1003a1:14
#103381:0025
#1083a1:14
#108381:0034
#109381:340000000034000000240000
#111391:15
#1173b1:23
#111320:15
#117320:23
