This file was generated by Ched 2.7.0.0.
#TITLE ""
#ARTIST ""
#DESIGNER ""
#DIFFICULTY 0
#PLAYLEVEL
#SONGID ""
#WAVE ""
#WAVEOFFSET 0
#JACKET ""
#REQUEST "ticks_per_beat 480"
#00002: 4
#BPM01: 135
#00008: 01
#TIL00: ""
#VOLUME: ""
#HISPEED 00
#MEASUREHS 00
#00016:00000012
#00018:0000000000000012
#02215:0013003300001300
#02218:0000003300000013
#02212:00130000
#0221b:00130000
#02917:0016000000160000
#02915:0000001400000000
#02912:00140000
#02919:2222
#03812:14140000
#0381a:00001414
#03816:2400000024000014
#0391a:14001414
#03912:14141400
#03916:0000001400000000
#00116:1200000000000012
#00113:00000012000000000000000000000000
#00118:0000001212000000
#0011b:00000000000000000000001200000000
#00216:12
#00218:12
#00215:0000000000120000
#00217:00000012
#00219:0000000000000012
#00316:00000012000000000000000000000000
#00313:12
#00317:0000001200000012
#00318:00000000000000000000001200000000
#0031b:0012
#00413:12000000000000000000000000000052
#0041b:12000000000000000000005200000000
#00410:41
#00418:0052
#00419:00000000000000000052000000000000
#0041a:0000000000520000
#00416:00000052
#00415:00000000000000000000000000520000
#00414:0000000000000052
#00517:1200001212000012
#00617:12000012
#0061a:00120000
#00613:12
#00616:00120000
#00615:0000000000120000
#00619:0000000000000012
#00718:0000001200000000
#00717:1212
#00719:00120000
#00715:00000012
#00817:12005252
#00814:00000000120000000000005200000000
#0081b:1252
#00818:00000000120000000000005200000000
#0081a:00000000000000000052000000000000
#00819:0000000000520000
#00816:00000000000000000052000000000000
#00815:0000000000520000
#00813:00000052
#00914:0013
#00913:00130000
#00915:00000013
#00912:23
#00910:41
#00919:000000000000000000000000000000000000000000000000005300000000000000000000000000000000000000000000000000000000000000000000000000000000000000000000530000000000000000000000000000000000000000000000
#0091b:000000000000000000000000000000000000000000000000000000000000000000000000000000000000000000000000000000000000000000000000000000000000000000000000005300000000000000000000000000000000000000000000
#00917:00530000
#0101b:13
#01019:0013
#0101a:00130000
#01018:00000013
#01016:00530000
#01014:000000000000000000000000000000000000000000000000005300000000000000000000000000000000000000000000000000000000000000000000000000000000000000000000530000000000000000000000000000000000000000000000
#01012:000000000000000000000000000000000000000000000000000000000000000000000000000000000000000000000000000000000000000000000000000000000000000000000000005300000000000000000000000000000000000000000000
#01115:13
#01114:00130000
#01113:0013
#01112:00000013
#0111b:00530000
#01119:000000000000000000000000000000000000000000000000005300000000000000000000000000000000000000000000000000000000000000000000000000000000000000000000530000000000000000000000000000000000000000000000
#01117:000000000000000000000000000000000000000000000000000000000000000000000000000000000000000000000000000000000000000000000000000000000000000000000000005300000000000000000000000000000000000000000000
#01218:13
#01219:00130025
#0121a:0013
#01214:000000000000000000000000000000000000000000000000005300000000000000000000000000000000000000000000130000000000000000000000000000000000000000000000000000000000000000000000000000000000000000000000
#01213:00000025
#01212:00530000
#01317:13000053
#01312:13
#01316:00531300
#0131b:0013
#01314:000000000000000000000000000000000000000000000000005300000000000000000000000000000000000000000000000000000000000000000000000000000000000000000000000000000000000000000000000000000000000000000000
#01319:000000000000000000000000000000000000000000000000000000000000000000000000000000000000000000000000000000000000000000000000000000000000000000000000005300000000000000000000000000000000000000000000
#0141b:13
#01412:13000024
#01418:0000000000000014
#0141a:00240000
#01416:0024
#01515:13
#01512:00130013
#0151b:00130013
#01518:0023
#01615:13000000000000000000001300000000
#01618:1300000000130000
#01712:23130000
#01717:00132313
#01719:0000000000000013
#0171f:11
#0181b:13
#01815:0013000000000000
#01818:00130000
#01812:0000001300000000
#01816:00002313
#01814:0000000000000013
#01912:1323
#01918:0013000000000000
#01915:00130000
#0191b:0000001300001300
#01917:0023
#02017:00130000
#02115:00000013000000130000000000001300
#02113:00151500
#02118:00232313
#0211b:13
#02316:00140014
#02318:1616
#02312:16130000
#0231b:00000013
#02412:1300000053000013
#02418:0000000000131300
#02413:00530000000000530000000000000000
#02414:0053005300000000
#02415:00000053005300000000000000000000
#02416:00530000
#02512:00160000
#02518:00000016
#0251b:23
#02516:23
#02515:0023
#0251f:21
#0261b:00130000
#02615:00160000
#02616:2400000000240000
#02612:00002424
#0261a:00000024
#02610:41
#02812:00130024
#02815:00160000
#02816:2400000000240000
#0281a:00002424
#02717:13
#02718:00162300
#02712:23000016
#03017:0000001400000000
#0301a:00140000
#03013:0016000000160000
#03015:2222
#03115:1414
#03112:00140000
#0311a:2424
#03117:00240000
#03217:1414
#0321a:00140000
#03212:2424
#03215:00240000
#03412:00140024
#03416:00142414
#03418:0000000000000014
#0341a:24
#03414:0000000000240000
#03312:24000013
#0331b:00130000
#03315:00162316
#03316:24
#03310:41
#0361a:00140024
#03616:00142414
#03614:0000000000000014
#03612:24
#03618:0000000000240000
#0351b:00000013
#03512:00130000
#03515:00160016
#0351a:14
#03518:0023
#03516:24
#03712:14140000
#03713:0000001400000000
#0371a:00001414
#03718:0000000000000014
#0401a:0014001400000000
#04016:24141414
#04012:14141400
#04014:0000000000000014
#04010:41
#04116:14002414
#04118:0000000000000014
#04112:24240000
#04114:0000002400000000
#04216:14002414
#04214:0000000000000014
#0421a:24240000
#04218:0000002400000000
#04512:14
#0451a:24
#04618:0000620000130000
#0461a:00000000000062000000000000130000
#04612:0024
#04614:00006200000000000000002400000000
#04616:6200000000000024
#04615:00620000000000000000000000000000
#04613:00000062000000000000000000000000
#04619:00000000006200000000000000000000
#0461b:00000000000000620000000000000000
#04712:24141414
#0471a:24
#04716:00003400003400003400003400003400
#04710:41
#0481a:00141414
#04812:24
#04816:00003400003400003400003400003400
#04912:00141414
#0491a:24
#04916:00003400003400003400003400003400
#05016:00141400
#05012:2400000024002424
#0501a:0000240000002424
#05117:00000000001300000000000000000000
#05112:0000240014000013
#05118:0000000000130000
#05115:00000000000000000000001300000000
#0511a:00000024
#0521a:14141400
#05216:00001300001300000000000000000000
#05215:0000000000130000
#05218:00000000000000000000001300000000
#0521b:0000000000000013
#05212:00000024
#05312:14141400
#05317:00001300001300000000000000000000
#05318:0000000000130000
#05315:00000000000000000000001300002400
#0531a:00000024
#05415:0000001400000000001400000000001400000000001400000000001400000000
#05414:00001600001600001600001600001600
#0431a:24
#04315:00240000
#04318:0024
#04313:00000024
#04312:24
#04414:00240000
#04416:2424
#0441a:0000000000000024
#05515:64
#02957:0056000000560000
#02959:22122212
#02952:00640014
#02955:0000002400000000
#03852:14
#0385a:0014
#0395a:6414
#03952:1454
#00156:62
#00153:00000022000000000000000000000000
#00158:0052
#0015b:00000000000000000000002200000000
#00256:62
#00258:52
#00356:00000022000000000000000000000000
#00353:62
#00358:00000000000000000000002200000000
#0035b:0052
#00453:52
#0045b:62
#00557:5252
#00657:52
#0065a:00220000
#00653:52
#00656:00220000
#00757:6262
#00755:00000052
#00857:62
#00854:00220000
#0085b:62
#00858:00220000
#01253:00000015
#01259:00000015
#01254:0023
#01357:13
#01352:63
#01356:0013
#0135b:0053
#0145b:13
#01452:13
#01555:63
#01552:00230000
#01558:0063
#0155b:00000023
#01655:63
#01658:53
#01757:13
#01752:13
#02052:0013
#0205b:0043
#02057:00230000
#02155:00000023000000230000000000000000
#02153:00656500
#0215b:13
#02255:0013
#02252:00630000
#02258:0013
#0225b:00630000
#02352:66230000
#02358:0056
#0235b:00000023
#02458:16
#02452:0033
#02556:13
#02656:64
#0265a:00000014
#0265b:00230000
#02652:00000014
#02852:00230014
#02856:54
#0285a:00000014
#03057:0000002400000000
#0305a:00540014
#03053:0066000000660000
#03055:22122212
#03152:00640014
#03155:6464
#03157:00000014
#0315a:0064
#03257:5454
#0325a:00540014
#03252:0054
#03255:00000014
#03456:00240000
#0345a:64
#03452:00000014
#03352:14000023
#03355:0053
#0335b:00230000
#03356:64
#03656:00240000
#03652:54
#0365a:00000014
#0355b:00000023
#03552:00230000
#03558:0063
#03556:54
#0355a:14
#03752:14
#0375a:0014
#0405a:0024002400001400
#04056:64646400
#04052:14141400
#04152:14
#04156:6464
#0415a:0014
#04256:5454
#0425a:14
#04252:0014
#04352:14
#04359:00140000
#04354:0014
#04357:00000014
#04452:14
#04456:6454
#04552:64
#0455a:64
#04752:14000014
#0475a:64
#04852:54
#0485a:00000014
#04952:00000014
#0495a:64
#0515a:14000014
#05152:14
#05455:0000002400000000002400000000002400000000002400000000002400000000
#05454:00006600006600006600006600006600
#0545a:00000014
#05555:64
#02757:13
#05252:00000014
#001360:1200002200000000
#001330:00000052000000000000000000000000
#001380:0000000012000022
#0013b0:00000000000000000000005200000000
#002360:12
#002330:0022
#002381:12
#0023b1:0022
#003331:1200002200000000
#003361:00000052000000000000000000000000
#0033b1:0000000012000022
#003381:00000000000000000000005200000000
#004331:12
#004361:00003222
#0043b0:12
#004380:0022
#005371:12
#0053b1:0022
#005370:0012
#006330:3222
#006360:00520000
#006371:1222
#0063a1:00520000
#007371:12
#007331:0022
#007370:0012
#0083b0:3222
#008380:00520000
#007351:00000012
#008371:3222
#008341:00520000
#009371:13230000
#009391:00001323
#010361:13230000
#010341:00001323
#0113b1:13230000
#011391:00001323
#012321:13230000
#012341:0013
#012331:00000025
#013321:13
#013361:00230000
#0133b1:0013
#013371:00000023
#015351:1323
#015321:00530000
#015380:0013
#0153b0:00000053
#016380:33
#0163b0:0023
#016351:13
#016321:0023
#0163b1:00000013
#0163a1:00000000000000000000000000330000
#016391:0000000000000033
#016381:00000000000000000000000000000033
#017371:23
#017321:0013
#018321:23
#0183b1:0013
#0193b1:23
#019321:0013
#020321:0023
#020370:13530000
#0203b0:0023
#021350:13000053005300530053000023000000
#021330:00353500
#0223b0:13330000
#022380:0000003323000000
#022321:00130000
#022351:0000003323000000
#023321:16532600
#023380:0016
#0233b0:00000053
#024380:26
#0253b0:13
#025380:0023
#025351:0013
#026321:23
#026360:1424
#0263b0:00530000
#027320:13
#027350:0023
#027381:0013
#0283b1:23
#028360:1424
#028320:00530000
#029390:12220000
#029370:0056000000000000
#029321:14343424
#029351:0000005400000000
#029390:00001222
#029370:0000000000560000
#0303a0:14343424
#030370:0000005400000000
#030351:12220000
#030331:0056000000000000
#030351:00001222
#030331:0000000000560000
#031351:14000000005400003400000000000000
#031321:00540000340000000054000024000000
#0313a0:0014
#031370:00000000000000000054000024000000
#032370:14000000005400003400000000000000
#0323a0:00540000340000000054000024000000
#032321:0014
#032351:00000000000000000054000024000000
#033361:14
#0333b1:00530000
#033381:0023
#033350:0013
#033320:00000053
#034360:24
#0343a1:1424
#034361:00540000
#035361:14
#035321:00530000
#035351:0023
#035380:0013
#0353b0:00000053
#036360:24
#036321:1424
#036361:00540000
#037381:14240000
#037341:00001424
#038361:14240000
#038361:00001424
#0393a1:14
#039361:00240000
#039321:0014
#039361:00000024
#040361:14343400
#0403a1:0054005400002400
#041361:14
#0413a1:0024
#041360:0014
#041320:00000024
#042360:14
#042320:0024
#042361:0014
#0423a1:00000024
#0433a1:14
#043391:00240000
#043350:00140000
#043340:0024
#043381:0014
#043371:00000024
#043330:00000014
#044320:24
#044361:14
#0443a1:0024
#044360:0014
#045320:34
#046360:22
#0453a1:14
#046381:32220000
#0473a1:14
#047361:00003400003400003400003400003400
#048361:24
#048320:14
#048360:00003400003400003400003400003400
#049360:24
#0493a1:14
#049361:00003400003400003400003400003400
#050361:24
#0503a1:0000000000000014
#0513a1:24
#050320:0000000000000014
#051320:24
#0533a0:00000014
#0543a0:00000024
#053351:0000000000000014
#054351:0000005400540000005400540000005400540000005400540000005400540000
#054341:00003600003600003600003600003600
#055351:24
#004980:0012
#0049b0:000000000000000000000000000000000000000000000000000000000000000000000000000000000000000000000000000000000000000000000000000000000000000000000000000000000000000000000000000000000000000000000000000000000000000000000000000000000000000000000000000000000000000000000000000000000000000000000000000000000000000000000000000000000000000000000000000000000000000000000000000000000000000000000000000000000000000000000000000000000000000000000000000000000000000000000000000000000000000000000000000000000000000000000000000000000000000000000000000000000000000000000000000000000000000000000000000000000000000000000000000000000000000000000000000000000000000000000000000000000000000000000000000000000000000000000000000000000000000000000000000000000000000000000000000000000000000000000000000000000000000000000000000000000000000000000000000000000000000000000000000000000000000000000000000000000000000000000000000000000000000000000000000000000000000000000000000000000000000000000000000000000000000000000000000000000000000000000000000000000000000000000000000000000000000000000000000000000000000000000000000000000000000000000000000000000000000000000000000000000000000000000000000000000000000000000000000000000000000000000000000000000000000000000000000000000000000000000000000000000000000000000000000000000000000000000000000000000000000000000000000000000000000000000000000000000000000000000000000000000000000000000000000000000000000000000000000000000000000000000000000000000000000000000000000000000000000000000000000000000000000000000000000000000000000000000000000000000000000000000000000000000000000000000000000000000000000000000000000000000000000000000000000000000000000000000000000000000000000000000000000000000000000000000000000000000000000000000000000000000000000000000000000000000000000000000000000000000000000000000000000000000000000000000000000000000000000000000000000000000000000000000000000000000000000000000000000000000000000000000000000000000000000000000000000000000000000000000000000000000000000000000000000000000000000000000000000000000000000000000000000000000000000000000000000000000000000000000000000000000000000000000000000000000000000000000000000000000000000000000000000000000000000000000000000000000000000000000000000000000000000000000000000000000000000000000000000000000000000000000000000000000000000000000000000000000000000000000000000000000000000000000000000000000000000000000000000000000000000000000000000000000000000000000000000000000000000000000000000000000000000000000000000000000000000000000000000000000000000000000000000000000000000000000000000000000000000000000000000000000000000000000000000000000000000000000000000000000000000000005252220000000000000000000000000000000000000000000000000000000000000000000000000000000000000000000000000000000000000000000000000000000000000000000000000000000000000000000000000000000000000000000000000000000000000000000000000000000000000000000000000000000000000000000000000000000000000000000000000000000000000000000000000000000000000000000000000000000000000000000000000000000000000000000000000000000000000000000000000000000000000000000000000000000000000000000000000000000000000000000000000000000000000000000000000000000000000000000000000000000000000000000000000000000000000000000000000000000000000000000000000000000000000000000000000000000000000000000000000000000000000000000000000000000000000000000000000000000000000000000000000000000000000000000000000000000000000000000000000000000000000000000000000000000000000000000000000000000000000000000000000000000000000000000000000000000000000000000000000000000000000000000000000000000000000000000000000000000000000000000000000000000000000000000000000000000000000000000000000000000000000000000000000000000000000000000000000000000000000000000000000000000000000000000000000000000000000000000000000000000000000000000000000000000000000000000000000000000000000000000000
#004960:00000012
#004930:000000000000000000000000000000000000000000000000000000000000000000000000000000000000000000000000000000000000000000000000000000000000000000000000000000000000000000000000000000000000000000000000000000000000000000000000000000000000000000000000000000000000000000000000000000000000000000000000000000000000000000000000000000000000000000000000000000000000000000000000000000000000000000000000000000000000000000000000000000000000000000000000000000000000000000000000000000000000000000000000000000000000000000000000000000000000000000000000000000000000000000000000000000000000000000000000000000000000000000000000000000000000000000000000000000000000000000000000000000000000000000000000000000000000000000000000000000000000000000000000000000000000000000000000000000000000000000000000000000000000000000000000000000000000000000000000000000000000000000000000000000000000000000000000000000000000000000000000000000000000000000000000000000000000000000000000000000000000000000000000000000000000000000000000000000000000000000000000000000000000000000000000000000000000000000000000000000000000000000000000000000000000000000000000000000000000000000000000000000000000000000000000000000000000000000000000000000000000000000000000000000000000000000000000000000000000000000000000000000000000000000000000000000000000000000000000000000000000000000000000000000000000000000000000000000000000000000000000000000000000000000000000000000000000000000000000000000000000000000000000000000000000000000000000000000000000000000000000000000000000000000000000000000000000000000000000000000000000000000000000000000000000000000000000000000000000000000000000000000000000000000000000000000000000000000000000000000000000000000000000000000000000000000000000000000000000000000000000000000000000000000000000000000000000000000000000000000000000000000000000000000000000000000000000000000000000000000000000000000000000000000000000000000000000000000000000000000000000000000000000000000000000000000000000000000000000000000000000000000000000000000000000000000000000000000000000000000000000000000000000000000000000000000000000000000000000000000000000000000000000000000000000000000000000000000000000000000000000000000000000000000000000000000000000000000000000000000000000000000000000000000000000000000000000000000000000000000000000000000000000000000000000000000000000000000000000000000000000000000000000000000000000000000000000000000000000000000000000000000000000000000000000000000000000000000000000000000000000000000000000000000000000000000000000000000000000000000000000000000000000000000000000000000000000000000000000000000000000000000000000000000000000000000000000000000000000000000000000000000000000000000000000000000000000000000000000000000000000000000000000000000000000000000000000000000000000000000000000000000000000000000000000000000000000000000000000000000000000000000000000000000000000000000000000000000000000000000000000000000000000000000000000000000000000000000000000000000000000000000000000000000000000000000000000000000000000000000000000000000000000000000000000000000000000000000000000000000000000000000000000000000000000000000000000000000000000000000000000000000000000000000000000000000000000000000000000000000000000000000000000000000000000000000000000000000000000000000000000000000000000000000000000000000000000000000000000000000000000000000000000000000000000000000000000000000000000000000000000000000000000000000000000000000000000000000000000000000000000000000000000000000000000000000000000000000000000000000000000000000000000000000000000000000000000000000000000000000000000000000000000000000000000000000000000000000000000000000000000000000005252220000000000000000000000000000000000000000000000000000000000000000000000000000000000000000000000000000000000000000000000000000000000000000000000000000000000000000000000000000000000000000000000000000000000000000000000000000000000000000000000
#0089b0:0012
#008970:000000000000000000000000000000000000000000000000000000000000000000000000000000000000000000000000000000000000000000000000000000000000000000000000000000000000000000000000000000000000000000000000000000000000000000000000000000000000000000000000000000000000000000000000000000000000000000000000000000000000000000000000000000000000000000000000000000000000000000000000000000000000000000000000000000000000000000000000000000000000000000000000000000000000000000000000000000000000000000000000000000000000000000000000000000000000000000000000000000000000000000000000000000000000000000000000000000000000000000000000000000000000000000000000000000000000000000000000000000000000000000000000000000000000000000000000000000000000000000000000000000000000000000000000000000000000000000000000000000000000000000000000000000000000000000000000000000000000000000000000000000000000000000000000000000000000000000000000000000000000000000000000000000000000000000000000000000000000000000000000000000000000000000000000000000000000000000000000000000000000000000000000000000000000000000000000000000000000000000000000000000000000000000000000000000000000000000000000000000000000000000000000000000000000000000000000000000000000000000000000000000000000000000000000000000000000000000000000000000000000000000000000000000000000000000000000000000000000000000000000000000000000000000000000000000000000000000000000000000000000000000000000000000000000000000000000000000000000000000000000000000000000000000000000000000000000000000000000000000000000000000000000000000000000000000000000000000000000000000000000000000000000000000000000000000000000000000000000000000000000000000000000000000000000000000000000000000000000000000000000000000000000000000000000000000000000000000000000000000000000000000000000000000000000000000000000000000000000000000000000000000000000000000000000000000000000000000000000000000000000000000000000000000000000000000000000000000000000000000000000000000000000000000000000000000000000000000000000000000000000000000000000000000000000000000000000000000000000000000000000000000000000000000000000000000000000000000000000000000000000000000000000000000000000000000000000000000000000000000000000000000000000000000000000000000000000000000000000000000000000000000000000000000000000000000000000000000000000000000000000000000000000000000000000000000000000000000000000000000000000000000000000000000000000000000000000000000000000000000000000000000000000000000000000000000000000000000000000000000000000000000000000000000000000000000000000000000000000000000000000000000000000000000000000000000000000000000000000000000000000000000000000000000000000000000000000000000000000000000000000000000000000000000000000000000000000000000000000000000000000000000000000000000000000000000000000000000000000000000000000000000000000000000000000000000000000000000000000000000000000000000000000000000000000000000000000000000000000000000005252220000000000000000000000000000000000000000000000000000000000000000000000000000000000000000000000000000000000000000000000000000000000000000000000000000000000000000000000000000000000000000000000000000000000000000000000000000000000000000000000000000000000000000000000000000000000000000000000000000000000000000000000000000000000000000000000000000000000000000000000000000000000000000000000000000000000000000000000000000000000000000000000000000000000000000000000000000000000000000000000000000000000000000000000000000000000000000000000000000000000000000000000000000000000000000000000000000000000000000000000000000000000000000000000000000000000000000000000000000000000000000000000000000000000000000000000000000000000000000000000000000000000000000000000000000000000000000000000000000000000000000000000000000000000000000000000000000000000000000000000000000000000000000000000000000000000000000000000000000000000000000000000000000000000000000000000000000000000000000000000
#008971:0012
#008931:000000000000000000000000000000000000000000000000000000000000000000000000000000000000000000000000000000000000000000000000000000000000000000000000000000000000000000000000000000000000000000000000000000000000000000000000000000000000000000000000000000000000000000000000000000000000000000000000000000000000000000000000000000000000000000000000000000000000000000000000000000000000000000000000000000000000000000000000000000000000000000000000000000000000000000000000000000000000000000000000000000000000000000000000000000000000000000000000000000000000000000000000000000000000000000000000000000000000000000000000000000000000000000000000000000000000000000000000000000000000000000000000000000000000000000000000000000000000000000000000000000000000000000000000000000000000000000000000000000000000000000000000000000000000000000000000000000000000000000000000000000000000000000000000000000000000000000000000000000000000000000000000000000000000000000000000000000000000000000000000000000000000000000000000000000000000000000000000000000000000000000000000000000000000000000000000000000000000000000000000000000000000000000000000000000000000000000000000000000000000000000000000000000000000000000000000000000000000000000000000000000000000000000000000000000000000000000000000000000000000000000000000000000000000000000000000000000000000000000000000000000000000000000000000000000000000000000000000000000000000000000000000000000000000000000000000000000000000000000000000000000000000000000000000000000000000000000000000000000000000000000000000000000000000000000000000000000000000000000000000000000000000000000000000000000000000000000000000000000000000000000000000000000000000000000000000000000000000000000000000000000000000000000000000000000000000000000000000000000000000000000000000000000000000000000000000000000000000000000000000000000000000000000000000000000000000000000000000000000000000000000000000000000000000000000000000000000000000000000000000000000000000000000000000000000000000000000000000000000000000000000000000000000000000000000000000000000000000000000000000000000000000000000000000000000000000000000000000000000000000000000000000000000000000000000000000000000000000000000000000000000000000000000000000000000000000000000000000000000000000000000000000000000000000000000000000000000000000000000000000000000000000000000000000000000000000000000000000000000000000000000000000000000000000000000000000000000000000000000000000000000000000000000000000000000000000000000000000000000000000000000000000000000000000000000000000000000000000000000000000000000000000000000000000000000000000000000000000000000000000000000000000000000000000000000000000000000000000000000000000000000000000000000000000000000000000000000000000000000000000000000000000000000000000000000000000000000000000000000000000000000000000000000000000000000000000000000000000000000000000000000000000000000000000000000000000000000000000000000005252220000000000000000000000000000000000000000000000000000000000000000000000000000000000000000000000000000000000000000000000000000000000000000000000000000000000000000000000000000000000000000000000000000000000000000000000000000000000000000000000000000000000000000000000000000000000000000000000000000000000000000000000000000000000000000000000000000000000000000000000000000000000000000000000000000000000000000000000000000000000000000000000000000000000000000000000000000000000000000000000000000000000000000000000000000000000000000000000000000000000000000000000000000000000000000000000000000000000000000000000000000000000000000000000000000000000000000000000000000000000000000000000000000000000000000000000000000000000000000000000000000000000000000000000000000000000000000000000000000000000000000000000000000000000000000000000000000000000000000000000000000000000000000000000000000000000000000000000000000000000000000000000000000000000000000000000000000000000000000000000
#009971:00130000
#009991:000000000000000000000000000000000000000000000000002300000000000000000000000000000000000000000000000000000000000000000000000000000000000000000000000000000000000000000000000000000000000000000000
#009991:00000013
#0099b1:000000000000000000000000000000000000000000000000000000000000000000000000000000000000000000000000000000000000000000000000000000000000000000000000002300000000000000000000000000000000000000000000
#010961:00130000
#010941:000000000000000000000000000000000000000000000000002300000000000000000000000000000000000000000000000000000000000000000000000000000000000000000000000000000000000000000000000000000000000000000000
#010941:00000013
#010921:000000000000000000000000000000000000000000000000000000000000000000000000000000000000000000000000000000000000000000000000000000000000000000000000002300000000000000000000000000000000000000000000
#0119b1:00130000
#011991:000000000000000000000000000000000000000000000000002300000000000000000000000000000000000000000000000000000000000000000000000000000000000000000000000000000000000000000000000000000000000000000000
#011991:00000013
#011971:000000000000000000000000000000000000000000000000000000000000000000000000000000000000000000000000000000000000000000000000000000000000000000000000002300000000000000000000000000000000000000000000
#012921:00130000
#012941:000000000000000000000000000000000000000000000000002300000000000000000000000000000000000000000000000000000000000000000000000000000000000000000000000000000000000000000000000000000000000000000000
#013961:00130000
#013941:000000000000000000000000000000000000000000000000002300000000000000000000000000000000000000000000000000000000000000000000000000000000000000000000000000000000000000000000000000000000000000000000
#013971:00000013
#013991:000000000000000000000000000000000000000000000000000000000000000000000000000000000000000000000000000000000000000000000000000000000000000000000000002300000000000000000000000000000000000000000000
#024921:130000000000000000000000000000000000000000000000000000000000000000000000000000000000000000000000000000000000000000000000000000000000000000000000000000000000000000000000000000000000000000000000000000000000000000000000000000000000000000000000000000000000000000000000000000000000000000000000000000000000000000000000000000000000000000000000000000000000000000000000000000000000000000000000000000000000000000000000000000000000000000000000000000000000000000000000000000000000000000000000000000000000000000000000000000000000000000000000000000000000000000000000000000000000000000000000000000000000000000000000000000000000000000000000000000000000000000000000000000000000000000000000000000000000000000000000000000000000000000000000000000000000000000000000000000000000000000000000000000000000000000000000000000000000000000000000000000000000000000000000000000000000000000000000000000000000000000000000000000000000000000000000000000000000000000000000000000000000000000000000000000000000000000000000000000000000000000000000000000000000000000000000000000000000000000000000000000000000000000000000000000000000000000000000000000000000000000000000000000000000000000000000000000000000000000000000000000000000000000000000000000000000000000000000000000000000000000000000000000000000000000000000000000000000000000000000000000000000000000000000000000000000000000000000000000000000000000000000000000000000000000000000000000000000000000000000000000000000000000000000000000000000000000000000000000000000000000000000000000000000000000000000000000000000000000000000000000000000000000000000000000000000000000000000000000000000000000000000000000000000000000000000000000000000000000000000000000000000000000000000000000000000000000000000000000000000000000000000000000000000000000000000000000000000000000000000000000000000000000000000000000000000000000000000000000000000000000000000000000000000000000000000000000000000000000000000000000000000000000535353230000000000000000000000000000000000000000000000000000000000000000000000000000000000000000000000000000000000000000000000000000000000000000000000000000000000000000000000000000000000000000000000000000000000000000000000000000000000000000000000000000000000000000000000000000000000000000000000000000000000000000000000000000000000000000000000000000000000000000000000000000000000000000000000000000000000000000000000000000000000000000000000000000000000000000000000000000000000000000000000000000000000000000000000000000000000000000000000000000000000000000000000000000000000000000000000000000000000000000000000000000000000000000000000000000000000000000000000000000000000000000000000000000000000000000000000000000000000000000000000000000000000000000000000000000000000000000000000000000000000000000000000000000000000000000000000000000000000000000000000000000000000000000000000000000000000000000000000000000000000000000000000000000000000000000000000000000000000000000000000000000000000000000000000000000000000000000000000000000000000000000000000000000000000000000000000000000000000000000000000000000000000000000000000000000000000000000000000000000000000000000000000000000000000000000000000000000000000000000000000000000000000000000000000000000000000000000000000000000000000000000000000000000000000000000000000000000000000000000000000000000000000000000000000000000000000000000000000000000000000000000000000000000000000000000000000000000000000000000000000000000000000000000000000000000000000000000000000000000000000000000000000000000000000000000000000000000000000000000000000000000000000000000000000000000000000000000000000000000000000000000000000000000000000000000000000000000000000000000000000000000000000000000000000000000000000000000000000000000000000000000000000000000000000000000000000000000000000000000000000000000000000000000000000000000000000000000000000000000000000000000000000000000000000000000000000000000000000000000000000
#024961:00530000
#046961:12
#046931:000000000000000000000000000000000000000000000000000000000000000000000000000000000000000000000000000000000000000000000000000000000000000000000000000000000000000000000000000000000000000000000000000000000000000000000000000000000000000000000000000000000000000000000000000000000000000000000000000000000000000000000000000000000000000000000000000000000000000000000000000000000000000000000000000000000000000000000000000000000000000000000000000000000000000000000000000000000000000000000000000000000000000000000000000000000000000000000000000000000000000000000000000000000000000000000000000000000000000000000000000000000000000000000000000000000000000000000000000000000000000000000000000000000000000000000000000000000000000000005252220000000000000000000000000000000000000000000000000000000000000000000000000000000000000000000000000000000000000000000000000000000000000000000000000000000000000000000000000000000000000000000000000000000000000000000000000000000000000000000000000000000000000000000000000000000000000000000000000000000000000000000000000000000000000000000000000000000000000000000000000000000000000000000000000000000000000000000000000000000000000000000000000000000000000000000000000000000000000000000000000000000000000000000000000000000000000000000000000000000000000000000000000000000000000000000000000000000000000000000000000000000000000000000000000000000000000000000000000000000000000000000000000000000000000000000000000000000000000000000000000000000000000000000000000000000000000000000000000000000000000000000000000000000000000000000000000000000000000000000000000000000000000000000000000000000000000000000000000000000000000000000000000000000000000000000000000000000000000000000000000000000000000000000000000000000000000000000000000000000000000000000000000000000000000000000000000000000000000000000000000000000000000000000000000000000000000000000000000000000000000000000000000000000000000000000000000000000000000000000000000000000000000000000000000000000000000000000000000000000000000000000000000000000000000000000000000000000000000000000000000000000000000000000000000000000000000000000000000000000000000000000000000000000000000000000000000000000000000000000000000000000000000000000000000000000000000000000000000000000000000000000000000000000000000000000000000000000000000000000000000000000000000000000000000000000000000000000000000000000000000000000000000000000000000000000000000000000000000000000000000000000000000000000000000000000000000000000000000000000000000000000000000000000000000000000000000000000000000000000000000000000000000000000000000000000000000000000000000000000000000000000000000000000000000000000000000000000000000000000000000000000000000000000000000000000000000000000000000000000000000000000000000000000000000000000000000000000000000000000000000000000000000000000000000000000000000000000000000000000000000000000000000000000000000000000000000000000000000000000000000000000000000000000000000000000000000000000000000000000000000000000000000000000000000000000000000000000000000000000000000000000000000000000000000000000000000000000000000000000000000000000000000000000000000000000000000000000000000000000000000000000000000000000000000000000000000000000000000000000000000000000000000000000000000000000000000000000000000000000000000000000000000000000000000000000000000000000000000000000000000000000000000000000000000000000000000000000000000000000000000000000000000000000000000000000000000000000000000000000000000000000000000000000000000000000000000000000000000000000000000000000000000000000000000000000000000000000000000000000000000000000000000000000000000000000000000000000000000000000000000000000000000000000000000000000000000000000000000000000000000000000000000000000000000000000000000000000000000000000000000000000000000000000000000000000000000000000000000000000000000000000000000000000000000000000000000000000000000000000000
#046981:00120000
#0469b1:000000000000000000000000000000000000000000000000000000000000000000000000000000000000000000000000000000000000000000000000000000000000000000000000000000000000000000000000000000000000000000000000000000000000000000000000000000000000000000000000000000000000000000000000000000000000000000000000000000000000000000000000000000000000000000000000000000000000000000000000000000000000000000000000000000000000000000000000000000000000000000000000000000000000000000000000000000000000000000000000000000000000000000000000000000000000000000000000000000000000000000000000000000000000000000000000000000000000000000000000000000000000000000000000000000000000000000000000000000000000000000000000000000000000000000000000000000000000000000000000000000000000000000000000000000000000000000000000000000000000000000000000000000000000000000000000000000000000000000000000000000000000000000000000000000000000000000000000000000000000000000000000000000000000000000000000000000000000000000000000000000000000000000000000000000000000000000000000000000000000000000000000000000000000000000000000000000000000000000000000000000000000000000000000000000000000000000000000000000000000000000000000000000000000000000000000000000000000000000000000000000000000000000000000000000000000000000000000000000000000000000000000000000000000000000000000000000000000000000000000000000000000000000000000000000000000000000000000000000000000000000000000000000000000000000000000000000000000000000000000000000000000000000000000000000000000000000000000000000000000000000000000000000000000000000000000000000000000000000000000000000000000000000000000000000000000000000000000000000000000000000000000000000000000000000000000000000000000000000005252220000000000000000000000000000000000000000000000000000000000000000000000000000000000000000000000000000000000000000000000000000000000000000000000000000000000000000000000000000000000000000000000000000000000000000000000000000000000000000000000000000000000000000000000000000000000000000000000000000000000000000000000000000000000000000000000000000000000000000000000000000000000000000000000000000000000000000000000000000000000000000000000000000000000000000000000000000000000000000000000000000000000000000000000000000000000000000000000000000000000000000000000000000000000000000000000000000000000000000000000000000000000000000000000000000000000000000000000000000000000000000000000000000000000000000000000000000000000000000000000000000000000000000000000000000000000000000000000000000000000000000000000000000000000000000000000000000000000000000000000000000000000000000000000000000000000000000000000000000000000000000000000000000000000000000000000000000000000000000000000000000000000000000000000000000000000000000000000000000000000000000000000000000000000000000000000000000000000000000000000000000000000000000000000000000000000000000000000000000000000000000000000000000000000000000000000000000000000000000000000000000000000000000000000000000000000000000000000000000000000000000000000000000000000000000000000000000000000000000000000000000000000000000000000000000000000000000000000000000000000000000000000000000000000000000000000000000000000000000000000000000000000000000000000000000000000000000000000000000000000000000000000000000000000000000000000000000000000000000000000000000000000000000000000000000000000000000000000000000000000000000000000000000000000000000000000000000000000000000000000000000000000000000000000000000000000000000000000000000000000000000000000000000000000000000000000000000000000000000000000000000000000000000000000000000000000000000000000000000000000000000000000000000000000000000000000000000000000000000000000000000000000000000000000000000000000000000000000000000000000000000000000000000000000000000000000000000000000000000000000000000000000000000000000000000000000000000000000000000000000000000000000000000000000000000000000000000000000000000000000
#055951:14
#057921:21
