This file was generated by Ched 2.7.0.0.
#TITLE ""
#ARTIST ""
#DESIGNER ""
#DIFFICULTY 0
#PLAYLEVEL
#SONGID ""
#WAVE ""
#WAVEOFFSET 0
#JACKET ""
#REQUEST "ticks_per_beat 480"
#00002: 4
#BPM01: 135
#00008: 01
#TIL00: ""
#VOLUME: ""
#HISPEED 00
#MEASUREHS 00
#02215:1300001300001300
#02218:0000130000000013
#0221b:0013
#02212:0013000000000000
#00012:00000013
#00015:0000000000000013
#00115:0000001300000000
#00118:0000000000000013
#00215:0000000000130000
#00218:13000013
#0021b:0000130000000013
#00318:0000001300000000
#00315:0000000000000013
#00415:1300000000000013
#00412:00130000
#00418:00000013
#00410:41
#0051b:1300000000000013
#00512:0000001313000000
#0061b:1300000000000013
#00618:00130013
#00615:0000000000130000
#00812:13
#00815:00130013
#0081b:13
#00818:0000130000000013
#0071b:0000001313000000
#00712:13
#00718:00000013
#00912:13
#00915:00130000
#00918:0013
#0091b:00000013
#00910:41
#01012:0000000000130000
#01015:1300000000000013
#01018:00230023
#01218:13
#01215:00230023
#01118:0013000000000000
#01115:0000000000130000
#0111b:23
#01112:0023
#01315:0013
#0131b:13
#01418:0000230000000013
#01415:0023
#01412:00000023
#01515:13
#01512:00130000
#0151b:00000013
#01518:0023
#01617:0013000000000000
#01712:24000013
#01715:0000000000000013
#01714:00140000
#01718:0014
#0171f:11
#0171a:24
#01818:1300001300001300
#0181b:0013000000000000
#01815:0000130000000013
#01812:0013
#0191b:1313
#01918:0013000000000000
#01915:00130000
#01912:0000001300001300
#02015:13000013
#02018:13000013
#0201b:0013
#02012:0013
#02118:0000000000000013
#0211b:00000013
#02114:00232300
#02119:00232300
#02412:1400000000000014
#0241a:00000014
#03018:0000000000160000
#03012:0000000000160000
#03015:0016000000000000
#0301a:0022
#03014:0022
#03017:22
#03116:13
#03114:00130000
#03112:0000000000000013
#03117:0023
#0311b:23
#03119:00230000
#0321a:24000014
#03212:0000000024000014
#03216:00240000
#03317:24140000
#0331a:00000014
#03312:00140000
#03315:00000024
#03310:41
#03417:14
#0341a:0000140000000014
#03415:00140000
#03412:14000014
#03515:14140000
#03512:00000014
#0351a:00140000
#03517:00000024
#03615:14
#03612:0000140000000014
#03617:00140000
#0361a:14000014
#03717:1400001400000000
#0371a:0000140014000014
#03815:1400001400000000
#03812:0000140014000014
#0391a:14
#03912:0000001400000000
#03917:0014
#04015:14
#04017:0014
#04014:0000000000000014
#04010:41
#04215:0000343414000000
#04212:24
#0421a:0024
#0451a:14
#04515:24
#0471a:00140000
#04716:0014
#04712:26000014
#04710:41
#04812:00140000
#04816:0014
#0481a:00000014
#04818:16
#04912:16000016
#04918:00160000
#04915:0016
#05012:14141400
#0501a:24242400
#05014:00000024
#05018:0000000000000024
#02512:00140000
#0251a:00000014
#02517:24
#0251f:21
#02617:14
#0261a:0000140000000014
#02615:00140000
#02612:24000014
#02610:41
#0271a:00140000
#02712:00000014
#02715:14
#02815:14
#02812:0000140000000014
#02817:00140000
#0281a:24000014
#02912:0000000000160000
#02918:0016000000000000
#02914:0022
#0291a:22
#0411a:24
#04112:0024
#04117:0000343400000000
#0431a:00240000
#04316:0024
#04312:00000024
#0441a:24
#04412:00240000
#04417:0024
#05112:26
#0511a:00240000
#05318:24
#05512:26
#05214:24
#0461b:00333333333333330000000000000000
#04616:00333333333333330000000000000000
#05712:82
#01558:0063
#01555:63
#01552:00230000
#0155b:00000063
#00455:53
#00452:00230000
#00258:63
#0025b:00230000
#0065b:53
#00658:00230000
#00852:63
#00855:00230000
#0085b:63
#00858:00230000
#0055b:63
#00552:0063
#00752:53
#0075b:0053
#00758:00000063
#01258:13
#01255:00000013
#01055:13
#01158:0023000000000000
#0115b:63
#01155:0000000000230000
#01152:0053
#01355:0063
#0135b:63
#01452:13
#01657:0023000000000000
#01852:0013
#0195b:0013
#01952:00000013
#02055:63000053
#02058:53000063
#0205b:0053
#02052:0063
#01754:00140000
#01758:0014
#0215b:13
#02152:13
#0225b:0013
#02456:0014
#02452:64
#0305a:00002212
#03058:0000000000660000
#03052:0000000000660000
#03054:00002212
#03055:0056000000000000
#03057:22120000
#03357:14540000
#0335a:00001464
#03355:00001454
#03352:00540000
#03457:54
#0345a:00240000
#03455:00240000
#03452:64
#03555:14640000
#03552:00001454
#0355a:00640000
#03557:00001464
#03655:64
#03652:00240000
#03657:00240000
#0365a:54
#03757:6400002400000000
#0375a:00646400
#03855:5400002400000000
#03852:00545400
#0395a:64000014
#03957:0064
#04055:54
#04052:00140000
#04057:0064
#0405a:00000014
#0415a:64
#04255:0064
#04252:64
#04457:0064
#0445a:14
#0455a:64
#04555:64
#04656:0013
#0465b:0013
#04858:16
#04952:16
#05152:16
#04752:16
#0545a:00000014
#05552:66
#04352:14
#02552:00540000
#0255a:00000064
#02557:14
#02555:0014
#02657:54
#0265a:00240000
#02655:00240000
#02652:54
#0275a:00640000
#02752:00000054
#02755:14
#02757:0014
#02855:64
#02852:00240000
#02857:00240000
#0285a:64
#02952:0000000000660000
#02958:0066000000000000
#02954:00002212
#0295a:22120000
#001380:13230000
#001350:00001323
#002380:1323
#0023b0:00530000
#003350:13230000
#003380:00001323
#004350:1323
#004320:00530000
#0053b0:13
#005380:00230000
#005320:0013
#005350:00000023
#0063b0:1323
#006380:00530000
#007320:13
#007350:00230000
#0073b0:0013
#007380:00000033
#0083b0:3323
#008380:00530000
#008321:1323
#008351:00530000
#0113b1:13230000
#011381:0053000000000000
#011321:00001323
#011351:0000000000530000
#0133b1:13
#013381:0023
#013350:0013
#014320:23
#015350:1323
#015320:00330000
#015381:0013
#0153b1:00000033
#016371:0053000000000000
#0163b1:0023
#020351:13000033
#020321:0000003333000000
#021321:23
#020380:13000033
#0203b0:0000003333000000
#0213b0:23
#023320:13230000
#023381:00132300
#023350:00001323
#0233b1:00000013
#0243b1:23
#024320:14
#024360:0024
#025320:00140000
#025350:0024
#0253a0:00000014
#026370:3424
#0263a0:00540000
#026321:1424
#026351:00540000
#0273a1:00140000
#027371:0024
#027321:00000014
#028351:3424
#028321:00540000
#0283a0:1424
#028370:00540000
#0293a0:12220000
#029380:0056000000000000
#029340:00001222
#029320:0000000000560000
#030370:12220000
#030350:0056000000000000
#0303a0:00001222
#030380:0000000000560000
#030341:00001222
#030321:0000000000560000
#031321:00001323
#031370:00001323
#033370:00140000
#0333a0:0024
#033321:00140000
#033351:0024
#0333a1:00000014
#034371:3424
#0343a1:00540000
#033350:00000014
#034320:3424
#034350:00540000
#035350:00140000
#035320:0024
#0353a1:00140000
#035371:0024
#035321:00000014
#036351:3424
#036321:00540000
#035370:00000014
#0363a0:3424
#036370:00540000
#037370:1400005400002400
#0373a0:00343400
#038350:1400005400002400
#038320:00343400
#0393a0:14
#039370:00240000
#039370:0014
#0393a0:00000024
#040350:14
#040320:00240000
#040370:0014
#0403a0:00000024
#0413a0:14
#041370:0000343434000034
#042370:24
#042321:14
#042351:0000343434000000
#043321:24
#044371:0014
#0443a1:0000000000000034
#0453a1:34
#046371:33
#0463b1:00333333333333332300000000000000
#045350:14
#046320:33
#046360:00333333333333332300000000000000
#0513a0:00140034
#051380:0034
#052380:24
#052341:1434
#052321:00340034
#053341:24
#053380:1434
#0533a0:00340034
#0543a0:00003400003400003400003424000000
#055320:16
#057320:22
