This file was generated by Ched 2.7.0.0.
#TITLE ""
#ARTIST ""
#DESIGNER ""
#DIFFICULTY 0
#PLAYLEVEL
#SONGID ""
#WAVE ""
#WAVEOFFSET 0
#JACKET ""
#REQUEST "ticks_per_beat 480"
#00002: 4
#BPM01: 135
#00008: 01
#TIL00: ""
#VOLUME: ""
#HISPEED 00
#MEASUREHS 00
#0071a:14
#00718:00140000
#00812:14
#00814:00140000
#0091a:14
#00914:00140000
#00918:0014
#00912:00000014
#00910:41
#01112:14
#01118:00140000
#01114:0014
#0111a:00000014
#01318:14
#0131a:0014
#01414:0014
#01514:14
#01512:0014
#01618:0014
#01818:1414
#01814:00140000
#02014:1414
#02018:00140000
#02112:14
#0221a:14
#02216:00140000
#02212:0014
#0231a:14
#02412:14
#02416:00140000
#0241a:0014
#02512:26160000
#02518:00001616
#0251f:21
#02612:16
#02614:0000001600000000
#02610:41
#02718:16160000
#02712:00001616
#02818:16
#02816:0000001600000000
#02912:16160016
#02918:0016
#03018:16160000
#03318:16160000
#03312:00001616
#03310:41
#03418:16
#03416:0000001600000000
#03512:16160000
#03518:00001616
#03612:16
#03614:0000001600000000
#0371a:1414
#03714:00140000
#03812:1414
#03818:00140000
#0391a:14
#03914:00140000
#03918:0014
#03912:00000014
#04018:14
#04014:00140000
#0401a:0014
#04010:41
#04312:14
#04318:00140000
#04314:0014
#0431a:00000014
#04414:14000014
#04418:00140000
#04412:0000000014000034
#04512:14
#0471a:1414
#04714:00140014
#04710:41
#04912:1414
#04918:00140014
#05118:26160000
#05112:00001616
#05218:1616
#05212:00160016
#05318:16160000
#05312:00001616
#05518:16
#0171f:11
#0311a:24
#03116:00240000
#03112:0024
#03218:26
#03215:00260000
#03212:0026
#05012:24
#05418:26
#00410:41
#0571b:63
#0075a:64
#00758:00240000
#00852:54
#00854:00240000
#01358:64
#0135a:0064
#01554:54
#01552:0054
#02152:64
#0235a:54
#0245a:0014
#02652:66
#02654:0000002600000000
#02858:56
#02856:0000002600000000
#03458:56
#03456:0000002600000000
#03652:66
#03654:0000002600000000
#04152:0014
#0425a:0014
#04454:00000024
#04452:0064
#04552:64
#05052:00000014
#05558:66
#0013a0:1424
#002320:1424
#0033a0:14
#003380:0024
#004320:14
#004340:0024
#005380:14
#0053a0:0024
#006340:14
#006320:0024
#0073a0:1424
#007380:00540000
#008320:1424
#008340:00540000
#0103a0:1424
#012320:1424
#013380:14
#0133a0:0034
#014380:24
#015340:14
#015320:0034
#016340:24
#017320:1424
#0193a0:1424
#021320:14
#021340:0024
#0233a0:14
#023380:0024
#026320:16000026
#026340:0000005600000000
#028380:16000026
#028360:0000005600000000
#030320:00001626
#034380:16000026
#034360:0000005600000000
#036320:16000026
#036340:0000005600000000
#041320:1424
#0423a0:1424
#044320:0000000014000034
#044340:00000054
#045320:34
#046350:24
#0483a0:14000024
#050320:14343424
#054380:16000036
#055380:36
#0573b0:23
