This file was generated by Ched 2.7.0.0.
#TITLE ""
#ARTIST ""
#DESIGNER ""
#DIFFICULTY 0
#PLAYLEVEL
#SONGID ""
#WAVE ""
#WAVEOFFSET 0
#JACKET ""
#REQUEST "ticks_per_beat 480"
#00002: 4
#BPM01: 108
#00008: 01
#TIL00: ""
#VOLUME: ""
#HISPEED 00
#MEASUREHS 00
#0051a:14
#00612:14
#00712:14
#00918:14
#00910:41
#01014:14
#01114:14
#02012:14
#0201a:14
#0201f:11
#02118:14
#0221a:14
#02212:14
#02314:14
#02418:0014
#0241a:14
#02412:14
#02514:14
#02518:0014
#0261a:14
#02612:14
#02614:0014
#02812:0016
#02818:26
#0281f:21
#02810:0041
#02918:1616
#03012:16
#03018:0016
#03112:1616
#03212:0016
#03218:26
#03412:16
#03418:0016
#03618:14
#03714:14
#03818:14
#03810:41
#03914:14
#04012:0014
#0401a:24
#04218:16
#04212:0016
#02718:14
#02714:0014
#0411a:14
#04112:0014
#04318:16
#00818:24
#0041a:24
#00410:41
#01910:41
#01410:41
#0003a0:14
#0013a0:24
#002320:14
#003320:24
#0123a0:14
#0133a0:24
#014320:14
#015320:24
#016380:14
#017380:24
#018340:14
#019340:24
#033380:1626
#035320:1626
#043320:0000000016000026
