This file was generated by Ched 2.7.0.0.
#TITLE ""
#ARTIST ""
#DESIGNER ""
#DIFFICULTY 0
#PLAYLEVEL
#SONGID ""
#WAVE ""
#WAVEOFFSET 0
#JACKET ""
#REQUEST "ticks_per_beat 480"
#00002: 4
#BPM01: 160
#BPM02: 190
#00008: 01
#06908: 01
#04808: 02
#TIL00: "87'1438:1, 87'1437:10000"
#VOLUME: ""
#HISPEED 00
#MEASUREHS 00
#00518:16
#00612:16
#00712:16
#00818:16
#00918:16
#01012:16
#01112:16
#01314:14
#0141a:14
#01514:14
#01618:14
#01712:14
#01818:14
#01912:14
#02118:16
#02212:16
#02312:16
#02418:14
#02410:41
#02514:14
#02618:14
#02714:14
#0281a:14
#02912:14
#0301a:14
#03112:14
#04112:2616
#04110:41
#04218:1616
#04312:1616
#04518:1616
#04612:1616
#04718:1616
#05318:14
#05414:14
#05514:14
#0561a:14
#0571a:14
#05812:14
#05912:14
#07412:2414
#0741f:21
#0751a:1414
#07510:41
#07614:14
#07618:0014
#07818:14
#07814:0014
#0811a:14
#04018:16
#0611f:0000000000000011
#06112:0000000000000026
#06118:26
#08012:14
#00418:26
#00410:41
#0121a:24
#01210:41
#02018:26
#04818:26
#05012:26
#05218:24
#05210:41
#07012:26
#07114:26
#07216:26
#07318:26
#08212:00000000000000000000000000000026
#08318:0026
#06518:0000000000000026
#06018:26
#032380:14
#033380:24
#034340:14
#035340:24
#0363a0:14
#0373a0:24
#038320:14
#039320:24
#044320:1626
#048380:16
#049380:26
#050320:16
#051320:26
#061320:0000000000000016
#062330:0000000000000036
#063320:0000000000000036
#065320:26
#065380:0000000000000016
#067370:36
#067380:0000000000000036
#069380:26
#077340:1424
#079380:1424
#083380:0016
#087390:00240000
#0879d0:000000000000000000000000000000000000000000000000000000000000000000000000000000000000000000000000000000000000000000000000000000000000000000000000000000000000000000000000000000000000000000000000000000000000000000000000000000000000000000000000000000000000000000000000000000000000000000000000000000000000000000000000000000000000000000000000000000000000000000000000000000000000000000000000000000000000000000000000000000000000000000000000000000000000000000000000000000000000000000000000000000000000000000000000000000000000000000000000000000000000000000000000000000000000000000000000000000000000000000000000000000000000000000000000000000000000000000000000000000000000000000000000000000000000000000000000000000000000000000000000000000000000000000000000000000000000000000000000000000000000000000000000000000000000000000000000000000000000000000000000000000000000000000000000000000000000000000000000000000000000000000000000000000000000000000000000000000000000000000000000000000000000000000000000000000000000000000000000000000000000000000000000000000000000000000000000000000000000000000000000000000000000000000000000000000000000000000000000000000000000000000000000000000000000000000000000000000000000000000000000000000000000000000000000000000000000000000000000000000000000000000000000000000000000000000000000000000000000000000000000000000000000000000000000000000000000000000000000000000000000000000000000000000000000000000000000000000000000000000000000000000000000000000000000000000000000000000000000000000000000000000000000000000000000000000000000000000000000000000000000000000000000000000000000000000000000000000000000000000000000000000000000000000000000000000000000000000000000000000000000000000000000000000000000000000000000000000000000000000000000000000000000000000000000000000000000000000000000000000000000000000000000000000000000000000000000000000000000000000000000000000000000000000000000000000000000000000000000000000000000000000000000000000000000000000000000000000000000000000000000000000000000000000000000000000000000000000000000000000000000000000000000000000000000000000000000000000000000000000000000000000000000000000000000000000000000000000000000000000000000000000000000000000000000000000000000000000000000000000000000000000000000000000000000000000000000000000000000000000000000000000000000000000000000000000000000000000000000000000000000000000000000000000000000000000000000000000000000000000000000000000000000000000000000000000000000000000000000000000000000000000000000000000000000000000000000000000000000000000000000000000000000000000000000000000000000000000000000000000000000000000000000000000000000000000000000000000000000000000000000000000000000000000000000000000000000000000000000000000000000000000000000000000000000000000000000000000000000000000000000000000000000000000000000000000000000000000000000000000000000000000000000000000000000000000000000000000000000000000001121000000000000000000000000000000000000000000000000000000000000000000000000000000000000000000000000000000000000000000000000000000000000000000000000000000000000000000000000000000000000000000000000000000000000000000000000000000000000000000000000000000000000000000000000000000000000000000000000000000000000000000000000000000000000000000000000000000000000000000000000000000000000000000000000000000000000000000000000000000000000000000000000000000000000000000000000000000000000000000000000000000000000000000000000000000000000000000000000000000000000000000000000000000000000000000000000000000000000000000000000000000000000000000000000000000000000000000000000000000000000000000000000000000000000000000000000000000000000000000000000000000000000000000000000000000000000000000000000000000000000000000000000000000000000000000000000000000000000000000000000000000000000000000000000000000000000000000000000000000000000000000000000000000000000000000000000000000000000000000000000
