This file was generated by Ched 2.7.0.0.
#TITLE ""
#ARTIST ""
#DESIGNER ""
#DIFFICULTY 0
#PLAYLEVEL
#SONGID ""
#WAVE ""
#WAVEOFFSET 0
#JACKET ""
#REQUEST "ticks_per_beat 480"
#00002: 4
#BPM01: 160
#BPM02: 190
#00008: 01
#06908: 01
#04808: 02
#TIL00: "87'1438:1, 87'1437:10000"
#VOLUME: ""
#HISPEED 00
#MEASUREHS 00
#00018:14
#0001a:0014
#02115:0013001300001300
#02118:0000130000000013
#0211b:0000000000130000
#02212:1400000000130000
#02215:00130000
#02218:0000000013000025
#0221b:00130000
#03215:13
#03212:0024
#04914:0014
#04918:00000014
#07715:14
#0771a:14
#07712:0024
#07717:0024
#00118:14
#00214:14
#00212:0014
#00314:14
#00415:0000130000130000
#00418:0013
#0041a:2400000000000014
#00412:2400000000000014
#00410:41
#00518:0000130000000013
#00515:0013001300001300
#0051b:0000000000130000
#00618:0000130000130000
#00615:0013
#00612:1300000000000014
#0061a:0000000000000014
#00818:0013
#00815:0000000000130000
#0081b:13
#00812:0000140000000014
#0081a:0000140000000014
#00918:00130013
#00915:0013001300000013
#0091b:0013
#00912:0000000000130000
#01512:13
#01518:0013000000000000
#01514:00130000
#0151a:0000001300000000
#01516:0013
#0161b:13130013
#01616:0013000000000013
#01612:0000001300130000
#01617:0013
#01712:0000001400000000
#01715:0000000000140000
#0171a:14
#01818:0013000000000000
#01815:00130000
#0181b:0000001300000000
#01812:00000013
#01817:0000000000000013
#01914:13
#01919:0013000000000000
#01916:00130000
#0191b:0000001300000000
#01917:00000023
#02018:00130000
#02015:0013
#0201b:0000000000130000
#02012:2400130000000014
#0201a:2400000000000014
#02515:0013000013005300
#02518:00130000
#0251b:0000001300000000
#02512:0000000000530053
#0271b:1313
#02715:0013000000000000
#02718:0000130000130000
#02712:0000001300000000
#02812:13130013
#02817:0013000000000013
#0281b:0000001300130000
#02816:0013
#03318:13
#0331a:0024
#03418:13
#0341a:0024
#03412:23
#03718:13000013
#03715:1300000000000013
#0371a:0024
#03712:0024
#03818:0000001300001300
#03815:0000130000000013
#0381a:24
#03812:0024
#04212:0013
#04215:0000000000130000
#04218:00000013
#0421b:0000000000000013
#0421a:0024002400000000
#04312:1313
#04318:0013000000000000
#04315:00130000
#0431b:0000001300000000
#04316:00000000000000000000001300000000
#04418:00130000
#04415:0000001300000000
#0441b:0013000013000000
#04417:0000000000130000
#04419:00000013
#04518:00130000
#04515:0013000000000000
#0451b:0000001300000013
#04516:0000000013000013
#04512:00000000000000000000001300000000
#05215:00001313
#05218:0000000000130013
#0521a:24
#05210:41
#05312:0013000000130000
#05318:0000130013000013
#05315:00000000000013000000000000000013
#05618:0013
#05615:0000000000130000
#0561b:00000013
#05612:2400000000000013
#05716:0013000000000000
#05719:00130000
#05714:0000001300000000
#05717:0013
#05712:0000000000130000
#0571b:1300000000000013
#06215:0013001300000000
#0621b:00130000
#06218:00001313
#06212:0000000000130013
#0631b:0013000000001300
#06315:00130000
#06318:0000001300000000
#06312:0000000013000026
#06418:0013001300130000
#06415:00130013
#06412:0013
#0641b:0000000000000013
#06512:14
#06516:0000001400000000
#06518:0000000000000026
#06514:00343434343400343434343400000000
#06612:0013000000130000
#06615:0000001300000013
#06618:00242424
#06712:0013000000131300
#06715:0000001300000000
#06717:00000000000000000000001300000000
#06718:2400240024000026
#06815:0013001300000000
#06818:00130000
#0681b:00001313
#06812:0000000000130013
#0751b:00131300
#07517:00000000000000000000331300000000
#07516:0000001300000000
#07510:41
#07818:00001424
#07814:0000000000140000
#00715:0000130000000013
#00718:0013001300001300
#00712:0000000000130000
#01218:00000013000000000000000000000000
#01215:00130000
#0121b:0000001300000000
#01212:1400000024000014
#0121a:14000024
#01216:0000000000240000
#01210:41
#01317:0013000000000000
#01315:00001313
#01318:00000053000000000000130000000000
#0131a:00000000005300000000000000001400
#01319:00530000
#0131b:0000005300000000
#01416:0013000000000000
#01418:0013
#0141b:00000000000000000000001300000000
#01415:00000053000000000000000000000000
#01414:00530000
#01413:00000000005300000000000000000000
#01412:0000005300000000
#02315:0000000000000013
#02313:25250000
#02318:0025002500000000
#02418:00131353
#02415:0000001300000000
#02412:26
#02410:41
#0241b:0000000000530053
#02615:0013
#02612:00000000000000000000001300000000
#02617:0013000000000000
#02618:00000053000000000000000000000000
#02619:00530000
#0261a:00000000005300000000000000000000
#0261b:0000005300000000
#0291a:0000001400000000
#02917:0000000000140000
#02912:14
#03015:0013000013000013
#03018:00130000
#03012:0000001300000000
#0301b:00000013
#03115:00000013
#03118:0000000000000013
#0311b:0033333300000000
#03515:13
#0351b:23
#03512:000000000000003434343434
#03518:000000000000003434343434
#0411b:0013
#04118:0000000000130000
#04115:24000013
#04112:0000240000000013
#0411a:24
#04117:00240000
#04110:41
#04617:0000001300000000
#04612:00132400
#04616:00000000000000000000002400000000
#0461a:0000000000000024
#04715:00000016
#04712:2616
#04718:00260000
#05518:00130000
#0551b:13
#05512:0013000000000000
#05515:0000001300000000
#0541b:1313
#05412:0013000000130000
#05418:00130013
#05415:0000001300000013
#05912:0033133300001400
#0591b:0033133300000000
#05915:13
#05918:13
#0591a:00000014
#06018:0000140000140000
#06014:0000140000140000
#06012:2400000014000014
#0601a:2400000014000014
#07315:0013
#07318:0034343413000000
#07314:0034343400000000
#07415:00130000
#07418:0013000000000000
#07412:2400001300000013
#07417:0000000013000013
#0741b:00000000000000000000001300000000
#0741f:21
#07616:00000000000000000000341400000000
#0761a:0014
#07612:24
#0811a:00000000000000000000000000000014
#08212:00140000000000000000000000000000
#08218:0000000000002424
#08214:00000000000000000000000000240024
#06118:0014000000000026
#06114:0014000000000000
#0611f:0000000000000011
#04818:26
#05012:26
#07214:24240000
#07218:0024000000000000
#0721a:0000000000240024
#07212:0000000000240024
#07112:0000000000240000
#07114:0024000000000000
#0711a:0024000000240000
#07014:0000000000240000
#07012:0000000000000024
#0701a:0000000000240000
#07018:0000000000000024
#07016:64
#08318:0026
#08312:0026
#0391a:24
#0401a:24006464640064006400640064000000
#04012:24006464640064006400640064000000
#06916:24
#06917:0064000000000064
#06918:00640064
#06919:0000006400640000
#0691a:0064
#08012:24240000
#0801a:24240000
#08014:0000000000230000
#08019:0000000000230000
#0101a:24
#01017:00000000000000000034000000000000
#01115:0024000000000000
#0581b:0023
#03614:24
#08712:00630000
#0871b:00630000
#00058:54
#0005a:0024
#03255:63
#03252:0014
#05152:14
#06158:0064000000000016
#06152:00140000
#0615a:00140000
#06154:0064000000000000
#06558:0000000000000016
#06552:54
#06556:0000002400000000
#07755:64
#07752:0014
#07757:0014
#0775a:64
#00158:54
#00254:64
#00252:0024
#00354:64
#00352:0014
#01556:0053
#01552:00000013
#01752:0000005400000014
#01755:0000000000540000
#0175a:64
#0195b:0000005300000000
#01957:00000013
#0275b:0063
#02758:0000000000230000
#0275a:00000044
#03358:53
#0335a:0014
#03458:53
#0345a:0014
#03452:63
#03454:0014
#03758:53
#0375a:0014
#03752:0014
#03755:63
#0385a:14
#03852:0014
#0395a:14
#04352:0000000053000013
#04356:00000000000000000000005300000000
#0445b:0063
#04457:0000000000230000
#04459:00000063
#0455b:1300000000000063
#04556:0000000063000063
#04552:00000000000000000000006300000000
#04752:1666
#04758:00160000
#04755:00000026
#07252:0000000000000064
#07254:00140000
#0725a:0000000000000054
#07352:00000014
#07355:0063
#07358:0053
#0735a:00000014
#0755b:0063
#07557:00000000000000000000006300000000
#07652:00140000
#07656:00000000000000000000006400000000
#0765a:0064
#08352:0056
#08358:0056
#07056:14
#00652:13
#0085b:13
#0115a:0014
#01155:0014
#01252:1400000000000014
#0125a:14
#0135a:0000000000000014
#01458:0000000063000013
#0145b:00000000000000000000006300000000
#0185b:0000006300000000
#02252:14
#02452:16
#02355:0000000000000023
#02655:0000000053000013
#02652:00000000000000000000005300000000
#0295a:0000006400000014
#02957:0000000000640000
#02952:54
#03052:0000005300000000
#03055:0023
#0315b:0013
#03555:63
#0355b:63
#03654:14
#0365a:14
#04152:0000000000000013
#0405a:00000014
#04052:00000014
#05258:0000000000000013
#0555a:00000014
#05752:0000000000130000
#05952:00230000
#0595b:00230000
#05955:63
#05958:53
#06052:6400000064000064
#0605a:6400000064000064
#06058:0000640000640000
#06054:0000540000540000
#06252:0000000000000013
#06352:0000000000000016
#06758:0000000000000016
#07154:0014000000000000
#0715a:0014000000000000
#07457:0000000053000053
#07452:0000000000000053
#0745b:00000000000000000000005300000000
#07852:00140000
#0785a:00140000
#07858:00000064
#08054:00000000000000000000000000000013
#08059:00000000000000000000000000000013
#0815a:00000000000000000000000000000044
#08252:00340000000000000000000000000000
#000380:14
#0003a0:0034
#001380:34
#0013a0:0024
#002340:14
#002320:0034
#003340:34
#003320:0024
#0103a0:14000000000034003400000000000034
#010390:00340000000000000000000000003400
#010380:00003400000000000000000000340000
#010370:00000034003400000034340034000000
#0113a0:0034000024000000
#011390:00000034000000340000000000000000
#011380:0000343400000000
#011370:00000000003400000000000000000000
#011351:0014000024000000
#011341:00000034000000340000000000000000
#011331:0000343400000000
#011321:00000000003400000000000000000000
#014381:0000000013000023
#0143b1:00000000000000000000003300000000
#015361:0013
#015321:00000023
#0173a1:14
#017371:00240000
#017321:0000001400000024
#017351:0000000000340000
#0183b1:0000001300000000
#018371:0000000000230000
#0193b1:0000001300000000
#019371:0000000000332300
#023351:0000000013333333
#024321:26
#026351:0000000013000023
#026321:00000000000000000000003300000000
#0273b1:0013
#027381:0000000000530000
#0273a1:00000024
#029321:14
#029351:00240000
#0293a1:0000001400000024
#029371:0000000000340000
#030321:0000001300230000
#030351:0053
#031381:13
#0313b1:0033333323000000
#032351:13
#032321:0024
#033381:13
#0333a1:0024
#034381:13
#0343a1:0024
#034320:13
#034340:0024
#0353b0:13
#035380:000000000000343434343434
#0363a0:24
#035351:13
#035321:000000000000343434343434
#036341:24
#036351:00000000000000001300003300003300
#037351:33
#037321:0024
#037380:13
#0373a0:0024
#043320:0000000013000023
#043360:00000000000000000000003300000000
#0443b0:0000000013000053
#044370:0000000000530000
#044390:00000033
#0453b0:23
#045360:0000000013000033
#045320:00000000000000000000003300000000
#046320:0023000000000000
#0453b1:0000000000000013
#046371:0023000000000000
#047321:0016
#047351:00000056
#048321:26
#048380:16
#0493a0:24
#050320:16
#051320:24
#0523a0:14240000
#0553a0:00001424
#056320:14240000
#058320:13
#058350:00333300
#059350:3323
#059320:0033333300000000
#0583b1:0013
#058381:00000033
#059381:3323
#0593b1:0033333300000000
#060321:1400005434005434
#060341:0054340000340000
#061341:5434000000000000
#061321:00240000
#0603a0:1400005434005434
#060380:0054340000340000
#061380:5434000000000000
#0613a0:00240000
#065320:14000024
#065340:00343434343400343434343400000000
#065360:0000003400000000
#072320:0000000000000014
#073340:0034343400000000
#073350:0033
#073320:00000024
#0723a1:0000000000000014
#073381:0034343433000000
#0733a1:00000024
#074371:0000000013000033
#0743b1:00000000000000000000003300000000
#0753b1:0023000000000000
#074320:0000000000000013
#075360:0023000000000000
#0753b0:0000000013000023
#075370:00000000000000000000333300000000
#076320:14240000
#0763a0:0000000014000034
#076360:00000000000000000000343400000000
#0773a0:34
#077370:0024
#077351:14
#077321:0024
#078321:14240000
#0783a0:14240000
#078380:00000014
#0793a0:00000024
#080340:00000000000000000000130033330023
#080391:00000000000000000000130033330023
#083381:0016
#0873b1:00230000
#083320:0016
#087320:00230000
#013970:0013000000000000
#0139b0:000000000000000000000000000000000000000000000000000000000000000000000000000000000000000000000000000000000000000000000000000000000000000000000000000000000000000000000000000000000000000000000000000000000000000000000000000000000000000000000000000000000000000000000000000000000000000000000000000000000000000000000000000000000000000000000000000000000000000000000000000000000000000000000000000000000000000000000000000000000000000000000000000000000000000000000000000000000000000000000000000000000000000000000000000000000000000000000000000000000000000000000000000000000000000000000000000000000000000000000000000000000000000000000000000000000000000000000000000000000000000000000000000000000000000000000000000000000000000000000000000000000000000000000000000000000000000000000000000000000000000000000000000000000000000000000000000000000000000000000000000000000000000000000000000000000000000000000000000000000000000000000000000000000000000000000000000000000000000000000000000000000000000000000000000000000000000000000000000000000000000000000000000000000000000000000000000000000000000000000000000000000000000000000000000000000000000000000000000000000000000000000000000000000000000000000000000000000000000000000000000000000000000000000000000000000000000000000000000000000000000000000000000000000000000000000000000000000000000000000000000000000000000000000000000000000000000000000000000000000000000000000000000000000000000000000000000000000000000000000053230000000000000000000000000000000000000000000000000000000000000000000000000000000000000000000000000000000000000000000000000000000000000000000000000000000000000000000000000000000000000000000000000000000000000000000000000000000000000000000000000000000000000000000000000000000000000000000000000000000000000000000000000000000000000000000000000000000000000000000000000000000000000000000000000000000000000000000000000000000000000000000000000000000000000000000000000000000000000000000000000000000000000000000000000000000000000000000000000000000000000000000000000000000000000000000000000000000000000000000000000000000000000000000000000000000000000000000000000000000000000000000000000000000000000000000000000000000000000000000000000000000000000000000000000000000000000000000000000000000000000000000000000000000000000000000000000000000000000000000000000000000000000000000000000000000000000000000000000000000000000000000000000000000000000000000000000000000000000000000000000000000000000000000000000000000000000000000000000000000000000000000000000000000000000000000000000000000000000000000000000000000000000000000000000000000000000000000000000000000000000000000000000000000000000000000000000000000000000000000000000000000000000000000000000000000000000000000000000000000000000000000000000000000000000000000000000000000000000000000000000000000000000000000000000000000000000000000000000000000000000000000000000000000000000000000000000000000000000000000000000000000000000000000000000000000000000000000000000000000000000000000000000000000000000000000000000000000000000000000000000000000000000000000000000000000000000000000000000000000000000000000000000000000000000000000000000000000000000000000000000000000000000000000000000000000000000000000000000000000000000000000000000000000000000000000000000000000000000000000000000000000000000000000000000000000000000000000000000000000000000000000000000000000000000000000000000000000000000000000000000000000000000000000000000000000000000000000000000000000000000000000000000000000000000000000000000000000000000000000000000000000000000000000000000000000000000000000000000000000000000000000000000000000000000000000000000000000000000000000000000000000000000000000000000000000000000000000000000000000000000000000000000000000000000000000000000000000000000000000000000000000000000000000000000000000000000000000000000000000000000000000000000000000000000000000000000000000000000000000000
#014960:0013000000000000
#014920:000000000000000000000000000000000000000000000000000000000000000000000000000000000000000000000000000000000000000000000000000000000000000000000000000000000000000000000000000000000000000000000000000000000000000000000000000000000000000000000000000000000000000000000000000000000000000000000000000000000000000000000000000000000000000000000000000000000000000000000000000000000000000000000000000000000000000000000000000000000000000000000000000000000000000000000000000000000000000000000000000000000000000000000000000000000000000000000000000000000000000000000000000000000000000000000000000000000000000000000000000000000000000000000000000000000000000000000000000000000000000000000000000000000000000000000000000000000000000000000000000000000000000000000000000000000000000000000000000000000000000000000000000000000000000000000000000000000000000000000000000000000000000000000000000000000000000000000000000000000000000000000000000000000000000000000000000000000000000000000000000000000000000000000000000000000000000000000000000000000000000000000000000000000000000000000000000000000000000000000000000000000000000000000000000000000000000000000000000000000000000000000000000000000000000000000000000000000000000000000000000000000000000000000000000000000000000000000000000000000000000000000000000000000000000000000000000000000000000000000000000000000000000000000000000000000000000000000000000000000000000000000000000000000000000000000000000000000000000000000053230000000000000000000000000000000000000000000000000000000000000000000000000000000000000000000000000000000000000000000000000000000000000000000000000000000000000000000000000000000000000000000000000000000000000000000000000000000000000000000000000000000000000000000000000000000000000000000000000000000000000000000000000000000000000000000000000000000000000000000000000000000000000000000000000000000000000000000000000000000000000000000000000000000000000000000000000000000000000000000000000000000000000000000000000000000000000000000000000000000000000000000000000000000000000000000000000000000000000000000000000000000000000000000000000000000000000000000000000000000000000000000000000000000000000000000000000000000000000000000000000000000000000000000000000000000000000000000000000000000000000000000000000000000000000000000000000000000000000000000000000000000000000000000000000000000000000000000000000000000000000000000000000000000000000000000000000000000000000000000000000000000000000000000000000000000000000000000000000000000000000000000000000000000000000000000000000000000000000000000000000000000000000000000000000000000000000000000000000000000000000000000000000000000000000000000000000000000000000000000000000000000000000000000000000000000000000000000000000000000000000000000000000000000000000000000000000000000000000000000000000000000000000000000000000000000000000000000000000000000000000000000000000000000000000000000000000000000000000000000000000000000000000000000000000000000000000000000000000000000000000000000000000000000000000000000000000000000000000000000000000000000000000000000000000000000000000000000000000000000000000000000000000000000000000000000000000000000000000000000000000000000000000000000000000000000000000000000000000000000000000000000000000000000000000000000000000000000000000000000000000000000000000000000000000000000000000000000000000000000000000000000000000000000000000000000000000000000000000000000000000000000000000000000000000000000000000000000000000000000000000000000000000000000000000000000000000000000000000000000000000000000000000000000000000000000000000000000000000000000000000000000000000000000000000000000000000000000000000000000000000000000000000000000000000000000000000000000000000000000000000000000000000000000000000000000000000000000000000000000000000000000000000000000000000000000000000000000000000000000000000000000000000000000000000000000000000000000000000000000000
#024980:00001353
#0249b0:000000000000000000000000000000000000000000000000000000000000000000000000000000000000000000000000000000000000000000000000000000000000000000000000000000000000000000000000000000000000000000000000000000000000000000000000000000000000000000000000000000000000000000000000000000000000000000000000000000000000000000000000000000000000000000000000000000000000000000000000000000000000000000000000000000000000000000000000000000000000000000000000000000000000000000000000000000000000000000000000000000000000000000000000000000000000000000000000000000000000000000000000000000000000000000000000000000000000000000000000000000000000000000000000000000000000000000000000000000000000000000000000000000000000000000000000000000000000000000000000000000000000000000000000000000000000000000000000000000000000000000000000000000000000000000000000000000000000000000000000000000000000000000000000000000000000000000000000000000000000000000000000000000000000000000000000000000000000000000000000000000000000000000000000000000000000000000000000000000000000000000000000000000000000000000000000000000000000000000000000000000000000000000000000000000000000000000000000000000000000000000000000000000000000000000000000000000000000000000000000000000000000000000000000000000000000000000000000000000000000000000000000000000000000000000000000000000000000000000000000000000000000000000000000000000000000000000000000000000000000000000000000000000000000000000000000000000000000000000000000000000000000000000000000000000000000000000000000000000000000000000000000000000000000000000000000000000000000000000000000000000000000000000000000000000000000000000000000000000000000000000000000000000000000000000000000000000000000000000000000000000000000000000000000000000000000000000000000000000000000000000000000000000000000000000000000000000000000000000000000000000000000000000000000000000000000000000000000000000000000000000000000000000000000000000000000000000000000000000000000000000000000000000000000000000000000000000000000000000000000000000000000000000000000000000000000000000000000000000000000000000000000000000000000000000000000000000000000000000000000000000000000000000000000000000000000000000000000000000000000000000000000000000000000000000000000000000000000000000000000000000000000000000000000000000000000000000000000000000000000000000000000000000000000000000000000000000000000000000000000000000000000000000000000000000000000000000000000000000000000530000000000000000000000000000000000000000000000000000000000000000000000000000000000000000000000000000000000000000000000000000000000000000000000000000000000000000000000000000000000000000000000000000000000000000000000000000000000000000000000000000000000000000000000000000000000000000000000000000000000000000000000000000000000000000000000000000000000000000000000000000000000000000000000000000000000000000000000000000000000000000000000000000000000000000000000000000000000000000000000000000000000000000000000000000000000000000000000000000000000000000000000000000000000000000000000000000000000000000000000000000000000000000000000000000000000000000000000000000000000000000000000000000000000000000000000000000000000000000000000000000000000000000000000000000000000000000000000000000000000000000000000000000000000000000000000000000000000000000000000000000000000000000000000000000000000000000000000000000000000000000000000000000000000000000000000000000000000000053535353230000000000000000000000000000000000000000000000000000000000000000000000000000000000000000000000000000000000000000000000000000000000000000000000000000000000000000000000000000000000000000000000000000000000000000000000000000000000000000000000000000000000000000000000000000000000000000000000000000000000000000000000000000000000000000000000000000000000000000000000000000000000000000000000000000000000000000000000000000000000000000000000000000000000000000000000000000000000000000000000
#025950:00001353
#025920:000000000000000000000000000000000000000000000000000000000000000000000000000000000000000000000000000000000000000000000000000000000000000000000000000000000000000000000000000000000000000000000000000000000000000000000000000000000000000000000000000000000000000000000000000000000000000000000000000000000000000000000000000000000000000000000000000000000000000000000000000000000000000000000000000000000000000000000000000000000000000000000000000000000000000000000000000000000000000000000000000000000000000000000000000000000000000000000000000000000000000000000000000000000000000000000000000000000000000000000000000000000000000000000000000000000000000000000000000000000000000000000000000000000000000000000000000000000000000000000000000000000000000000000000000000000000000000000000000000000000000000000000000000000000000000000000000000000000000000000000000000000000000000000000000000000000000000000000000000000000000000000000000000000000000000000000000000000000000000000000000000000000000000000000000000000000000000000000000000000000000000000000000000000000000000000000000000000000000000000000000000000000000000000000000000000000000000000000000000000000000000000000000000000000000000000000000000000000000000000000000000000000000000000000000000000000000000000000000000000000000000000000000000000000000000000000000000000000000000000000000000000000000000000000000000000000000000000000000000000000000000000000000000000000000000000000000000000000000000000000000000000000000000000000000000000000000000000000000000000000000000000000000000000000000000000000000000000000000000000000000000000000000000000000000000000000000000000000000000000000000000000000000000000000000000000000000000000000000000000000000000000000000000000000000000000000000000000000000000000000000000000000000000000000000000000000000000000000000000000000000000000000000000000000000000000000000000000000000000000000000000000000000000000000000000000000000000000000000000000000000000000000000000000000000000000000000000000000000000000000000000000000000000000000000000000000000000000000000000000000000000000000000000000000000000000000000000000000000000000000000000000000000000000000000000000000000000000000000000000000000000000000000000000000000000000000000000000000000000000000000000000000000000000000000000000000000000000000000000000000000000000000000000000000000000000000000000000000000000000000000000000000000000000000000000000000000000000000000000000000530000000000000000000000000000000000000000000000000000000000000000000000000000000000000000000000000000000000000000000000000000000000000000000000000000000000000000000000000000000000000000000000000000000000000000000000000000000000000000000000000000000000000000000000000000000000000000000000000000000000000000000000000000000000000000000000000000000000000000000000000000000000000000000000000000000000000000000000000000000000000000000000000000000000000000000000000000000000000000000000000000000000000000000000000000000000000000000000000000000000000000000000000000000000000000000000000000000000000000000000000000000000000000000000000000000000000000000000000000000000000000000000000000000000000000000000000000000000000000000000000000000000000000000000000000000000000000000000000000000000000000000000000000000000000000000000000000000000000000000000000000000000000000000000000000000000000000000000000000000000000000000000000000000000000000000000000000000000000053535353230000000000000000000000000000000000000000000000000000000000000000000000000000000000000000000000000000000000000000000000000000000000000000000000000000000000000000000000000000000000000000000000000000000000000000000000000000000000000000000000000000000000000000000000000000000000000000000000000000000000000000000000000000000000000000000000000000000000000000000000000000000000000000000000000000000000000000000000000000000000000000000000000000000000000000000000000000000000000000000000
#026970:0013000000000000
#0269b0:000000000000000000000000000000000000000000000000000000000000000000000000000000000000000000000000000000000000000000000000000000000000000000000000000000000000000000000000000000000000000000000000000000000000000000000000000000000000000000000000000000000000000000000000000000000000000000000000000000000000000000000000000000000000000000000000000000000000000000000000000000000000000000000000000000000000000000000000000000000000000000000000000000000000000000000000000000000000000000000000000000000000000000000000000000000000000000000000000000000000000000000000000000000000000000000000000000000000000000000000000000000000000000000000000000000000000000000000000000000000000000000000000000000000000000000000000000000000000000000000000000000000000000000000000000000000000000000000000000000000000000000000000000000000000000000000000000000000000000000000000000000000000000000000000000000000000000000000000000000000000000000000000000000000000000000000000000000000000000000000000000000000000000000000000000000000000000000000000000000000000000000000000000000000000000000000000000000000000000000000000000000000000000000000000000000000000000000000000000000000000000000000000000000000000000000000000000000000000000000000000000000000000000000000000000000000000000000000000000000000000000000000000000000000000000000000000000000000000000000000000000000000000000000000000000000000000000000000000000000000000000000000000000000000000000000000000000000000000000000053230000000000000000000000000000000000000000000000000000000000000000000000000000000000000000000000000000000000000000000000000000000000000000000000000000000000000000000000000000000000000000000000000000000000000000000000000000000000000000000000000000000000000000000000000000000000000000000000000000000000000000000000000000000000000000000000000000000000000000000000000000000000000000000000000000000000000000000000000000000000000000000000000000000000000000000000000000000000000000000000000000000000000000000000000000000000000000000000000000000000000000000000000000000000000000000000000000000000000000000000000000000000000000000000000000000000000000000000000000000000000000000000000000000000000000000000000000000000000000000000000000000000000000000000000000000000000000000000000000000000000000000000000000000000000000000000000000000000000000000000000000000000000000000000000000000000000000000000000000000000000000000000000000000000000000000000000000000000000000000000000000000000000000000000000000000000000000000000000000000000000000000000000000000000000000000000000000000000000000000000000000000000000000000000000000000000000000000000000000000000000000000000000000000000000000000000000000000000000000000000000000000000000000000000000000000000000000000000000000000000000000000000000000000000000000000000000000000000000000000000000000000000000000000000000000000000000000000000000000000000000000000000000000000000000000000000000000000000000000000000000000000000000000000000000000000000000000000000000000000000000000000000000000000000000000000000000000000000000000000000000000000000000000000000000000000000000000000000000000000000000000000000000000000000000000000000000000000000000000000000000000000000000000000000000000000000000000000000000000000000000000000000000000000000000000000000000000000000000000000000000000000000000000000000000000000000000000000000000000000000000000000000000000000000000000000000000000000000000000000000000000000000000000000000000000000000000000000000000000000000000000000000000000000000000000000000000000000000000000000000000000000000000000000000000000000000000000000000000000000000000000000000000000000000000000000000000000000000000000000000000000000000000000000000000000000000000000000000000000000000000000000000000000000000000000000000000000000000000000000000000000000000000000000000000000000000000000000000000000000000000000000000000000000000000000000000000000000000000000000000
#0409a0:140000000000000000000000000000000000000000000000000000000000000000000000000000000000000000000000000000000000000000000000000000000000000000000000000000000000000000000000000000000000000000000000000000000000000000000000000000000000000000000000000000000000000000000000000000000000000000000000000000000000000000000000000000000000000000000000000000000000000000000000000000000000000000000000000000000000000000000000000000000000000000000000000000000000000000000000000000000000000000000000000000000000000000000000000000000000000000000000000000000000000000000000000000000000000000000000000000000000000000000000000000000000000000000000000000000000000000000000000000000000000000000000000000000000000000000000000000000000000000000000000000000000000000000000000000000000000000000000000000000000000000000000000000000000000000000000000000000000000000000000000000000000000000000000000000000000000000000000000000000000000000000000000000000000000000000000000000000000000000000000000000000000000000000000000000000000000000000000000000000000000000000000000000000000000000000000000000000000000000000000000000000000000000000000000000000000000000000000000000000000000000000000000000000000000000000000000000000000000000000000000000000000000000000000000000000000000000000000000000000000000000000000000000000000000000000000000000000000000000000000000000000000000000000000000000000000000000000000000000000000000000000000000000000000000000000000000000000000000000000000000000000000000000000000000000000000000000000000000000000000000000000000000000000000000000000000000000000000000000000000000000000000000000000000000000000000000000000000000000000000000000000000000000000000000000000000000000000000000000000000000000000000000000000000000000000000000000000000000000000000000000000000000000000000000000000000000000000000000000000000000000000000000000000000000000000000000000000000000000000000000000000000000000000000000000000000000000000000000000000000000000000000000000000000000000000000000000000000000000000000000000000000000000000000000000000000000000000000000000000000000000000000000000000000000000000000000000000000000000000000000000000000000000000000000000000000000000000000000000000000000000000000000000000000000000000000000000000000000000000000000000000000000000000000000000000000000000000000000000000000000000000000000000000000000000000000000000000000000000000000000000000000000000000000000000000000000000000000000000000000000000000000000000000000000000000000000000000000000000000000000000000000000000000000000000000000000000000000000000000000000000000000000000000000000000000000000000000000000000000000000000000000000000000000000000000000000000000000000000000000000000000000000000000000000000000000000000000000000000000000000000000000000000000000000000000000000000000000000000000000000000000000000000000000000000000000000000000000000000000000000000000000000000000000000000000000000000000000000000005454240000000000000000000000000000000000000000000000000000000000000000000000000000000000000000000000000000000000000000000000000000000000000000000000000000000000000000000000000000000000000000000000000000000000000000000000000000000000000000000000000000000000000000000000000000000000000000000000000000000000000000000000000000000000000000000000000000000000000000000000000000000000000000000000000000000000000000000000000000000000000000000000000000000000000000000000000000000000000000000000000000000000000000000000000000000000000000000000000000000000000000000000000000000000000000000000000000000000000000000000000000000000000000000000000000000000000000000000000000000000000000000000000000000000000000000000000000000000000000000000000000000000000000000000000000000000000000000000000000000000000000000000000000000000000000000000000000000000000000000000000000000000000000000000000000000000000000000000000000000000000000000000000000000000000000000000000000000000000000000000
#040921:140000000000000000000000000000000000000000000000000000000000000000000000000000000000000000000000000000000000000000000000000000000000000000000000000000000000000000000000000000000000000000000000000000000000000000000000000000000000000000000000000000000000000000000000000000000000000000000000000000000000000000000000000000000000000000000000000000000000000000000000000000000000000000000000000000000000000000000000000000000000000000000000000000000000000000000000000000000000000000000000000000000000000000000000000000000000000000000000000000000000000000000000000000000000000000000000000000000000000000000000000000000000000000000000000000000000000000000000000000000000000000000000000000000000000000000000000000000000000000000000000000000000000000000000000000000000000000000000000000000000000000000000000000000000000000000000000000000000000000000000000000000000000000000000000000000000000000000000000000000000000000000000000000000000000000000000000000000000000000000000000000000000000000000000000000000000000000000000000000000000000000000000000000000000000000000000000000000000000000000000000000000000000000000000000000000000000000000000000000000000000000000000000000000000000000000000000000000000000000000000000000000000000000000000000000000000000000000000000000000000000000000000000000000000000000000000000000000000000000000000000000000000000000000000000000000000000000000000000000000000000000000000000000000000000000000000000000000000000000000000000000000000000000000000000000000000000000000000000000000000000000000000000000000000000000000000000000000000000000000000000000000000000000000000000000000000000000000000000000000000000000000000000000000000000000000000000000000000000000000000000000000000000000000000000000000000000000000000000000000000000000000000000000000000000000000000000000000000000000000000000000000000000000000000000000000000000000000000000000000000000000000000000000000000000000000000000000000000000000000000000000000000000000000000000000000000000000000000000000000000000000000000000000000000000000000000000000000000000000000000000000000000000000000000000000000000000000000000000000000000000000000000000000000000000000000000000000000000000000000000000000000000000000000000000000000000000000000000000000000000000000000000000000000000000000000000000000000000000000000000000000000000000000000000000000000000000000000000000000000000000000000000000000000000000000000000000000000000000000000000000000000000000000000000000000000000000000000000000000000000000000000000000000000000000000000000000000000000000000000000000000000000000000000000000000000000000000000000000000000000000000000000000000000000000000000000000000000000000000000000000000000000000000000000000000000000000000000000000000000000000000000000000000000000000000000000000000000000000000000000000000000000000000000000000000000000000000000000000000000000000000000000000000000000000000000000000000000000000000005454240000000000000000000000000000000000000000000000000000000000000000000000000000000000000000000000000000000000000000000000000000000000000000000000000000000000000000000000000000000000000000000000000000000000000000000000000000000000000000000000000000000000000000000000000000000000000000000000000000000000000000000000000000000000000000000000000000000000000000000000000000000000000000000000000000000000000000000000000000000000000000000000000000000000000000000000000000000000000000000000000000000000000000000000000000000000000000000000000000000000000000000000000000000000000000000000000000000000000000000000000000000000000000000000000000000000000000000000000000000000000000000000000000000000000000000000000000000000000000000000000000000000000000000000000000000000000000000000000000000000000000000000000000000000000000000000000000000000000000000000000000000000000000000000000000000000000000000000000000000000000000000000000000000000000000000000000000000000000000000000
#069961:14
#0699a1:0054
#070961:24
#0879d1:000000000000000000000000000000000000000000000000000000000000000000000000000000000000000000000000000000000000000000000000000000000000000000000000000000000000000000000000000000000000000000000000000000000000000000000000000000000000000000000000000000000000000000000000000000000000000000000000000000000000000000000000000000000000000000000000000000000000000000000000000000000000000000000000000000000000000000000000000000000000000000000000000000000000000000000000000000000000000000000000000000000000000000000000000000000000000000000000000000000000000000000000000000000000000000000000000000000000000000000000000000000000000000000000000000000000000000000000000000000000000000000000000000000000000000000000000000000000000000000000000000000000000000000000000000000000000000000000000000000000000000000000000000000000000000000000000000000000000000000000000000000000000000000000000000000000000000000000000000000000000000000000000000000000000000000000000000000000000000000000000000000000000000000000000000000000000000000000000000000000000000000000000000000000000000000000000000000000000000000000000000000000000000000000000000000000000000000000000000000000000000000000000000000000000000000000000000000000000000000000000000000000000000000000000000000000000000000000000000000000000000000000000000000000000000000000000000000000000000000000000000000000000000000000000000000000000000000000000000000000000000000000000000000000000000000000000000000000000000000000000000000000000000000000000000000000000000000000000000000000000000000000000000000000000000000000000000000000000000000000000000000000000000000000000000000000000000000000000000000000000000000000000000000000000000000000000000000000000000000000000000000000000000000000000000000000000000000000000000000000000000000000000000000000000000000000000000000000000000000000000000000000000000000000000000000000000000000000000000000000000000000000000000000000000000000000000000000000000000000000000000000000000000000000000000000000000000000000000000000000000000000000000000000000000000000000000000000000000000000000000000000000000000000000000000000000000000000000000000000000000000000000000000000000000000000000000000000000000000000000000000000000000000000000000000000000000000000000000000000000000000000000000000000000000000000000000000000000000000000000000000000000000000000000000000000000000000000000000000000000000000000000000000000000000000000000000000000000000000000000000000000000000000000000000000000000000000000000000000000000000000000000000000000000000000000000000000000000000000000000000000000000000000000000000000000000000000000000000000000000000000000000000000000000000000000000000000000000000000000000000000000000000000000000000000000000000000000000000000000000000000000000000000000000000000000000000000000000000000000000000000000000000000000000000000000000000000000000000000000000000000000000000000000000000000000000000000000000000000001121000000000000000000000000000000000000000000000000000000000000000000000000000000000000000000000000000000000000000000000000000000000000000000000000000000000000000000000000000000000000000000000000000000000000000000000000000000000000000000000000000000000000000000000000000000000000000000000000000000000000000000000000000000000000000000000000000000000000000000000000000000000000000000000000000000000000000000000000000000000000000000000000000000000000000000000000000000000000000000000000000000000000000000000000000000000000000000000000000000000000000000000000000000000000000000000000000000000000000000000000000000000000000000000000000000000000000000000000000000000000000000000000000000000000000000000000000000000000000000000000000000000000000000000000000000000000000000000000000000000000000000000000000000000000000000000000000000000000000000000000000000000000000000000000000000000000000000000000000000000000000000000000000000000000000000000000000000000000000000000000
