This file was generated by Ched 2.7.0.0.
#TITLE ""
#ARTIST ""
#DESIGNER ""
#DIFFICULTY 0
#PLAYLEVEL
#SONGID ""
#WAVE ""
#WAVEOFFSET 0
#JACKET ""
#REQUEST "ticks_per_beat 480"
#00002: 4
#BPM01: 160
#BPM02: 190
#00008: 01
#06908: 01
#04808: 02
#TIL00: "87'1438:1, 87'1437:10000"
#VOLUME: ""
#HISPEED 00
#MEASUREHS 00
#01712:1414
#0411a:2414
#04114:00140000
#04110:41
#05214:2414
#05218:00140000
#05210:41
#05414:1414
#05418:00140000
#05612:1414
#05618:00140000
#0571a:1414
#05714:00140000
#06318:1416
#06314:00140000
#06714:14001414
#06718:0000140000140024
#07414:0014
#0741a:24140000
#0741f:21
#07518:14140000
#07512:0014
#07510:41
#0761a:14
#07614:00140000
#07619:0014
#07613:00000014
#00018:14
#0051a:14
#00514:0014
#00718:14
#00712:0014
#02018:0014
#02012:24
#02112:14
#02118:0014
#02214:14
#0221a:0014
#02514:14
#02518:0014
#02718:1414
#02714:00140000
#02812:1414
#0291a:1414
#03012:14
#0301a:0014
#03114:1414
#03118:00140000
#03218:14
#03314:14
#0341a:14
#03512:14
#03618:14
#03714:14
#0381a:14
#03812:0015
#03918:16
#04212:1414
#04218:00140000
#0431a:14
#04314:00140014
#04318:0014
#04514:1414
#04518:00140000
#0461a:1414
#04612:00140000
#04912:0016
#0531a:1414
#05312:00140000
#05518:14
#05812:1414
#05818:00140014
#05914:1414
#0591a:00140014
#06214:0014
#06412:0014
#0641a:00000014
#06514:14
#06518:00140000
#06512:0016
#06618:00140014
#06614:0014
#07718:14
#07812:14
#07818:00140000
#07814:0014
#0781a:00000014
#0191a:1414
#01914:00140000
#01814:0014
#01818:14
#0161a:1414
#01514:1414
#01518:00140000
#01314:0014
#0131a:14
#01018:14
#01012:0014
#00914:0014
#0091a:14
#00814:0014
#0081a:14
#00612:0014
#00618:14
#00414:0014
#0041a:24
#00410:41
#00214:14
#01418:14
#02614:14
#0611f:0000000000000011
#06118:0000000000000026
#04012:25
#04019:25
#04812:26
#05018:26
#06012:26
#07012:24
#0701a:24
#07018:0000000000240000
#07014:0000000000000024
#07212:24
#0721a:24
#07218:0000000000240000
#07214:0000000000000024
#04712:26
#04718:0026
#07118:0024000000000000
#08118:00000000000000000000000000000024
#08214:00240000000000000000000000000000
#08212:00000000000000000000000000000024
#0821a:00000000000000000000000000000024
#08318:0026
#01214:24
#01210:41
#02418:24
#02410:41
#0871a:00540000
#00058:54
#03258:54
#03354:64
#0345a:64
#03552:54
#03554:0014
#03658:54
#03754:64
#0385a:14
#03852:0015
#03958:16
#04752:16
#04758:0016
#05158:16
#05558:64
#0555a:0014
#06158:0000000000000016
#06152:00160000
#06958:16
#07254:0000000000000054
#07758:54
#0775a:0014
#0785a:00000064
#01254:54
#00352:0014
#00254:64
#08052:00000000000000000000000000000014
#0805a:00000000000000000000000000000014
#07158:0000000000140000
#01458:64
#02654:54
#02458:64
#06359:0000000000000014
#06358:0056
#06552:0066
#06553:0000000000000014
#000380:14
#0013a0:0024
#002340:14
#003320:0024
#011380:1424
#012340:14
#012320:0024
#014380:14
#0143a0:0024
#023340:1424
#024380:14
#0243a0:0024
#026340:14
#026320:0024
#032380:14
#0323a0:0024
#033340:14
#033320:0024
#0343a0:14
#034380:0024
#035320:14
#035340:0024
#036380:14
#0363a0:0024
#037340:14
#037320:0024
#040320:1525
#040391:1525
#0443a1:1424
#048321:16
#049321:26
#050381:16
#051381:26
#055381:14
#0553a1:0024
#060321:1600360036360036
#061321:0036260000000000
#063381:0016
#063391:0000000000000024
#065321:0016
#065331:0000000000000024
#067381:0000000000000014
#069381:26
#071381:0014000000240000
#072341:0000000000000014
#073321:0024
#077381:14
#0773a1:0024
#0783a1:00000014
#079381:0024
#0803a1:14000000000000000000000000000024
#080320:14000000000000000000000000000024
#083380:0016
#0873a0:00240000
#0879d0:000000000000000000000000000000000000000000000000000000000000000000000000000000000000000000000000000000000000000000000000000000000000000000000000000000000000000000000000000000000000000000000000000000000000000000000000000000000000000000000000000000000000000000000000000000000000000000000000000000000000000000000000000000000000000000000000000000000000000000000000000000000000000000000000000000000000000000000000000000000000000000000000000000000000000000000000000000000000000000000000000000000000000000000000000000000000000000000000000000000000000000000000000000000000000000000000000000000000000000000000000000000000000000000000000000000000000000000000000000000000000000000000000000000000000000000000000000000000000000000000000000000000000000000000000000000000000000000000000000000000000000000000000000000000000000000000000000000000000000000000000000000000000000000000000000000000000000000000000000000000000000000000000000000000000000000000000000000000000000000000000000000000000000000000000000000000000000000000000000000000000000000000000000000000000000000000000000000000000000000000000000000000000000000000000000000000000000000000000000000000000000000000000000000000000000000000000000000000000000000000000000000000000000000000000000000000000000000000000000000000000000000000000000000000000000000000000000000000000000000000000000000000000000000000000000000000000000000000000000000000000000000000000000000000000000000000000000000000000000000000000000000000000000000000000000000000000000000000000000000000000000000000000000000000000000000000000000000000000000000000000000000000000000000000000000000000000000000000000000000000000000000000000000000000000000000000000000000000000000000000000000000000000000000000000000000000000000000000000000000000000000000000000000000000000000000000000000000000000000000000000000000000000000000000000000000000000000000000000000000000000000000000000000000000000000000000000000000000000000000000000000000000000000000000000000000000000000000000000000000000000000000000000000000000000000000000000000000000000000000000000000000000000000000000000000000000000000000000000000000000000000000000000000000000000000000000000000000000000000000000000000000000000000000000000000000000000000000000000000000000000000000000000000000000000000000000000000000000000000000000000000000000000000000000000000000000000000000000000000000000000000000000000000000000000000000000000000000000000000000000000000000000000000000000000000000000000000000000000000000000000000000000000000000000000000000000000000000000000000000000000000000000000000000000000000000000000000000000000000000000000000000000000000000000000000000000000000000000000000000000000000000000000000000000000000000000000000000000000000000000000000000000000000000000000000000000000000000000000000000000000000000000000000000000000000000000000000000000000000000000000000000000000000000000000000000000000000000000000000001121000000000000000000000000000000000000000000000000000000000000000000000000000000000000000000000000000000000000000000000000000000000000000000000000000000000000000000000000000000000000000000000000000000000000000000000000000000000000000000000000000000000000000000000000000000000000000000000000000000000000000000000000000000000000000000000000000000000000000000000000000000000000000000000000000000000000000000000000000000000000000000000000000000000000000000000000000000000000000000000000000000000000000000000000000000000000000000000000000000000000000000000000000000000000000000000000000000000000000000000000000000000000000000000000000000000000000000000000000000000000000000000000000000000000000000000000000000000000000000000000000000000000000000000000000000000000000000000000000000000000000000000000000000000000000000000000000000000000000000000000000000000000000000000000000000000000000000000000000000000000000000000000000000000000000000000000000000000000000000000000
