This file was generated by Ched 2.7.0.0.
#TITLE " "
#ARTIST ""
#DESIGNER ""
#DIFFICULTY 0
#PLAYLEVEL
#SONGID ""
#WAVE ""
#WAVEOFFSET 0
#JACKET ""
#REQUEST "ticks_per_beat 480"
#00002: 4
#BPM01: 150
#00008: 01
#TIL00: ""
#VOLUME: ""
#HISPEED 00
#MEASUREHS 00
#0011a:14
#0021a:14
#00312:14
#00412:14
#0061a:14
#00714:14
#01712:14
#01710:41
#01818:14
#01914:14
#0201a:14
#02112:14
#02218:14
#02314:14
#0241a:14
#03014:0014
#03018:24
#03118:14
#03114:0014
#03418:2616
#03410:41
#03512:1616
#0331a:14
#03312:0014
#03212:0014
#0321a:14
#03618:16
#03612:0016
#03718:16
#03712:0016
#04218:14
#04318:14
#04414:14
#04514:14
#05412:0016
#05418:26
#0541f:21
#05518:16
#05512:0016
#05510:41
#05818:1616
#05912:16
#05918:0016
#06012:1616
#06118:16
#06112:0016
#06214:0014
#0621a:24
#06318:14
#06312:0014
#0641a:14
#06414:0014
#06818:0014
#06812:14
#0671a:0014
#06714:14
#06618:0014
#06612:14
#0461f:11
#0051a:24
#00510:41
#0501a:24
#05212:24
#03918:36
#03818:0036
#04112:36
#04012:0036
#02510:41
#07010:41
#008340:14343434
#009340:34
#010320:24
#011380:14
#0123a0:24
#013320:14
#014340:24
#0153a0:14
#016380:24
#025340:14
#026320:34
#027340:34
#028320:3434
#029320:24
#038380:1636
#039380:36
#0393a0:0024
#040320:1636
#041320:3624
#046380:14
#047380:24
#048340:14
#049320:3424
#0503a0:1434
#0513a0:3424
#052320:1434
#053320:3424
#056380:1626
#057320:1626
#065380:1424
#069340:1424
#0703a0:14
#070380:0034
#0713a0:3424
#072320:14
#072340:0034
#073320:3424
#074380:14
#0743a0:0034
#075380:3424
#076340:14
#076320:0034
#077340:34003424
