This file was generated by Ched 2.7.0.0.
#TITLE ""
#ARTIST ""
#DESIGNER ""
#DIFFICULTY 0
#PLAYLEVEL
#SONGID ""
#WAVE ""
#WAVEOFFSET 0
#JACKET ""
#REQUEST "ticks_per_beat 480"
#00002: 4
#BPM01: 86
#00008: 01
#TIL00: "43'959:1.0, 43'958:10000.0"
#VOLUME: ""
#HISPEED 00
#MEASUREHS 00
#0221f:11
#02219:0013
#02215:0000000000000013
#02214:00000013
#02218:0000001300000000
#02217:00130000
#02212:23
#02612:0000131300001300
#02617:00000000001300000000000013000000
#0261b:0013
#02619:0000000000000013
#02614:0013000000130000
#02616:13
#0261f:21
#0261a:24
#02610:0041
#03119:0000000000150000
#03112:0000131415161700
#03117:1313001700000000
#0311b:0000000000000013
#0311a:00000014
#03118:0016
#03114:00130000000000000000000000000000
#0271b:1313000013000000
#02712:00130013
#02716:00130000000000001300000000000000
#02719:0000001300000013
#02714:0000000000130000
#02717:00000013
#04112:1313
#0411b:2313130000000000
#04116:00000013001300000000000000000000
#04117:00000000000000130000000000000000
#04019:0000000000000013
#04012:0000000000002313
#0401b:0000001300000000
#04017:13
#0331b:13
#03317:00000013001300000000000000000000
#03312:23001300130000000000000000130000
#03314:0000000000130000
#03316:00000000000000130000000000000000
#02817:0013
#02816:1313000000000000
#02812:0000001300130000
#02813:00000013
#02814:0000000000000013
#0281b:00000013000000000000000000000000
#0371a:0000001300000000000000000000000000000000000000000000000000000000
#03718:14
#03713:0013000000000000
#03719:0000000000130000000000000000000000000000000000000000000000000000
#03714:0014000000000000000000000000000000000000000000000000130000000000
#03712:00000000000000130000130000000000
#01314:0000130000130000
#01317:0013
#01313:0000001300000000
#0131a:0013000000000000
#01319:0000130000230000
#01316:13000023
#0131b:13000023
#01312:0023
#0231b:13
#02314:0013
#02318:0000000000000013
#02319:00000013
#02315:0000001300000000
#02316:00130000
#01812:1313000000001300
#01817:0000000000000013
#01814:00000000000000000013000000000000
#0181b:23130000
#01816:0000002300000000
#01810:41
#0141b:1313000000001300
#01416:0000000000000013
#01419:00000000000000000013000000000000
#01412:23130000
#01417:0000002300000000
#01410:41
#01917:1300000000000000000000000000000000000013000000000000000000000000
#0191b:00000000000000130000000000000000
#01912:23000013
#01914:00000013000000000000000000000000
#01919:0000000000000023
#01916:0000002300000000
#02019:00000000000000130000000000001300
#02017:13000013
#0201b:00130000
#02012:23000013
#02014:0000000000130000
#02016:00000013000023000000000000000000
#01516:1300000000000000000000000000000000000013000000000000000000000000
#01512:00000000000000130000000000000000
#0151b:23000013
#01519:00000013000000000000000000000000
#01514:0000000000000023
#01517:0000002300000000
#01614:00000000000000130000000000001300
#01616:13000013
#01612:00130000
#0161b:23000013
#01619:0000000000130000
#01617:00000013000023000000000000000000
#01712:00000013001313000000000000000000
#0171b:23000013
#01717:0013002300000000
#0111a:0000000013000013
#01112:1300001300000000
#01118:00000013
#01116:0013000000130000
#01113:0013
#01114:00130000
#01119:13
#01013:0000000013000013
#01015:00000013
#01017:0000000000130000
#0101a:0013
#01014:0000001300000000
#01016:00130000
#01018:0013000000000000
#0101b:13
#01012:26
#01010:41
#02915:1300000000130013
#02918:00000000000000000000001300000000
#02916:0000001300000000
#02917:0013
#03618:0000000000130013
#03615:00000000000000000000001300130000
#0361b:13
#01218:00000013000000001300130000000000
#01215:00001300130000000013000000000000
#01214:0000000000000013
#01212:13000013
#0121b:1300001300000000
#0251a:0012
#02514:0012
#02516:0000001200000000
#02518:00120000
#00919:0000000000000000000000000000000000000000000012320000000000000000
#00917:0000000000000012
#02112:1300000000130000
#02119:0000000000000013
#02116:0000000000141400
#0211b:2300001300001300
#02114:0013
#03912:1300000000000013
#03915:00000013
#0391b:0000000000130000
#03919:0013
#03914:0013
#03917:1300001300000000
#03916:00000013000000000000000000000000
#03814:0000000000000013
#0381b:23000013
#0381b:23
#03819:0000000000000013
#03812:0000001300000000
#03816:13
#03810:41
#03515:00000000000014000000000000000013
#03518:0000000000000013
#03519:15
#03512:00000013
#03417:2300001400000000
#03412:15
#03416:00000000000000000000000000000013
#0341b:00000013
#03410:41
#03214:0000000000000013
#0321b:1313000000002313
#03212:0000131313130000
#03217:00000000000000000013000000000000
#03216:00130000000000000000000000000000
#03016:0000131300001300
#0301b:00001313
#03019:00000000001300000000000000001300
#03014:0013000000130000
#03012:13
#0301a:24
#02414:14
#02418:14
#00717:0000001200000000
#00715:00120000
#00519:12
#00115:12
#00418:00000012
#00417:0012
#04317:00520052000000000000000000000000
#04217:52005200520052520052005200520052
#0295a:00130000
#02956:0000136300000000
#02955:53
#02957:0053
#03752:00130000
#0375b:00130000
#0375a:0000002300000000000000000000000000000000000000000000000000000000
#03758:24
#03753:0023000000000000
#03759:0000000000530000000000000000000000000000000000000000000000000000
#03754:0064000000000000000000000000000000000000000000000000000000000000
#02354:00000013
#0235b:00130000
#02259:00000013
#02252:00130000
#04054:13
#04052:00000013
#0405b:0000002300000000
#04057:53
#03958:00000013
#03952:0000000000000023
#03955:00000063
#0395b:0000000000230000
#03959:0053
#03954:0013
#03956:00000063000000000000000000000000
#03957:53
#02552:12
#0255c:12
#0255a:0012
#02554:0012
#00958:00000014
#00959:00000000000000000000002200000000
#0265a:14
#02652:0000005300001300
#0415b:13
#04152:5353
#04156:00000000006300000000000000000000
#0325b:0063000000001300
#03252:0000000000530000
#0185b:13
#01852:00000013
#01452:13
#0145b:00000013
#0385b:13
#0385b:13
#03852:0000002300000000
#03856:63
#03457:1300002400000000
#03452:55
#03352:13
#0335b:63
#03357:00000000005300000000000000000000
#0305a:14
#03056:0000006300001300
#01052:16
#0275b:0063000000000000
#02857:0053
#0285b:00000063000000000000000000000000
#01957:5300000000000000000000000000000000000023000000000000000000000000
#0195b:00000000000000630000000000000000
#01952:00000013
#02059:00000000000000630000000000000000
#02057:53
#0205b:00630000
#02052:00000013
#01556:6300000000000000000000000000000000000023000000000000000000000000
#01552:00000000000000530000000000000000
#0155b:00000013
#01654:00000000000000530000000000000000
#01656:63
#01652:00530000
#0165b:00000013
#01752:0000005300000000
#0175b:00000013
#03658:0000000000000053
#03655:00000000000000000000000000230000
#0365b:63
#02152:5300000000130000
#0215b:0000001300001300
#03555:0000002400000000
#03559:65
#03157:0053000000000000
#02454:64
#02458:54
#001390:1222
#001331:0012
#002331:22
#002370:1222
#002331:0012
#003331:22
#003370:1222
#003351:0012
#004351:22
#0043a0:1222
#005350:1222
#0053b1:0012
#0063b1:22
#006370:1222
#0063b1:00001222
#006350:00000012
#007350:22
#007391:12220000
#007391:0012
#008391:22
#008350:12
#009350:22
#009391:1200000000000000000000000000000000000000000032320000000000000000
#009381:00000024
#014321:00000000000000130023000000000000
#014341:0000000000132300
#015361:13
#015321:00000023000000000000000000000000
#015321:0000132300000000
#015321:00000000000000130000000023000000
#015361:0000000000000000000000000000000000000053000000000000000000000000
#016361:13
#016321:00000023000000000000000000000000
#016321:00130000
#016341:0000002300000000
#016341:00000000000000130000000000000000
#016361:0000000000230000
#017321:1323000000000000
#017321:0000001300000000
#017361:00000023
#0183b1:00000000000000130023000000000000
#018391:0000000000132300
#019371:13
#0193b1:00000023000000000000000000000000
#0193b1:0000132300000000
#0193b1:00000000000000130000000023000000
#019371:0000000000000000000000000000000000000053000000000000000000000000
#020371:13
#0203b1:00000023000000000000000000000000
#0203b1:00130000
#020391:0000002300000000
#020391:00000000000000130000000000000000
#020371:0000000000230000
#021321:13
#021361:0000002400000000
#022371:1323000000000000
#022320:0013230000000000
#022340:0000000013230000
#022391:0000000000132300
#023361:1323000000000000
#0233b0:0013230000000000
#023390:0000000013230000
#023341:0000000000132300
#024341:14
#025321:22
#024380:14
#0253c0:22
#026320:0000001300000000
#026360:0023
#0273b0:0013000000000000
#027370:00230000
#0283b0:1323000000000000
#0283b0:00000013000000000000000000000000
#028370:0000002300000000
#028370:0013
#0283a0:0000000000530000
#0293a0:00230000
#029351:13
#029361:00230000
#029361:0000001300000000
#029321:0023
#029370:0013
#0293b0:0000000000230000
#030360:0000001300000000
#030320:0023
#031370:0013000000000000
#0313b0:00230000
#031360:0000000000000013
#032360:23
#0323b0:0013000000000000
#032370:00230000
#032370:0000001323000000
#032320:0000000000130000
#032360:00000023
#0333b0:13
#033370:0023000000000000
#033370:00000000001300000000000000000000
#0333b0:00000000000000230000000000000000
#0333b0:0000000013230000
#033390:00000000000000000000001300230000
#033370:0000000000000013
#034370:23
#034321:15000023
#034371:0000005400000000
#035391:15
#035351:0000005400000000
#0353b1:00000023
#0363b1:13
#036371:00000023000000000000000000000000
#036320:00000013000000000000000000000000
#036330:00530000
#036350:00000000000000000000000000000000000000530000000000000000000000000000000000000000000000000000000000000000000000000000000000000000
#036360:0000002300000000
#0363b1:0000001300000000
#036391:00000000000000000000000000000000000000000000000000000053000000000000000000000000000000000000000000000000000000000000000000000000
#036381:0023
#036350:0013
#036340:00000000000000000053000000000000
#036330:00000000000000000000000000000000000000000000000000000000000000000000000000530000000000000000000000000000000000000000000000000000
#036320:0000000000230000
#036350:00000000000000000000000000130000
#036330:0000000000000000000000000000000000000000000000000000000000530000
#037340:0054000000000000000000000000000000000000000000000000000000000000
#037330:0053000000000000
#037320:00230000
#036381:0000000000000013
#036391:0000000000000000000000000000000000000000000000000000000000000053
#037381:54
#0373a1:0000005300000000000000000000000000000000000000000000000000000000
#037391:0000000000530000000000000000000000000000000000000000000000000000
#0373b1:00230000
#037371:0000000013230000
#037391:00000000000000000000001300230000
#0373b1:0000000000000013
#0383b1:23
#038360:13000023
#038320:0000005300000000
#039370:13
#0393b0:00000023000000000000000000000000
#039361:00000013000000000000000000000000
#039321:0000002300000000
#039391:0013
#0393b1:0000000000530000
#039381:00000023
#039350:00000013
#039320:0000000000000053
#040340:23
#040371:13000023
#0403b1:0000005300000000
#041321:13
#041361:0023000000000000
#041361:00000000001300000000000000000000
#041321:00000000000000230000000000000000
#041321:0013
#042371:22
#042970:12
#043970:000000000000000000000000000000000000000000000000000000000000000000000000000000000000000000000000000000000000000000000000000000000000000000000000000000000000000000000000000000000000000000000000000000000000000000000000000000000000000000000000000000000000000000000000000000000000000000000000000000000000000000000000000000000000000000000000000000000000000000000000000000000000000000000000000000000000000000000000000000000000000000000000000000000000000000000000000000000000000000000000000000000000000000000000000000000000000000000000000000000000000000000000000000000000000000000000000000000000000000000000000000000000000000000000000000000000000000000000000000000000000000000000000000000000000000000000000000000000000000000052220000000000000000000000000000000000000000000000000000000000000000000000000000000000000000000000000000000000000000000000000000000000000000000000000000000000000000000000000000000000000000000000000000000000000000000000000000000000000000000000000000000000000000000000000000000000000000000000000000000000000000000000000000000000000000000000000000000000000000000000000000000000000000000000000000000000000000000000000000000000000000000000000000000000000000000000000000000000000000000000000000000000000000000000000000000000000000000000000000000000000000000000000000000000000000000000000000000000000000000000000000000000000000000000000000000000000000000000000000000000000000000000000000000000000000000000000000000000000000000000000000000000000000000000000000000000000000000000000000000000000000000000000000000000000000000000000000000000000000000000000000000000000000000000000000000000000000000000000000000000000000000000000000000000000000000000000000000000000000000000000000000000000000000000000000000000000000000000000000000000000000000000000000000000000000000000000000000000000000000000000000000000000000000000000000000000000000000000000000000000000000000000000000000000000000000000000000000000000000000000000000000000000000000000000000000000000000000000000000000000000000000000000000000000000000000000000000000000000000000000000000000000000000000000000000000000000000000000000000000000000000000000000000000000000000000000000000000000000000000000000000000000000000000000000000000000000000000000000000000000000000000000000000000000000000000000000000000000000000000000000000000000000000000000000000000000000000000000000000000000000000000000000000000000000000000000000000000000000000000000000000000000000000000000000000000000000000000000000000000000000000000000000000000000000000000000000000000000000000000000000000000000000000000000000000000000000000000000000000000000000000000000000000000000000000000000000000000000000000000000000000000000000000000000000000000000000000000000000000000000000000000000000000000000000000000000000000000000000000000000000000000000000000000000000000000000000000000000000000000000000000000000000000000000000000000000000000000000000000000000000000000000000000000000000000000000000000000000000000000000000000000000000000000000000000000000000000000000000000000000000000000000000000000000000000000000000000000000000000000000000000000000000000000000000000000000000000000000000000000000000000000000000000000000000000000000000000000000000000000000000000000000000000000000000000000000000000000000000000000000000000000000000000000000000000000000000000000000000000000000000000000000000000000000000000000000000000000000000000000000000000000000000000000000000000000000000000000000000000000000000000000000000000000000000000000000000000000000000000000000000000000000000000000000000000000000000000000000000000000000000000000000000000000000000000000000000000000000000000000000000000000000000000000000000000000000000000000000000000000000000000000000000000000000000000000000000000000000000000000000000000000000000000000000000000000000000000000000000000000000000000000000000000000000000000000000000000000000000000000000
#0439d0:000000000000000000000000000000000000000000000000000000000000000000000000000000000000000000000000000000000000000000000000000000000000000000000000000000000000000000000000000000000000000000000000000000000000000000000000000000000000000000000000000000000000000000000000000000000000000000000000000000000000000000000000000000000000000000000000000000000000000000000000000000000000000000000000000000000000000000000000000000000000000000000000000000000000000000000000000000000000000000000000000000000000000000000000000000000000000000000000000000000000000000000000000000000000000000000000000000000000000000000000000000000000000000000000000000000000000000000000000000000000000000000000000000000000000000000000000000000000000000000000000000000000000000000000000000000000000000000000000000000000000000000000000000000000000000000000000000000000000000000000000000000000000000000000000000000000000000000000000000000000000000000000000000000000000000000000000000000000000000000000000000000000000000000000000000000000000000000000000000000000000000000000000000000000000000000000000000000000000000000000000000000000000000000000000000000000000000000000000000000000000000000000000000000000000000000000000000000000000000000000000000000000000000000000000000000000000000000000000000000000000000000000000000000000000000000000000000000000000000000000000000000000000000000000000000000000000000000000000000000000000000000000000000000000000000000000000000000000000000000000000000000000000000000000000000000000000000000000000000000000000000000000000000000000000000000000000000000000000000000000000000000000000000000000000000000000000000000000000000000000000000000000000000000000000000000000000000000000000000000000000000000000000000000000000000000000000000000000000000000000000000000000000000000000000000000000000000000000000000000000000000000000000000000000000000000000000000000000000000000000000000000000000000000000000000000000000000000000000000000011210000000000000000000000000000000000000000000000000000000000000000000000000000000000000000000000000000000000000000000000000000000000000000000000000000000000000000000000000000000000000000000000000000000000000000000000000000000000000000000000000000000000000000000000000000000000000000000000000000000000000000000000000000000000000000000000000000000000000000000000000000000000000000000000000000000000000000000000000000000000000000000000000000000000000000000000000000000000000000000000000000000000000000000000000000000000000000000000000000000000000000000000000000000000000000000000000000000000000000000000000000000000000000000000000000000000000000000000000000000000000000000000000000000000000000000000000000000000000000000000000000000000000000000000000000000000000000000000000000000000000000000000000000000000000000000000000000000000000000000000000000000000000000000000000000000000000000000000000000000000000000000000000000000000000000000000000000000000000000000000000000000000000000000000000000000000000000000000000000000000000000000000000000000000000000000000000000000000000000000000000000000000000000000000000000000000000000000000000000000000000000000000000000000000000000000000000000000000000000000000000000000000000000000000000000000000000000000000000000000000000000000000000000000000000000000000000000000000000000000000000000000000000000000000000000000000000000000000000000000000000000000000000000000000000000000000000000000000000000000000000000000000000000000000000000000000000000000000000000000000000000000000000000000000000000000000000000000000000000000000000000000000000000000000000000000000000000000000000000000000000000000000000000000000000000000000000000000000000000000000000000000000000000000000000000000000000000000000000000000000000000000000000000000000000000000000000000000000000000000000000000000000000000000000000000000000000000000000000000000000000000000000000000000000000000000000000000000000000000000000
