This file was generated by Ched 2.7.0.0.
#TITLE ""
#ARTIST ""
#DESIGNER ""
#DIFFICULTY 0
#PLAYLEVEL
#SONGID ""
#WAVE ""
#WAVEOFFSET 0
#JACKET ""
#REQUEST "ticks_per_beat 480"
#00002: 4
#BPM01: 86
#00008: 01
#TIL00: "43'958:10000, 43'959:1"
#VOLUME: ""
#HISPEED 00
#MEASUREHS 00
#01015:0013000000000000
#0101b:00130000
#01012:00001313
#01018:0000000000130000
#0101a:24
#01010:41
#0111b:13
#01112:0013
#01115:0013000000001300
#01118:0000130000130000
#0121b:13130000
#01212:0013001300000000
#01218:00001313
#01215:0000000000130000
#01315:00001313
#01312:13130000
#0131b:0013001300000000
#01318:0000000000130000
#02214:1414000000000000
#02212:0000001300000000
#0221a:0000000014140000
#02218:0000000000000013
#0221f:11
#02615:00130013
#0261b:0000000000130000
#02618:0000001300000013
#02612:0013000000000000
#0261a:24
#0261f:21
#02610:0041
#02715:13000013
#02712:0013000013000000
#0271b:0000001300000013
#02718:0000000000130000
#02918:0000000000130013
#0291b:0000001300000000
#02912:1313
#02915:00000000000000000000001300000000
#03515:0000000000000013
#03518:13
#04012:0000000000000013
#04018:13
#0411b:13
#04118:0013
#04115:00001300000000130000000000000000
#01412:0013000000000000
#0141b:23000000130000000033330000000000
#01415:0000001300000013
#01418:00000000000000130000000000000000
#01410:41
#01512:00130000
#01518:1300001300000013
#01515:00000000000000130000000000000000
#01615:00000000130000130000000000001300
#01618:00000013000013000000000013000000
#01612:13
#02118:0000001300000013
#02115:0013
#02112:13
#00115:0013
#00218:0013
#00314:0013
#00419:0013
#0041a:00000013
#00513:0013
#0061a:0013
#00619:00000013
#00818:13
#0171b:13
#01715:00001300001300000000000000000000
#01718:00000013000013000000000000000000
#0181b:0013000000000000
#01812:23000000130000000033330000000000
#01818:0000001300000013
#01815:00000000000000130000000000000000
#01810:41
#0191b:00130000
#01915:1300001300000013
#01918:00000000000000130000000000000000
#02018:00000000130000130000000000001300
#02015:00000013000013000000000013000000
#0201b:13
#02312:1414000000000000
#02315:0000001300000013
#02318:0000000014140000
#02418:13
#02415:0013000000000000
#0241b:0000130000000013
#02412:0000000000000013
#02812:13000013
#02818:0013000013000000
#02815:00000013000000000000130000000000
#0281b:0000001300000000
#03018:00130013
#03012:2400000000130000
#03015:0000001300000013
#0301b:0013000000000000
#03118:13
#0311b:0013000000000000
#03112:0000001400000014
#03116:00001414
#0311a:0000000000140000
#03216:14
#0321a:0014000000000000
#03215:0000001300130000
#03218:0000000013000013
#0331b:1313
#03315:00001300000000000000001300001300
#03312:1313
#03318:00000000000000000000130000130000
#03415:00000000000000000000000000000013
#03410:41
#03618:13000000000000000000001300000000
#0361b:00000013000000001300000000000000
#03612:0013
#03615:00000000000000000000130000130000
#03712:0013
#03718:00000000000000000000130000130000
#0371b:0013
#03715:00000000000000000000001300001300
#03818:0000000000000013
#03810:41
#03915:13
#03912:00000013000000000000000000000000
#0421c:52005200520052520052005200520052
#0431c:00520052000000000000000000000000
#0105a:14
#01355:00000013
#04158:00000000001300005300000000000000
#00858:53
#0145b:00000013
#01458:00000000000000530000000000000000
#01552:00000013
#01555:00000000000000630000000000000000
#0175b:00000013
#01758:0000005300000000
#01852:00000013
#01855:00000000000000630000000000000000
#0195b:00000013
#01958:00000000000000530000000000000000
#0245b:0000000000000063
#02452:0000000000000053
#0265a:14
#02658:0000001300000000
#03052:14
#03055:0000001300000000
#02752:0013000000000000
#0315b:0013000000000000
#03358:00000000001300000000000000000000
#03355:0000000000000063
#03658:53
#0365b:00000063000000000000000000000000
#03955:63
#03952:00000053000000000000000000000000
#04058:53
#03755:0000000000000063
#0375b:00130000
#03558:53
#02155:0063
#02152:53
#02058:00000000000000530000000000000000
#01655:00000000000000630000000000000000
#00952:00000013
#0095b:00000013
#02556:0012
#02558:0012
#02952:53
#0013b0:13
#0023b0:23
#002321:13
#003321:23
#003380:13
#004380:23
#004351:13
#005351:23
#0053b0:13
#0063b0:23
#006321:13
#007321:23
#007380:1323
#007351:0013
#008351:23
#008380:13
#0093b0:33000023
#009321:13000023
#014381:00000000000000130000000000000000
#0143b1:00000000000000000033330023000000
#015351:00000000000000130000000000000000
#015321:00000023
#016351:00000000000000130000000000000000
#016321:0000000000230000
#017381:0000001300000000
#0173b1:00000023
#018351:00000000000000130000000000000000
#018321:00000000000000000033330023000000
#019381:00000000000000130000000000000000
#0193b1:00000023
#020381:00000000000000130000000000000000
#0203b1:0000000000230000
#021321:13
#021351:00230000
#021351:0013
#021321:00000023
#024321:0000001300003333
#025361:0022
#0243b0:0000000000001333
#025380:0022
#028390:0000000000000014
#029390:00240000
#029321:13
#029351:00230000
#033381:00000013002300000000000000000000
#033351:0000000000000013
#034321:00000023
#035381:13
#0353b1:00000023
#036381:1300002300000000
#0363b1:00000033000000000000000000000000
#036381:00000000000000000000000000001353
#037391:5453005400000000000000000000000000000000000000000000000000000000
#0373a1:0053000000000000
#0373b1:00000053230000000000000000000000
#037351:0000000000000013
#038321:00000023
#039351:1300002300000000
#039321:00000033000000000000000000000000
#039381:00001323
#039350:00000013
#040350:23
#040381:13
#0403b1:00000023
#041381:00000013002300000000000000000000
#041381:0013
#0423c1:22
#0429c0:12
#0439c0:000000000000000000000000000000000000000000000000000000000000000000000000000000000000000000000000000000000000000000000000000000000000000000000000000000000000000000000000000000000000000000000000000000000000000000000000000000000000000000000000000000000000000000000000000000000000000000000000000000000000000000000000000000000000000000000000000000000000000000000000000000000000000000000000000000000000000000000000000000000000000000000000000000000000000000000000000000000000000000000000000000000000000000000000000000000000000000000000000000000000000000000000000000000000000000000000000000000000000000000000000000000000000000000000000000000000000000000000000000000000000000000000000000000000000000000000000000000000000000000052220000000000000000000000000000000000000000000000000000000000000000000000000000000000000000000000000000000000000000000000000000000000000000000000000000000000000000000000000000000000000000000000000000000000000000000000000000000000000000000000000000000000000000000000000000000000000000000000000000000000000000000000000000000000000000000000000000000000000000000000000000000000000000000000000000000000000000000000000000000000000000000000000000000000000000000000000000000000000000000000000000000000000000000000000000000000000000000000000000000000000000000000000000000000000000000000000000000000000000000000000000000000000000000000000000000000000000000000000000000000000000000000000000000000000000000000000000000000000000000000000000000000000000000000000000000000000000000000000000000000000000000000000000000000000000000000000000000000000000000000000000000000000000000000000000000000000000000000000000000000000000000000000000000000000000000000000000000000000000000000000000000000000000000000000000000000000000000000000000000000000000000000000000000000000000000000000000000000000000000000000000000000000000000000000000000000000000000000000000000000000000000000000000000000000000000000000000000000000000000000000000000000000000000000000000000000000000000000000000000000000000000000000000000000000000000000000000000000000000000000000000000000000000000000000000000000000000000000000000000000000000000000000000000000000000000000000000000000000000000000000000000000000000000000000000000000000000000000000000000000000000000000000000000000000000000000000000000000000000000000000000000000000000000000000000000000000000000000000000000000000000000000000000000000000000000000000000000000000000000000000000000000000000000000000000000000000000000000000000000000000000000000000000000000000000000000000000000000000000000000000000000000000000000000000000000000000000000000000000000000000000000000000000000000000000000000000000000000000000000000000000000000000000000000000000000000000000000000000000000000000000000000000000000000000000000000000000000000000000000000000000000000000000000000000000000000000000000000000000000000000000000000000000000000000000000000000000000000000000000000000000000000000000000000000000000000000000000000000000000000000000000000000000000000000000000000000000000000000000000000000000000000000000000000000000000000000000000000000000000000000000000000000000000000000000000000000000000000000000000000000000000000000000000000000000000000000000000000000000000000000000000000000000000000000000000000000000000000000000000000000000000000000000000000000000000000000000000000000000000000000000000000000000000000000000000000000000000000000000000000000000000000000000000000000000000000000000000000000000000000000000000000000000000000000000000000000000000000000000000000000000000000000000000000000000000000000000000000000000000000000000000000000000000000000000000000000000000000000000000000000000000000000000000000000000000000000000000000000000000000000000000000000000000000000000000000000000000000000000000000000000000000000000000000000000000000000000000000000000000000000000000000000000000000000000000000000000000000000000000000
#0439d0:000000000000000000000000000000000000000000000000000000000000000000000000000000000000000000000000000000000000000000000000000000000000000000000000000000000000000000000000000000000000000000000000000000000000000000000000000000000000000000000000000000000000000000000000000000000000000000000000000000000000000000000000000000000000000000000000000000000000000000000000000000000000000000000000000000000000000000000000000000000000000000000000000000000000000000000000000000000000000000000000000000000000000000000000000000000000000000000000000000000000000000000000000000000000000000000000000000000000000000000000000000000000000000000000000000000000000000000000000000000000000000000000000000000000000000000000000000000000000000000000000000000000000000000000000000000000000000000000000000000000000000000000000000000000000000000000000000000000000000000000000000000000000000000000000000000000000000000000000000000000000000000000000000000000000000000000000000000000000000000000000000000000000000000000000000000000000000000000000000000000000000000000000000000000000000000000000000000000000000000000000000000000000000000000000000000000000000000000000000000000000000000000000000000000000000000000000000000000000000000000000000000000000000000000000000000000000000000000000000000000000000000000000000000000000000000000000000000000000000000000000000000000000000000000000000000000000000000000000000000000000000000000000000000000000000000000000000000000000000000000000000000000000000000000000000000000000000000000000000000000000000000000000000000000000000000000000000000000000000000000000000000000000000000000000000000000000000000000000000000000000000000000000000000000000000000000000000000000000000000000000000000000000000000000000000000000000000000000000000000000000000000000000000000000000000000000000000000000000000000000000000000000000000000000000000000000000000000000000000000000000000000000000000000000000000000000000000000000000000000011210000000000000000000000000000000000000000000000000000000000000000000000000000000000000000000000000000000000000000000000000000000000000000000000000000000000000000000000000000000000000000000000000000000000000000000000000000000000000000000000000000000000000000000000000000000000000000000000000000000000000000000000000000000000000000000000000000000000000000000000000000000000000000000000000000000000000000000000000000000000000000000000000000000000000000000000000000000000000000000000000000000000000000000000000000000000000000000000000000000000000000000000000000000000000000000000000000000000000000000000000000000000000000000000000000000000000000000000000000000000000000000000000000000000000000000000000000000000000000000000000000000000000000000000000000000000000000000000000000000000000000000000000000000000000000000000000000000000000000000000000000000000000000000000000000000000000000000000000000000000000000000000000000000000000000000000000000000000000000000000000000000000000000000000000000000000000000000000000000000000000000000000000000000000000000000000000000000000000000000000000000000000000000000000000000000000000000000000000000000000000000000000000000000000000000000000000000000000000000000000000000000000000000000000000000000000000000000000000000000000000000000000000000000000000000000000000000000000000000000000000000000000000000000000000000000000000000000000000000000000000000000000000000000000000000000000000000000000000000000000000000000000000000000000000000000000000000000000000000000000000000000000000000000000000000000000000000000000000000000000000000000000000000000000000000000000000000000000000000000000000000000000000000000000000000000000000000000000000000000000000000000000000000000000000000000000000000000000000000000000000000000000000000000000000000000000000000000000000000000000000000000000000000000000000000000000000000000000000000000000000000000000000000000000000000000000000000000000000000000000
