This file was generated by Ched 2.7.0.0.
#TITLE ""
#ARTIST ""
#DESIGNER ""
#DIFFICULTY 0
#PLAYLEVEL
#SONGID ""
#WAVE ""
#WAVEOFFSET 0
#JACKET ""
#REQUEST "ticks_per_beat 480"
#00002: 4
#BPM01: 86
#00008: 01
#TIL00: "43'958:10000.0, 43'959:1.0"
#VOLUME: ""
#HISPEED 00
#MEASUREHS 00
#02612:00140000
#02616:0014
#0261a:24000014
#0261f:21
#02610:0041
#03512:14
#00918:14
#0101a:2414
#01014:00140014
#01010:41
#01118:1414
#01112:00140014
#01318:14
#01314:00140000
#0131a:0014
#01312:00000014
#01414:00140000
#0141a:24
#01410:41
#01512:14
#01518:00140000
#0161a:14
#01614:00140000
#01618:0014
#01612:00000014
#01718:14
#01714:00140000
#01818:00140000
#01812:24
#01810:41
#0191a:14
#01914:00140000
#02012:14
#02018:00140000
#02014:0014
#0201a:00000014
#02114:14
#02118:00140000
#02714:14
#02718:00140000
#02712:0014
#0271a:00000014
#0291a:1414
#02916:00000014
#02912:14
#0301a:00140000
#03016:0014
#03012:24000014
#03118:1416
#03114:00140000
#03112:00000016
#0331a:14
#03316:00140014
#03312:0014
#0341a:14
#03410:41
#03618:14
#03614:00140000
#0361a:0014
#03612:00000014
#03714:00000014
#03818:14
#03810:41
#03914:14
#03918:00140000
#03912:0014
#0391a:00000014
#04014:14
#0411a:14
#04116:00140000
#04112:0014
#04214:14
#0221f:11
#0265a:14
#03552:54
#0105a:14
#00958:54
#01352:00000014
#02552:0014
#03052:14
#0345a:64
#02952:54
#0295a:64
#03858:54
#04054:64
#04254:64
#04152:0054
#0013a0:1424
#002320:1424
#0033a0:1424
#004320:1424
#005380:1424
#006340:1424
#007380:1424
#008340:1424
#009380:14
#0093a0:0054
#0103a0:24
#0123a0:14240000
#012320:00001424
#0143a0:00001424
#015320:00001424
#0173a0:00001424
#018320:00001424
#0193a0:00001424
#021320:00001424
#0223a0:14000024
#022380:00343400
#023320:14000024
#023340:00343400
#024380:14
#0243a0:0024
#025340:14
#025320:0024
#028340:14
#028320:00240000
#028380:0014
#0283a0:00000024
#0293a0:14
#029390:00240000
#029321:14
#029331:00240000
#032381:14
#0323a1:00240000
#032341:0014
#032321:00000024
#0343a1:14
#034381:00000024
#035321:14
#035341:00000024
#037381:14555500005655542400000000000000
#037371:00000055000000000000000000000000
#037361:00560000
#038381:14
#0383a1:00000024
#040341:14
#040321:00000024
#041321:0014
#042341:34
#043321:00230000
#0439d0:000000000000000000000000000000000000000000000000000000000000000000000000000000000000000000000000000000000000000000000000000000000000000000000000000000000000000000000000000000000000000000000000000000000000000000000000000000000000000000000000000000000000000000000000000000000000000000000000000000000000000000000000000000000000000000000000000000000000000000000000000000000000000000000000000000000000000000000000000000000000000000000000000000000000000000000000000000000000000000000000000000000000000000000000000000000000000000000000000000000000000000000000000000000000000000000000000000000000000000000000000000000000000000000000000000000000000000000000000000000000000000000000000000000000000000000000000000000000000000000000000000000000000000000000000000000000000000000000000000000000000000000000000000000000000000000000000000000000000000000000000000000000000000000000000000000000000000000000000000000000000000000000000000000000000000000000000000000000000000000000000000000000000000000000000000000000000000000000000000000000000000000000000000000000000000000000000000000000000000000000000000000000000000000000000000000000000000000000000000000000000000000000000000000000000000000000000000000000000000000000000000000000000000000000000000000000000000000000000000000000000000000000000000000000000000000000000000000000000000000000000000000000000000000000000000000000000000000000000000000000000000000000000000000000000000000000000000000000000000000000000000000000000000000000000000000000000000000000000000000000000000000000000000000000000000000000000000000000000000000000000000000000000000000000000000000000000000000000000000000000000000000000000000000000000000000000000000000000000000000000000000000000000000000000000000000000000000000000000000000000000000000000000000000000000000000000000000000000000000000000000000000000000000000000000000000000000000000000000000000000000000000000000000000000000000000000000000000000000000000011210000000000000000000000000000000000000000000000000000000000000000000000000000000000000000000000000000000000000000000000000000000000000000000000000000000000000000000000000000000000000000000000000000000000000000000000000000000000000000000000000000000000000000000000000000000000000000000000000000000000000000000000000000000000000000000000000000000000000000000000000000000000000000000000000000000000000000000000000000000000000000000000000000000000000000000000000000000000000000000000000000000000000000000000000000000000000000000000000000000000000000000000000000000000000000000000000000000000000000000000000000000000000000000000000000000000000000000000000000000000000000000000000000000000000000000000000000000000000000000000000000000000000000000000000000000000000000000000000000000000000000000000000000000000000000000000000000000000000000000000000000000000000000000000000000000000000000000000000000000000000000000000000000000000000000000000000000000000000000000000000000000000000000000000000000000000000000000000000000000000000000000000000000000000000000000000000000000000000000000000000000000000000000000000000000000000000000000000000000000000000000000000000000000000000000000000000000000000000000000000000000000000000000000000000000000000000000000000000000000000000000000000000000000000000000000000000000000000000000000000000000000000000000000000000000000000000000000000000000000000000000000000000000000000000000000000000000000000000000000000000000000000000000000000000000000000000000000000000000000000000000000000000000000000000000000000000000000000000000000000000000000000000000000000000000000000000000000000000000000000000000000000000000000000000000000000000000000000000000000000000000000000000000000000000000000000000000000000000000000000000000000000000000000000000000000000000000000000000000000000000000000000000000000000000000000000000000000000000000000000000000000000000000000000000000000000000000000000000000000000
