This file was generated by Ched 2.7.0.0.
#TITLE ""
#ARTIST ""
#DESIGNER ""
#DIFFICULTY 0
#PLAYLEVEL
#SONGID ""
#WAVE ""
#WAVEOFFSET 0
#JACKET ""
#REQUEST "ticks_per_beat 480"
#00002: 4
#BPM01: 150
#BPM02: 145.31
#BPM03: 140.84
#BPM04: 136.51
#BPM05: 132.31
#BPM06: 128.25
#BPM07: 124.3
#BPM08: 120.48
#BPM09: 149.61
#BPM0A: 149.22
#BPM0B: 148.83
#BPM0C: 148.45
#BPM0D: 148.06
#BPM0E: 147.67
#BPM0F: 147.29
#BPM0G: 146.91
#BPM0H: 146.52
#BPM0I: 146.14
#BPM0J: 145.76
#BPM0K: 145.38
#BPM0L: 145.01
#BPM0M: 145
#BPM0N: 144.62
#BPM0O: 144.25
#BPM0P: 143.87
#BPM0Q: 143.5
#BPM0R: 143.12
#BPM0S: 142.75
#BPM0T: 142.38
#BPM0U: 142.01
#BPM0V: 141.64
#BPM0W: 141.27
#BPM0X: 140.9
#BPM0Y: 140.54
#BPM0Z: 140.17
#00008: 01
#00908: 01
#01708: 01
#00808: 000000000000000000000000000000000000000000000000000000000000000000000000000000000000000000000000000000000000000000000000000000000000000000000000000000000000000000000000000000000000000000000000000000000000000000000000000000000000000000000000000000000000000000000000000000000000000000000000000000000000020000000000000000000000000000000000000000000000000000000000000000000000000000000000000000000000000000000000000000000000000000000000000000000000000000000000000000000000000000000000000000000000000000000000000000000000000000000000000000000000000000000000000000000000000000000000000000000000000000000000000000000000000000000000000000000000000000000000000000000000000000000000000000000000000000000000000000000000000000000000000000000000000000000000000000000000000000000000000000000000000000000000000000000000000000000000000000000000000000000000000000000000000000000000000000000000000003000000000000000000000000000000000000000000000000000000000000000000000000000000000000000000000000000000000000000000000000000000000000000000000000000000000000000000000000000000000000000000000000000000000000000000000000000000000000000000000000000000000000000000000000000000000000000000000000000000000000000000000000000000000000000000000000000000000000000000000000000000000000000000000000000000000000000000000000000000000000000000000000000000000000000000000000000000000000000000000000000000000000000000000000000000000000000000000000000000000000000000000000000000000004000000000000000000000000000000000000000000000000000000000000000000000000000000000000000000000000000000000000000000000000000000000000000000000000000000000000000000000000000000000000000000000000000000000000000000000000000000000000000000000000000000000000000000000000000000000000000000000000000000000000000000000000000000000000000000000000000000000000000000000000000000000000000000000000000000000000000000000000000000000000000000000000000000000000000000000000000000000000000000000000000000000000000000000000000000000000000000000000000000000000000005000000000000000000000000000000000000000000000000000000000000000000000000000000000000000000000000000000000000000000000000000000000000000000000000000000000000000000000000000000000000000000000000000000000000000000000000000000000000000000000000000000000000000000000000000000000000000000000000000000000000000000000000000000000000000000000000000000000000000000000000000000000000000000000000000000000000000000000000000000000000000000000000000000000000000000000000000000000000000000000000000000000000000000000000000000000000000000000006000000000000000000000000000000000000000000000000000000000000000000000000000000000000000000000000000000000000000000000000000000000000000000000000000000000000000000000000000000000000000000000000000000000000000000000000000000000000000000000000000000000000000000000000000000000000000000000000000000000000000000000000000000000000000000000000000000000000000000000000000000000000000000000000000000000000000000000000000000000000000000000000000000000000000000000000000000000000000000000000000000000000000000000000000000000700000000000000000000000000000000000000000000000000000000000000000000000000000000000000000000000000000000000000000000000000000000000000000000000000000000000000000000000000000000000000000000000000000000000000000000000000000000000000000000000000000000000000000000000000000000000000000000000000000000000000000000000000000000000000000000000000000000000000000000000000000000000000000000000000000000000000000000000000000000000000000000000000000000000000000000000000000000000000000000000000000000000000000800000000000000000000000000000000000000000000000000000000000000000000000000000000000000000000000000000000000000000000000000000000000000000000000000000000000000000000000000000000000000000000000000000000000000000000000000000000000000000000000000000000000000000000000000000000000000000000000000000000000000000000
#01308: 00000000000000000000000000000000000000000000000000000000000000000000000000000000000000000000000000000000000000000000000000000000000000000000000000000000000000000000000000000000000000000000000000000000000000000000000000000000000000000000000000000000000000000000000000000000000000000000000000000000000009000000000000000000000000000000000000000000000000000000000000000000000000000000000000000000000000000000000000000000000000000000000000000000000000000000000000000000000000000000000000000000000000000000000000000000000000000000000000000000000000000000000000000000000000000000000000000000000000000000000000000000000000000000000000000000000000000000000000000000000000000000000000000000000000000000000000000000000000000000000000000000000000000000000000000000000000000000000000000000000000000000000000000000000000000000000000000000000000000000000000000000000000000000000000000000000000000000000000000000000A0000000000000000000000000000000000000000000000000000000000000000000000000000000000000000000000000000000000000000000000000000000000000000000000000000000000000000000000000000000000000000000000000000000000000000000000000000000000000000000000000000000000000000000000000000000000000000000000000000000000000000000000000000000000000000000000000000000000000000000000000000000000000000000000000000000000000000000000000000000000000000000000000000000000000000000000000000000000000000000000000000000000000000000000000000000000000000000000000000000000000000000000000000000000000000000000000000000000000000000B0000000000000000000000000000000000000000000000000000000000000000000000000000000000000000000000000000000000000000000000000000000000000000000000000000000000000000000000000000000000000000000000000000000000000000000000000000000000000000000000000000000000000000000000000000000000000000000000000000000000000000000000000000000000000000000000000000000000000000000000000000000000000000000000000000000000000000000000000000000000000000000000000000000000000000000000000000000000000000000000000000000000000000000000000000000000000000000000000000000000000000000000000000000000000000000000000000000000000000000C00000000000000000000000000000000000000000000000000000000000000000000000000000000000000000000000000000000000000000000000000000000000000000000000000000000000000000000000000000000000000000000000000000000000000000000000000000000000000000000000000000000000000000000000000000000000000000000000000000000000000000000000000000000000000000000000000000000000000000000000000000000000000000000000000000000000000000000000000000000000000000000000000000000000000000000000000000000000000000000000000000000000000000000000000000000000000000000000000000000000000000000000000000000000000000000000000000000000000000D000000000000000000000000000000000000000000000000000000000000000000000000000000000000000000000000000000000000000000000000000000000000000000000000000000000000000000000000000000000000000000000000000000000000000000000000000000000000000000000000000000000000000000000000000000000000000000000000000000000000000000000000000000000000000000000000000000000000000000000000000000000000000000000000000000000000000000000000000000000000000000000000000000000000000000000000000000000000000000000000000000000000000000000000000000000000000000000000000000000000000000000000000000000000000000000000000000000000000E0000000000000000000000000000000000000000000000000000000000000000000000000000000000000000000000000000000000000000000000000000000000000000000000000000000000000000000000000000000000000000000000000000000000000000000000000000000000000000000000000000000000000000000000000000000000000000000000000000000000000000000000000000000000000000000000000000000000000000000000000000000000000000000000000000000000000000000000000000000000000000000000000000000000000000000000000000000000000000000000000000000000000000000000000000000000000000000000000000000000000000000000000000000000
#01408: 000000000000000000000000000F0000000000000000000000000000000000000000000000000000000000000000000000000000000000000000000000000000000000000000000000000000000000000000000000000000000000000000000000000000000000000000000000000000000000000000000000000000000000000000000000000000000000000000000000000000000000000000000000000000000000000000000000000000000000000000000000000000000000000000000000000000000000000000000000000000000000000000000000000000000000000000000000000000000000000000000000000000000000000000000000000000000000000000000000000000000000000000000000000000000000000000000000000000000000000000000000000000000000000G00000000000000000000000000000000000000000000000000000000000000000000000000000000000000000000000000000000000000000000000000000000000000000000000000000000000000000000000000000000000000000000000000000000000000000000000000000000000000000000000000000000000000000000000000000000000000000000000000000000000000000000000000000000000000000000000000000000000000000000000000000000000000000000000000000000000000000000000000000000000000000000000000000000000000000000000000000000000000000000000000000000000000000000000000000000000000000000000000000000000000000000000000000000000000000000000000000000000H000000000000000000000000000000000000000000000000000000000000000000000000000000000000000000000000000000000000000000000000000000000000000000000000000000000000000000000000000000000000000000000000000000000000000000000000000000000000000000000000000000000000000000000000000000000000000000000000000000000000000000000000000000000000000000000000000000000000000000000000000000000000000000000000000000000000000000000000000000000000000000000000000000000000000000000000000000000000000000000000000000000000000000000000000000000000000000000000000000000000000000000000000000000000000000000000000000000I0000000000000000000000000000000000000000000000000000000000000000000000000000000000000000000000000000000000000000000000000000000000000000000000000000000000000000000000000000000000000000000000000000000000000000000000000000000000000000000000000000000000000000000000000000000000000000000000000000000000000000000000000000000000000000000000000000000000000000000000000000000000000000000000000000000000000000000000000000000000000000000000000000000000000000000000000000000000000000000000000000000000000000000000000000000000000000000000000000000000000000000000000000000000000000000000000000000J00000000000000000000000000000000000000000000000000000000000000000000000000000000000000000000000000000000000000000000000000000000000000000000000000000000000000000000000000000000000000000000000000000000000000000000000000000000000000000000000000000000000000000000000000000000000000000000000000000000000000000000000000000000000000000000000000000000000000000000000000000000000000000000000000000000000000000000000000000000000000000000000000000000000000000000000000000000000000000000000000000000000000000000000000000000000000000000000000000000000000000000000000000000000000000000000000000K00000000000000000000000000000000000000000000000000000000000000000000000000000000000000000000000000000000000000000000000000000000000000000000000000000000000000000000000000000000000000000000000000000000000000000000000000000000000000000000000000000000000000000000000000000000000000000000000000000000000000000000000000000000000000000000000000000000000000000000000000000000000000000000000000000000000000000000000000000000000000000000000000000000000000000000000000000000000000000000000000000000000000000000000000000000000000000000000000000000000000000000000000000000000000000000000000000L000000000000000000000000000000000000000000000000000000000000000000000000000000000000000000000000000000000000000000000000000000000000000000000000000000000000000000000000000000000000000000000000000000000000000000000000000000000000000000000000000000000000000000000000000000000000000000000000000000000000
#01508: 0M0000000000000000000000000000000000000000000000000000000000000000000000000000000000000000000000000000000000000000000000000000000000000000000000000000000000000000000000000000000000000000000000000000000000000000000000000000000000000000000000000000000000000000000000000000000000000000000000000N0000000000000000000000000000000000000000000000000000000000000000000000000000000000000000000000000000000000000000000000000000000000000000000000000000000000000000000000000000000000000000000000000000000000000000000000000000000000000000000000000000000000000000000000000000000000000000000000000000000000000000000000000000000000000000000000000000000000000000000000000000000000000000000000000000000000000000000000000000000000000000000000000000000000000000000000000000000000000000000000000000000000000000000000000000000000000000000000000000000000000000000000000000000000000000000000000O00000000000000000000000000000000000000000000000000000000000000000000000000000000000000000000000000000000000000000000000000000000000000000000000000000000000000000000000000000000000000000000000000000000000000000000000000000000000000000000000000000000000000000000000000000000000000000000000000000000000000000000000000000000000000000000000000000000000000000000000000000000000000000000000000000000000000000000000000000000000000000000000000000000000000000000000000000000000000000000000000000000000000000000000000000000000000000000000000000000000000000000000000000000000000000000000P00000000000000000000000000000000000000000000000000000000000000000000000000000000000000000000000000000000000000000000000000000000000000000000000000000000000000000000000000000000000000000000000000000000000000000000000000000000000000000000000000000000000000000000000000000000000000000000000000000000000000000000000000000000000000000000000000000000000000000000000000000000000000000000000000000000000000000000000000000000000000000000000000000000000000000000000000000000000000000000000000000000000000000000000000000000000000000000000000000000000000000000000000000000000000000000000Q000000000000000000000000000000000000000000000000000000000000000000000000000000000000000000000000000000000000000000000000000000000000000000000000000000000000000000000000000000000000000000000000000000000000000000000000000000000000000000000000000000000000000000000000000000000000000000000000000000000000000000000000000000000000000000000000000000000000000000000000000000000000000000000000000000000000000000000000000000000000000000000000000000000000000000000000000000000000000000000000000000000000000000000000000000000000000000000000000000000000000000000000000000000000000000000R0000000000000000000000000000000000000000000000000000000000000000000000000000000000000000000000000000000000000000000000000000000000000000000000000000000000000000000000000000000000000000000000000000000000000000000000000000000000000000000000000000000000000000000000000000000000000000000000000000000000000000000000000000000000000000000000000000000000000000000000000000000000000000000000000000000000000000000000000000000000000000000000000000000000000000000000000000000000000000000000000000000000000000000000000000000000000000000000000000000000000000000000000000000000000000000S0000000000000000000000000000000000000000000000000000000000000000000000000000000000000000000000000000000000000000000000000000000000000000000000000000000000000000000000000000000000000000000000000000000000000000000000000000000000000000000000000000000000000000000000000000000000000000000000000000000000000000000000000000000000000000000000000000000000000000000000000000000000000000000000000000000000000000000000000000000000000000000000000000000000000000000000000000000000000000000000000000000000000000000000000000000000000000000000000000000000000000000000000000000000000000000T0000000000000000000000000000000000000000000000000000000000000000000000000000000000000000000000000000
#01608: 00000000000000000000000000000000000000000000000000000000000000000000000000000000000000000000000000000000000000000000000000000000000000000000000000000000000000000000000000000000000000000000000000000000000000000000000000000000000000000000000000000000000000000000000000000000000000000000000000000000000000000000000000000000000000000000000000000000000000000000000000000000000000000000000000000000000000000000000000000000000000000000000000000000000000000000000000000000000U00000000000000000000000000000000000000000000000000000000000000000000000000000000000000000000000000000000000000000000000000000000000000000000000000000000000000000000000000000000000000000000000000000000000000000000000000000000000000000000000000000000000000000000000000000000000000000000000000000000000000000000000000000000000000000000000000000000000000000000000000000000000000000000000000000000000000000000000000000000000000000000000000000000000000000000000000000000000000000000000000000000000000000000000000000000000000000000000000000000000000000000000000000000000000000V0000000000000000000000000000000000000000000000000000000000000000000000000000000000000000000000000000000000000000000000000000000000000000000000000000000000000000000000000000000000000000000000000000000000000000000000000000000000000000000000000000000000000000000000000000000000000000000000000000000000000000000000000000000000000000000000000000000000000000000000000000000000000000000000000000000000000000000000000000000000000000000000000000000000000000000000000000000000000000000000000000000000000000000000000000000000000000000000000000000000000000000000000000000000000W00000000000000000000000000000000000000000000000000000000000000000000000000000000000000000000000000000000000000000000000000000000000000000000000000000000000000000000000000000000000000000000000000000000000000000000000000000000000000000000000000000000000000000000000000000000000000000000000000000000000000000000000000000000000000000000000000000000000000000000000000000000000000000000000000000000000000000000000000000000000000000000000000000000000000000000000000000000000000000000000000000000000000000000000000000000000000000000000000000000000000000000000000000000000X00000000000000000000000000000000000000000000000000000000000000000000000000000000000000000000000000000000000000000000000000000000000000000000000000000000000000000000000000000000000000000000000000000000000000000000000000000000000000000000000000000000000000000000000000000000000000000000000000000000000000000000000000000000000000000000000000000000000000000000000000000000000000000000000000000000000000000000000000000000000000000000000000000000000000000000000000000000000000000000000000000000000000000000000000000000000000000000000000000000000000000000000000000000000Y000000000000000000000000000000000000000000000000000000000000000000000000000000000000000000000000000000000000000000000000000000000000000000000000000000000000000000000000000000000000000000000000000000000000000000000000000000000000000000000000000000000000000000000000000000000000000000000000000000000000000000000000000000000000000000000000000000000000000000000000000000000000000000000000000000000000000000000000000000000000000000000000000000000000000000000000000000000000000000000000000000000000000000000000000000000000000000000000000000000000000000000000000000000Z000000000000000000000000000000000000000000000000000000000000000000000000000000000000000000000000000000000000000000000000000000000000000000000000000000000000000000000000000000000000000000000000000000000000000000000000000000000000000000000000000000000000000000000000000000000000000000000000000000000000000000000000000000000000000000000000000000000000000000000000000000000000000000000000000000000000000000000000000000000000000000000000000000000000000000000000000000000000000000000000000000000000000000000000000000000000000000000000000000000000000000
#TIL00: ""
#VOLUME: ""
#HISPEED 00
#MEASUREHS 00
#00216:14
#00212:0014
#0021b:13
#00217:0014
#00416:14
#0041a:0014
#00412:13
#00415:0014
#0011a:0014
#00112:16
#00118:16
#00312:0014
#00318:16
#00310:41
#00512:0014
#0051a:0014
#00514:14
#0061a:0014
#00612:0014
#00618:14
#00712:0014
#0071a:0014
#00714:14
#00818:14
#00819:0014
#00813:0014
#0091a:0014
#00915:0014
#00918:26
#00912:26
#01016:0014
#01018:16
#01012:1413
#01112:2614
#01117:0014
#01110:41
#0121a:14
#01217:00140000
#01214:0013
#01219:0013
#01216:00000013
#01418:13
#01415:13
#0151b:13
#01518:0013
#01512:13
#01515:0013
#01718:00120012
#01713:0000120000120000
#01715:0000000000005212
#01719:00000000005200000000000000520000
#0171a:0000005200000052
#0171b:00000000000000520000000000000000
#0171c:0052
#01714:00000000000000000000005200000000
#01716:00000000000000000000000000000052
#01817:520000120000002300000000
#0181b:22000023
#01813:00220000
#0181a:0023
#01814:000023
#01818:000000000023
#01815:000000000000000000000023
#02012:00241300
#0201b:00000013
#0201a:24000000000000000000000000530000
#02015:24000000000000000000005300000000
#02017:00242400
#02013:00000000000000000053000000000000
#02014:0000000000530000
#02016:00000053
#02019:0000000000000053
#02018:00000000000000000000000000000053
#02112:25130024
#02117:53130013
#02116:0013
#02114:0000000000000013
#02216:1313
#02219:0013000000000000
#02217:00130000
#02214:0000001300000000
#02212:00240013
#0221b:00000013
#02218:0000000000000013
#0221a:2424
#02315:1313
#02314:00130013000000000013001300000000
#02313:0013000000130000
#02318:00130013
#02319:00000000001300130000000000130013
#0231a:0000001300000013
#0231b:0013000000130000
#02312:0000001300000013
#02415:1300001300000000
#02418:0013000013000000
#0241b:00130000
#02412:00130024
#0241a:00000024
#02618:0013001300001300
#02612:24002413
#02615:0000000000000013
#0261b:13
#0261a:0024
#02614:00240000
#02718:1313
#02712:00130000
#02713:00000013
#02710:41
#02912:13
#02914:00130000
#02916:2413
#02918:00240000
#0291a:0024
#03012:1324
#03016:24130000
#03017:00001313
#0301a:00240000
#0311b:1212
#03113:12
#03213:12
#0321b:0012
#03219:0000000000120000
#03217:00000012
#03215:0000000000000012
#03416:00000013
#0341b:00000013
#03415:00130000
#03418:00261300
#03412:0026
#03512:13000013
#03517:13
#0351b:00130000
#03515:0013
#03510:41
#03618:13
#03612:0015
#03619:0015
#03718:0012
#03913:00150000
#03918:00000016
#04418:0012
#04416:0012
#0451b:12000062
#04513:12000062
#04515:0000001200000000
#04519:0000001200000000
#04718:0000000000000014
#04714:0000000000000014
#04716:14
#0471a:0000142400000000
#04712:0000142400000000
#04819:00000000000000150000000000000000
#04812:00000000000000150000000000000000
#04818:343434343434343434343434
#04814:343434343434343434343434
#0491b:0000131300001300
#04912:0000130000130013
#04916:0000001300001414
#0491f:21
#0501a:0014000000000000
#05014:0000001400000000
#05012:00001313
#05018:0000000000140000
#0501b:00000013
#05016:0000000000000014
#05010:41
#05117:0000132300000000
#05112:2300231300000000
#0511b:2300000000002313
#05116:0000000000000023
#05212:0000001300000000
#05215:0013
#05218:0000000000130000
#0521b:00000013
#05216:0000000000000014
#05312:14000013
#0531a:1400000000000014
#0531b:0000001300000000
#05318:0013
#05315:0000000000130000
#05417:13
#05419:00130000
#0541b:0013
#05412:24000013
#05413:00250000
#05414:0026
#05415:00000027
#05513:13
#05516:28
#05512:0000242400000000
#0551a:0000242400000000
#05518:0000000000002323
#05515:0000000000000023
#05615:0000000000000013
#05618:0000000000000013
#05612:0000242400002300
#0561a:0000002400000000
#0561b:00000023
#0571a:000000240014000000000000
#05712:000000000000000000240014
#05716:000014240024
#06018:0000000000000013
#06012:0000002424000000
#06016:00000000000000240000000000000000
#06019:25
#06115:0013000000130013
#06118:00131300
#0611b:2300001300000000
#06112:23000013
#06218:0013000000000000
#06215:00130000
#06212:2300001300002500
#06217:0013
#06214:00000000000000000000000000000024
#0621b:23
#06219:00000025
#03312:13
#03314:00130000
#03316:0013
#03315:25
#03317:00250000
#03319:0025
#0411f:11
#04116:62000062
#04118:0000626200000062
#0411a:0000000000620000
#04114:0000000000620000
#01912:23240024
#0191a:2424
#01917:00230024
#01916:0023
#01910:41
#0251a:00240024
#02512:00240024
#04012:26
#04018:26000062
#0401a:0062
#06318:24242525
#06314:00000024000000000000000000000000
#06313:00000000000000250000002500000000
#06312:00000000000000000000000000000026
#06418:26262626
#06412:0000000000000000000000000000000000000000000000002600000000000000000000000000000000000000000000000000000000000000260000000000000000000000000000000000000000000000000000000000000026000000000000000000000000000000000000000000000000000000000000000065000000000000
#06413:00000000000000000000000000000026
#06517:26260000
#06514:0000000000000000000000000000000000000000000000000000000000000000000000000000000000000000000000000000000000000000260000000000000000000000000000000000000000000000000000000000000026000000000000000000000000000000000000000000000000000000000000000065000000000000
#06516:00002626
#06515:00000000000000000000000000000026
#06513:0000000000000000000000000000000000000000000000002600000000000000000000000000000000000000000000000000000000000000006500000000000000000000000000000000000000000000000000000000000000650000000000000000000000000000000000000000000000000000000000000000650000000000
#06519:0065000000000000000000000000000000000000000000000000000000000000006500000000000000000000000000000000000000000000000000000000000000006500000000000000000000000000000000000000000000000000000000000000650000000000000000000000000000000000000000000000000000000000
#06518:0000000000000000000000000000000000000000000000000000000000000000000000000000000000000000000000000000000000000000000000000000000000650000000000000000000000000000000000000000000000000000000000000065000000000000000000000000000000000000000000000000000000000000
#06512:0000000000000000000000000000000000000000000000000065000000000000000000000000000000000000000000000000000000000000000065000000000000000000000000000000000000000000000000000000000000006500000000000000000000000000000000000000000000000000000000000000006500000000
#06615:26
#06617:0065000000000000000000000000000000000000000000000000000000000000000000000000000000000000000000000000000000000000000000000000000000000000000000000000000000000000000000000000000000000000000000000000000000000000000000000000000000000000000000000000000000000000
#06618:00650000000000000000000000000000000000000000000000000000000000000000000000000000000000000000000000000000000000000000000000000000
#06619:0000006500000000000000000000000000000000000000000000000000000000000000000000000000000000000000000000000000000000000000000000000000000000000000000000000000000000000000000000000000000000000000000000000000000000000000000000000000000000000000000000000000000000
#0581a:000000240024000000000000
#05816:240024240000
#05813:00000024
#05819:00000024
#0591a:2424
#05912:24
#05915:00230023
#01313:23
#0131a:23
#0281b:22
#02816:0022000000000000
#02819:00220000
#02814:0000002200000000
#02817:0022
#0161b:53
#01612:53
#04216:0062006200006200
#0421a:0000006200620000
#04214:0000000000620000
#04218:0000000000000062
#0431a:6200000000006262
#04314:0000626200000000
#04612:63
#04615:00630000
#04618:0063
#0461b:00000063
#00252:0024
#00256:54
#00456:64
#0045a:0024
#00552:0024
#00554:54
#0065a:0024
#00658:64
#00752:0024
#00754:54
#00952:36
#00958:56
#0095a:0024
#01056:0024
#01058:56
#01152:6624
#0165b:53
#01652:63
#01458:53
#01455:63
#0155b:53
#01558:0023
#01552:63
#01555:0023
#0195a:4444
#01952:00340034
#01957:00000034
#0205a:44
#02055:44
#02052:00340000
#02057:00340000
#02152:15
#02157:00530000
#0215b:0013
#0225a:0014
#02355:2323
#02353:0023000000230000
#02354:00530053000000000053005300000000
#02358:00230023
#02359:00000000006300630000000000630063
#0235a:0000002300000023
#02458:0013
#0245a:00000054
#02452:00000064
#02558:1313
#02555:1313
#0255a:00540000
#02552:00640000
#02652:0034
#0265a:0044
#02758:5353
#02752:00530000
#02753:00000053
#03153:62
#0315b:0052
#03253:62
#03557:53
#03555:0053
#0355b:00230000
#03552:00000023
#03755:13
#03758:13
#03652:0055
#03658:23
#03659:0065
#04052:16
#04058:16
#04158:0000005200000000
#04458:0052
#04456:0052
#04553:52
#0455b:52
#04559:0000002200000000
#04555:0000002200000000
#04758:0000000000000064
#0475a:0000005400000000
#04754:0000000000000054
#04752:0000006400000000
#04859:00000000000000250000000000000000
#04852:00000000000000250000000000000000
#06358:44444545
#06458:46464646
#06452:00000000000000360000003600000000
#06453:00000000000000000000000000000036
#06557:46460000
#06554:00000000000000360000003600000000
#06556:00004646
#06555:00000000000000000000000000000036
#06553:00000036000000000000000000000000
#06655:46
#0495b:0000005300000000
#04952:0000000000000053
#04954:14
#04958:14
#0505a:0064000000000000
#05054:0000005400000000
#05052:0023
#05152:1300005300000000
#0515b:1300000000000053
#0535a:14
#05352:14
#05556:18
#05552:0000005400000000
#05558:0000000000000023
#05652:0000001400005300
#0565a:0000001400000000
#05655:0000000000000023
#05658:0000000000000023
#0565b:00000053
#05752:33
#0575b:43
#05756:0014
#05856:1414
#05853:00000014
#05859:00000014
#0595a:5454
#05955:00530053
#05952:1414
#05958:00130013
#06052:1414
#06059:55
#06257:0053
#06259:00000015
#00152:26
#00158:46
#00358:26
#02956:44
#02958:00440000
#0295a:0044
#03056:44
#0305a:00440000
#03052:0034
#03355:45
#03357:00450000
#03359:0045
#03458:00464300
#03452:0036
#03455:00330000
#01353:53
#0135a:53
#02857:0012
#001320:16
#002360:34
#002320:0054
#003340:24
#003381:16
#004361:34
#0043a1:0054
#005381:24
#005340:14
#005320:0054
#006340:24
#006381:14
#0063a1:0054
#007381:24
#007340:14
#007320:0054
#008340:24
#009380:16
#0093a0:0054
#010380:36
#010360:0054
#011380:26
#011321:1654
#012321:26
#0133a1:13
#014381:33
#0153b1:33
#015381:0053
#0163b1:23
#013330:13
#014350:33
#015320:33
#015350:0053
#016320:23
#021370:00130000
#0213b0:0023
#023350:13230000
#023340:00530053000000000000000000000000
#023330:0053000000000000
#023381:00132300
#023391:00000000005300530000000000000000
#0233a1:0000005300000000
#023350:00001323
#023340:00000000000000000053005300000000
#023330:0000000000530000
#023381:00000013
#023391:00000000000000000000000000530053
#0233a1:0000000000000053
#024381:23
#0243a1:00000014
#025381:23
#024320:00000014
#025350:23
#0253a0:00140000
#025380:0023
#025321:00140000
#025351:0023
#027381:13
#0273c1:00220000
#027320:00130000
#027360:0022
#027381:0013
#0273b1:00000022
#027330:00000013
#028360:22
#031330:12
#031370:0022
#0313b1:0012
#032371:22
#032330:12
#032370:0022
#035370:13
#0353b0:00530000
#035380:0023
#035351:0013
#035321:00000053
#036351:23
#036380:13
#036390:0055
#037380:23
#036321:0015
#037351:23
#037361:0012
#038361:22
#038380:1323
#038341:0014
#039341:24
#039380:1525
#039321:0016
#040321:26
#041381:0000001200000000
#0413a1:0000000000220000
#042361:0012002200000000
#0423a0:0000001200220000
#043340:0000001200000000
#043360:00000052
#044360:0032
#045330:32000022
#045350:0000005200000000
#0433a1:0000000000000012
#044381:00523200
#0453b1:32000022
#045391:0000005200000000
#0473a1:0000001400000000
#047381:0000000000003434
#048381:343434343434343434343434
#048391:00000000000000550000000000000000
#049381:24
#047320:0000001400000000
#047340:0000000000003434
#048340:343434343434343434343434
#048320:00000000000000550000000000000000
#049340:24
#0493b0:0000001300000000
#049360:0000000000240000
#049320:0000000000000013
#050360:0024000000000000
#0503a1:0014000000000000
#050381:0000002300000000
#050340:0000001400240000
#050320:0053
#051320:0000001300000000
#051360:00000023
#0513b0:0000000000000013
#052370:0000002300000000
#055320:0000001400000000
#055350:00000023
#055380:0000000000000013
#0563a0:00240000
#056320:00000013
#056350:0000000000000053
#057320:23
#0563b1:00000013
#056381:0000000000000053
#0573b1:23
#0593a1:14
#059381:00230000
#059350:00130000
#059320:0024
#0593a1:0014
#059381:00000023
#059350:00000013
#060320:24
#060391:15
#060361:0000002400000000
#062371:0013
#062391:00000025
#0169b0:13
#016980:000000000000000000000000000000000000000000000000000000000000000000000000000000000000000000000000000000000000000000000000000000000000000000000000000000000000000000000000000000000000000000000000000000000000000000000000000000000000000000000000000000000000000000000000000000000000000000000000000000000000000000000000000000000000000000000000000000000000000000000000000000000000000000000000000000000000000000000000000000000000000000000000000000000000000000000000000000000000000000000000000000000000000000000000000000000000000000000000000000000000000000000000000000000000000000000000000000000000000000000000000000000000000000000000000000000000000000000000000000000000000000000000000000000000000000000000000000000000000000000000000000000000000000000000000000000000000000000000000000000000000000000000000000000000000000000000000000000000000000000000000000000000000000000000000000000000000000000000000000000000000000000000000000000000000000000000000000000000000000000000000000000000000000000000000000000000000000000000000000000000000000000000000000000000000000000000000000000000000000000000000000000000000000000000000000000000000000000000000000000000000000000000000000000000000000000000000000000000000000000000000000000000000000000000000000000000000000000000000000000000000000000000000000000000000000000000000000000000000000000000000000000000000000000000000000000000000000000000000000000000000000000000000000000000000000000000000000000000000000000000000000000000000000000000000000000000000000000000000000000000000000000000000000000000000000000000000000000000000000000000000000000000000000000000000000000000000000000000000000000000000000000000000000000000000000000000000000000000000000000000000000000000000000000000000000000000000000000000000000000000000000000000000000000000000000000000000000000000000000000000000000000000000000000000000000000000000000000000000000000000000000000000000000000000000000000000000000000000000000000000000000000000000000000000000000000000000000000000000000000000000000000000000000000000000000000000000000000000000000000000000000000000000000000000000000000000000000000000000000000000000000000000000000000000000000000000000000000000000000000000000000000000000000000000000000000000000000000000000000000000000000000000000000000000000000000000000000000000000000000000000000000000000000000000000000000000000000000000000000000000000000000000000000000000000000000000000000000000000000000000000000000000000000000000000000000000000000000000000000000000000000000000000000000000000000000000000000000000000000000000000000000000000000000000000000000000000000000000000000000000000000000000000000000000000000000000000000000000000000000000000000000000000000000000000000000000000000000000000000000000000000000000000000000000000000000000000000000000000000000000000000000000000000000000000000000000000000000000000000000000000000000000000000000000000000000000000000000000000000000000000000000000000000000000000000000000000000000000000000000000000000000000000000000000000000000000000000000000000000000000000000000000000000000000000000000000000000000000000000000000000000000000000000000000000000000000000000000000000000000000000000000000000000000000000000000000000000000000000000000000000000000000000000000000000000000000000000000000000000000000000000000000000000000000000000000000000000000000000000000000000000000000000000000000000000000000000000000000000000000000000000000000000000000000000000000000000000000000000000000000000000000000000000000000000000000000000000000000000000000000000000000000000000000000000000000000000000000000000000000000000000000000000000000000000000000000000000000000000000000000000000000000000000000000000000000000000000000000000000000000000000000000000000000000000000000000000000000000000000000000000000000000000000000000000000000000000000000000000000000000000000000000000000000000000000000000000000000000000000005151
#017980:21
#016921:13
#016971:000000000000000000000000000000000000000000000000000000000000000000000000000000000000000000000000000000000000000000000000000000000000000000000000000000000000000000000000000000000000000000000000000000000000000000000000000000000000000000000000000000000000000000000000000000000000000000000000000000000000000000000000000000000000000000000000000000000000000000000000000000000000000000000000000000000000000000000000000000000000000000000000000000000000000000000000000000000000000000000000000000000000000000000000000000000000000000000000000000000000000000000000000000000000000000000000000000000000000000000000000000000000000000000000000000000000000000000000000000000000000000000000000000000000000000000000000000000000000000000000000000000000000000000000000000000000000000000000000000000000000000000000000000000000000000000000000000000000000000000000000000000000000000000000000000000000000000000000000000000000000000000000000000000000000000000000000000000000000000000000000000000000000000000000000000000000000000000000000000000000000000000000000000000000000000000000000000000000000000000000000000000000000000000000000000000000000000000000000000000000000000000000000000000000000000000000000000000000000000000000000000000000000000000000000000000000000000000000000000000000000000000000000000000000000000000000000000000000000000000000000000000000000000000000000000000000000000000000000000000000000000000000000000000000000000000000000000000000000000000000000000000000000000000000000000000000000000000000000000000000000000000000000000000000000000000000000000000000000000000000000000000000000000000000000000000000000000000000000000000000000000000000000000000000000000000000000000000000000000000000000000000000000000000000000000000000000000000000000000000000000000000000000000000000000000000000000000000000000000000000000000000000000000000000000000000000000000000000000000000000000000000000000000000000000000000000000000000000000000000000000000000000000000000000000000000000000000000000000000000000000000000000000000000000000000000000000000000000000000000000000000000000000000000000000000000000000000000000000000000000000000000000000000000000000000000000000000000000000000000000000000000000000000000000000000000000000000000000000000000000000000000000000000000000000000000000000000000000000000000000000000000000000000000000000000000000000000000000000000000000000000000000000000000000000000000000000000000000000000000000000000000000000000000000000000000000000000000000000000000000000000000000000000000000000000000000000000000000000000000000000000000000000000000000000000000000000000000000000000000000000000000000000000000000000000000000000000000000000000000000000000000000000000000000000000000000000000000000000000000000000000000000000000000000000000000000000000000000000000000000000000000000000000000000000000000000000000000000000000000000000000000000000000000000000000000000000000000000000000000000000000000000000000000000000000000000000000000000000000000000000000000000000000000000000000000000000000000000000000000000000000000000000000000000000000000000000000000000000000000000000000000000000000000000000000000000000000000000000000000000000000000000000000000000000000000000000000000000000000000000000000000000000000000000000000000000000000000000000000000000000000000000000000000000000000000000000000000000000000000000000000000000000000000000000000000000000000000000000000000000000000000000000000000000000000000000000000000000000000000000000000000000000000000000000000000000000000000000000000000000000000000000000000000000000000000000000000000000000000000000000000000000000000000000000000000000000000000000000000000000000000000000000000000000000000000000000000000000000000000000000000000000000000000000000000000000000000000000000000000000000000000000000000000000000000000000000000000000000000000000000000000000000000000000000000000000000000000000000000005151
#017971:21
#017981:00120000
#0179c1:0022
#017931:0000000000120000
#017951:00000022
#017980:00000012
#0179a0:0000000000000022
#017951:0000000000000012
#018971:22
#020921:0013
#020961:00000023
#0209b0:00000013
#021970:23
