This file was generated by Ched 2.7.0.0.
#TITLE ""
#ARTIST ""
#DESIGNER ""
#DIFFICULTY 0
#PLAYLEVEL
#SONGID ""
#WAVE ""
#WAVEOFFSET 0
#JACKET ""
#REQUEST "ticks_per_beat 480"
#00002: 4
#BPM01: 150
#BPM02: 145.31
#BPM03: 140.84
#BPM04: 136.51
#BPM05: 132.31
#BPM06: 128.25
#BPM07: 124.3
#BPM08: 120.48
#BPM09: 149.61
#BPM0A: 149.22
#BPM0B: 148.83
#BPM0C: 148.45
#BPM0D: 148.06
#BPM0E: 147.67
#BPM0F: 147.29
#BPM0G: 146.91
#BPM0H: 146.52
#BPM0I: 146.14
#BPM0J: 145.76
#BPM0K: 145.38
#BPM0L: 145.01
#BPM0M: 145
#BPM0N: 144.62
#BPM0O: 144.25
#BPM0P: 143.87
#BPM0Q: 143.5
#BPM0R: 143.12
#BPM0S: 142.75
#BPM0T: 142.38
#BPM0U: 142.01
#BPM0V: 141.64
#BPM0W: 141.27
#BPM0X: 140.9
#BPM0Y: 140.54
#BPM0Z: 140.17
#00008: 01
#00908: 01
#01708: 01
#00808: 000000000000000000000000000000000000000000000000000000000000000000000000000000000000000000000000000000000000000000000000000000000000000000000000000000000000000000000000000000000000000000000000000000000000000000000000000000000000000000000000000000000000000000000000000000000000000000000000000000000000020000000000000000000000000000000000000000000000000000000000000000000000000000000000000000000000000000000000000000000000000000000000000000000000000000000000000000000000000000000000000000000000000000000000000000000000000000000000000000000000000000000000000000000000000000000000000000000000000000000000000000000000000000000000000000000000000000000000000000000000000000000000000000000000000000000000000000000000000000000000000000000000000000000000000000000000000000000000000000000000000000000000000000000000000000000000000000000000000000000000000000000000000000000000000000000000000003000000000000000000000000000000000000000000000000000000000000000000000000000000000000000000000000000000000000000000000000000000000000000000000000000000000000000000000000000000000000000000000000000000000000000000000000000000000000000000000000000000000000000000000000000000000000000000000000000000000000000000000000000000000000000000000000000000000000000000000000000000000000000000000000000000000000000000000000000000000000000000000000000000000000000000000000000000000000000000000000000000000000000000000000000000000000000000000000000000000000000000000000000000000004000000000000000000000000000000000000000000000000000000000000000000000000000000000000000000000000000000000000000000000000000000000000000000000000000000000000000000000000000000000000000000000000000000000000000000000000000000000000000000000000000000000000000000000000000000000000000000000000000000000000000000000000000000000000000000000000000000000000000000000000000000000000000000000000000000000000000000000000000000000000000000000000000000000000000000000000000000000000000000000000000000000000000000000000000000000000000000000000000000000000000005000000000000000000000000000000000000000000000000000000000000000000000000000000000000000000000000000000000000000000000000000000000000000000000000000000000000000000000000000000000000000000000000000000000000000000000000000000000000000000000000000000000000000000000000000000000000000000000000000000000000000000000000000000000000000000000000000000000000000000000000000000000000000000000000000000000000000000000000000000000000000000000000000000000000000000000000000000000000000000000000000000000000000000000000000000000000000000000006000000000000000000000000000000000000000000000000000000000000000000000000000000000000000000000000000000000000000000000000000000000000000000000000000000000000000000000000000000000000000000000000000000000000000000000000000000000000000000000000000000000000000000000000000000000000000000000000000000000000000000000000000000000000000000000000000000000000000000000000000000000000000000000000000000000000000000000000000000000000000000000000000000000000000000000000000000000000000000000000000000000000000000000000000000000700000000000000000000000000000000000000000000000000000000000000000000000000000000000000000000000000000000000000000000000000000000000000000000000000000000000000000000000000000000000000000000000000000000000000000000000000000000000000000000000000000000000000000000000000000000000000000000000000000000000000000000000000000000000000000000000000000000000000000000000000000000000000000000000000000000000000000000000000000000000000000000000000000000000000000000000000000000000000000000000000000000000000000800000000000000000000000000000000000000000000000000000000000000000000000000000000000000000000000000000000000000000000000000000000000000000000000000000000000000000000000000000000000000000000000000000000000000000000000000000000000000000000000000000000000000000000000000000000000000000000000000000000000000000000
#01308: 00000000000000000000000000000000000000000000000000000000000000000000000000000000000000000000000000000000000000000000000000000000000000000000000000000000000000000000000000000000000000000000000000000000000000000000000000000000000000000000000000000000000000000000000000000000000000000000000000000000000009000000000000000000000000000000000000000000000000000000000000000000000000000000000000000000000000000000000000000000000000000000000000000000000000000000000000000000000000000000000000000000000000000000000000000000000000000000000000000000000000000000000000000000000000000000000000000000000000000000000000000000000000000000000000000000000000000000000000000000000000000000000000000000000000000000000000000000000000000000000000000000000000000000000000000000000000000000000000000000000000000000000000000000000000000000000000000000000000000000000000000000000000000000000000000000000000000000000000000000000A0000000000000000000000000000000000000000000000000000000000000000000000000000000000000000000000000000000000000000000000000000000000000000000000000000000000000000000000000000000000000000000000000000000000000000000000000000000000000000000000000000000000000000000000000000000000000000000000000000000000000000000000000000000000000000000000000000000000000000000000000000000000000000000000000000000000000000000000000000000000000000000000000000000000000000000000000000000000000000000000000000000000000000000000000000000000000000000000000000000000000000000000000000000000000000000000000000000000000000000B0000000000000000000000000000000000000000000000000000000000000000000000000000000000000000000000000000000000000000000000000000000000000000000000000000000000000000000000000000000000000000000000000000000000000000000000000000000000000000000000000000000000000000000000000000000000000000000000000000000000000000000000000000000000000000000000000000000000000000000000000000000000000000000000000000000000000000000000000000000000000000000000000000000000000000000000000000000000000000000000000000000000000000000000000000000000000000000000000000000000000000000000000000000000000000000000000000000000000000000C00000000000000000000000000000000000000000000000000000000000000000000000000000000000000000000000000000000000000000000000000000000000000000000000000000000000000000000000000000000000000000000000000000000000000000000000000000000000000000000000000000000000000000000000000000000000000000000000000000000000000000000000000000000000000000000000000000000000000000000000000000000000000000000000000000000000000000000000000000000000000000000000000000000000000000000000000000000000000000000000000000000000000000000000000000000000000000000000000000000000000000000000000000000000000000000000000000000000000000D000000000000000000000000000000000000000000000000000000000000000000000000000000000000000000000000000000000000000000000000000000000000000000000000000000000000000000000000000000000000000000000000000000000000000000000000000000000000000000000000000000000000000000000000000000000000000000000000000000000000000000000000000000000000000000000000000000000000000000000000000000000000000000000000000000000000000000000000000000000000000000000000000000000000000000000000000000000000000000000000000000000000000000000000000000000000000000000000000000000000000000000000000000000000000000000000000000000000000E0000000000000000000000000000000000000000000000000000000000000000000000000000000000000000000000000000000000000000000000000000000000000000000000000000000000000000000000000000000000000000000000000000000000000000000000000000000000000000000000000000000000000000000000000000000000000000000000000000000000000000000000000000000000000000000000000000000000000000000000000000000000000000000000000000000000000000000000000000000000000000000000000000000000000000000000000000000000000000000000000000000000000000000000000000000000000000000000000000000000000000000000000000000000
#01408: 000000000000000000000000000F0000000000000000000000000000000000000000000000000000000000000000000000000000000000000000000000000000000000000000000000000000000000000000000000000000000000000000000000000000000000000000000000000000000000000000000000000000000000000000000000000000000000000000000000000000000000000000000000000000000000000000000000000000000000000000000000000000000000000000000000000000000000000000000000000000000000000000000000000000000000000000000000000000000000000000000000000000000000000000000000000000000000000000000000000000000000000000000000000000000000000000000000000000000000000000000000000000000000000G00000000000000000000000000000000000000000000000000000000000000000000000000000000000000000000000000000000000000000000000000000000000000000000000000000000000000000000000000000000000000000000000000000000000000000000000000000000000000000000000000000000000000000000000000000000000000000000000000000000000000000000000000000000000000000000000000000000000000000000000000000000000000000000000000000000000000000000000000000000000000000000000000000000000000000000000000000000000000000000000000000000000000000000000000000000000000000000000000000000000000000000000000000000000000000000000000000000000H000000000000000000000000000000000000000000000000000000000000000000000000000000000000000000000000000000000000000000000000000000000000000000000000000000000000000000000000000000000000000000000000000000000000000000000000000000000000000000000000000000000000000000000000000000000000000000000000000000000000000000000000000000000000000000000000000000000000000000000000000000000000000000000000000000000000000000000000000000000000000000000000000000000000000000000000000000000000000000000000000000000000000000000000000000000000000000000000000000000000000000000000000000000000000000000000000000000I0000000000000000000000000000000000000000000000000000000000000000000000000000000000000000000000000000000000000000000000000000000000000000000000000000000000000000000000000000000000000000000000000000000000000000000000000000000000000000000000000000000000000000000000000000000000000000000000000000000000000000000000000000000000000000000000000000000000000000000000000000000000000000000000000000000000000000000000000000000000000000000000000000000000000000000000000000000000000000000000000000000000000000000000000000000000000000000000000000000000000000000000000000000000000000000000000000000J00000000000000000000000000000000000000000000000000000000000000000000000000000000000000000000000000000000000000000000000000000000000000000000000000000000000000000000000000000000000000000000000000000000000000000000000000000000000000000000000000000000000000000000000000000000000000000000000000000000000000000000000000000000000000000000000000000000000000000000000000000000000000000000000000000000000000000000000000000000000000000000000000000000000000000000000000000000000000000000000000000000000000000000000000000000000000000000000000000000000000000000000000000000000000000000000000000K00000000000000000000000000000000000000000000000000000000000000000000000000000000000000000000000000000000000000000000000000000000000000000000000000000000000000000000000000000000000000000000000000000000000000000000000000000000000000000000000000000000000000000000000000000000000000000000000000000000000000000000000000000000000000000000000000000000000000000000000000000000000000000000000000000000000000000000000000000000000000000000000000000000000000000000000000000000000000000000000000000000000000000000000000000000000000000000000000000000000000000000000000000000000000000000000000000L000000000000000000000000000000000000000000000000000000000000000000000000000000000000000000000000000000000000000000000000000000000000000000000000000000000000000000000000000000000000000000000000000000000000000000000000000000000000000000000000000000000000000000000000000000000000000000000000000000000000
#01508: 0M0000000000000000000000000000000000000000000000000000000000000000000000000000000000000000000000000000000000000000000000000000000000000000000000000000000000000000000000000000000000000000000000000000000000000000000000000000000000000000000000000000000000000000000000000000000000000000000000000N0000000000000000000000000000000000000000000000000000000000000000000000000000000000000000000000000000000000000000000000000000000000000000000000000000000000000000000000000000000000000000000000000000000000000000000000000000000000000000000000000000000000000000000000000000000000000000000000000000000000000000000000000000000000000000000000000000000000000000000000000000000000000000000000000000000000000000000000000000000000000000000000000000000000000000000000000000000000000000000000000000000000000000000000000000000000000000000000000000000000000000000000000000000000000000000000000O00000000000000000000000000000000000000000000000000000000000000000000000000000000000000000000000000000000000000000000000000000000000000000000000000000000000000000000000000000000000000000000000000000000000000000000000000000000000000000000000000000000000000000000000000000000000000000000000000000000000000000000000000000000000000000000000000000000000000000000000000000000000000000000000000000000000000000000000000000000000000000000000000000000000000000000000000000000000000000000000000000000000000000000000000000000000000000000000000000000000000000000000000000000000000000000000P00000000000000000000000000000000000000000000000000000000000000000000000000000000000000000000000000000000000000000000000000000000000000000000000000000000000000000000000000000000000000000000000000000000000000000000000000000000000000000000000000000000000000000000000000000000000000000000000000000000000000000000000000000000000000000000000000000000000000000000000000000000000000000000000000000000000000000000000000000000000000000000000000000000000000000000000000000000000000000000000000000000000000000000000000000000000000000000000000000000000000000000000000000000000000000000000Q000000000000000000000000000000000000000000000000000000000000000000000000000000000000000000000000000000000000000000000000000000000000000000000000000000000000000000000000000000000000000000000000000000000000000000000000000000000000000000000000000000000000000000000000000000000000000000000000000000000000000000000000000000000000000000000000000000000000000000000000000000000000000000000000000000000000000000000000000000000000000000000000000000000000000000000000000000000000000000000000000000000000000000000000000000000000000000000000000000000000000000000000000000000000000000000R0000000000000000000000000000000000000000000000000000000000000000000000000000000000000000000000000000000000000000000000000000000000000000000000000000000000000000000000000000000000000000000000000000000000000000000000000000000000000000000000000000000000000000000000000000000000000000000000000000000000000000000000000000000000000000000000000000000000000000000000000000000000000000000000000000000000000000000000000000000000000000000000000000000000000000000000000000000000000000000000000000000000000000000000000000000000000000000000000000000000000000000000000000000000000000000S0000000000000000000000000000000000000000000000000000000000000000000000000000000000000000000000000000000000000000000000000000000000000000000000000000000000000000000000000000000000000000000000000000000000000000000000000000000000000000000000000000000000000000000000000000000000000000000000000000000000000000000000000000000000000000000000000000000000000000000000000000000000000000000000000000000000000000000000000000000000000000000000000000000000000000000000000000000000000000000000000000000000000000000000000000000000000000000000000000000000000000000000000000000000000000000T0000000000000000000000000000000000000000000000000000000000000000000000000000000000000000000000000000
#01608: 00000000000000000000000000000000000000000000000000000000000000000000000000000000000000000000000000000000000000000000000000000000000000000000000000000000000000000000000000000000000000000000000000000000000000000000000000000000000000000000000000000000000000000000000000000000000000000000000000000000000000000000000000000000000000000000000000000000000000000000000000000000000000000000000000000000000000000000000000000000000000000000000000000000000000000000000000000000000U00000000000000000000000000000000000000000000000000000000000000000000000000000000000000000000000000000000000000000000000000000000000000000000000000000000000000000000000000000000000000000000000000000000000000000000000000000000000000000000000000000000000000000000000000000000000000000000000000000000000000000000000000000000000000000000000000000000000000000000000000000000000000000000000000000000000000000000000000000000000000000000000000000000000000000000000000000000000000000000000000000000000000000000000000000000000000000000000000000000000000000000000000000000000000000V0000000000000000000000000000000000000000000000000000000000000000000000000000000000000000000000000000000000000000000000000000000000000000000000000000000000000000000000000000000000000000000000000000000000000000000000000000000000000000000000000000000000000000000000000000000000000000000000000000000000000000000000000000000000000000000000000000000000000000000000000000000000000000000000000000000000000000000000000000000000000000000000000000000000000000000000000000000000000000000000000000000000000000000000000000000000000000000000000000000000000000000000000000000000000W00000000000000000000000000000000000000000000000000000000000000000000000000000000000000000000000000000000000000000000000000000000000000000000000000000000000000000000000000000000000000000000000000000000000000000000000000000000000000000000000000000000000000000000000000000000000000000000000000000000000000000000000000000000000000000000000000000000000000000000000000000000000000000000000000000000000000000000000000000000000000000000000000000000000000000000000000000000000000000000000000000000000000000000000000000000000000000000000000000000000000000000000000000000000X00000000000000000000000000000000000000000000000000000000000000000000000000000000000000000000000000000000000000000000000000000000000000000000000000000000000000000000000000000000000000000000000000000000000000000000000000000000000000000000000000000000000000000000000000000000000000000000000000000000000000000000000000000000000000000000000000000000000000000000000000000000000000000000000000000000000000000000000000000000000000000000000000000000000000000000000000000000000000000000000000000000000000000000000000000000000000000000000000000000000000000000000000000000000Y000000000000000000000000000000000000000000000000000000000000000000000000000000000000000000000000000000000000000000000000000000000000000000000000000000000000000000000000000000000000000000000000000000000000000000000000000000000000000000000000000000000000000000000000000000000000000000000000000000000000000000000000000000000000000000000000000000000000000000000000000000000000000000000000000000000000000000000000000000000000000000000000000000000000000000000000000000000000000000000000000000000000000000000000000000000000000000000000000000000000000000000000000000000Z000000000000000000000000000000000000000000000000000000000000000000000000000000000000000000000000000000000000000000000000000000000000000000000000000000000000000000000000000000000000000000000000000000000000000000000000000000000000000000000000000000000000000000000000000000000000000000000000000000000000000000000000000000000000000000000000000000000000000000000000000000000000000000000000000000000000000000000000000000000000000000000000000000000000000000000000000000000000000000000000000000000000000000000000000000000000000000000000000000000000000000
#TIL00: ""
#VOLUME: ""
#HISPEED 00
#MEASUREHS 00
#02012:2413
#0201a:00240000
#02013:00000000000000000053000000000053
#02014:0000000000530053
#02015:00000000000000000000005300530000
#02016:00000053
#02118:0000000000000013
#0211b:00130000
#02112:63000023
#0221b:0013000000001300
#02218:0000001300000000
#02215:2300000023000013
#02212:00230000
#02418:0013000000000000
#02412:00130000
#0241b:0000001300000000
#02415:1313
#0241a:00000024
#04918:00130013
#04912:0000000000000013
#04915:0000001300000000
#0491f:21
#05212:0000001300000013
#05218:0013
#05215:0000000000130000
#0521b:00000013
#05318:1300000000130000
#0531b:0000001300000013
#05315:0013
#05312:00000013
#06015:0000000000000013
#06012:14
#06016:24
#06112:0013000000000000
#06115:0000130000130013
#06118:2300001300001300
#0611b:0013
#06218:0013000013000000
#06215:00130000
#06212:0000001300000000
#0621b:23
#0621a:00000024
#0011a:0000000000001414
#00112:14
#00212:0014
#00216:0000000000140000
#0021a:00000014
#00317:14
#00312:00000014
#00310:41
#00418:14
#00414:0000140000140000
#00412:00000000000000000000000000140000
#00512:00000014
#00518:14
#0061a:14
#00614:0000141400000000
#00716:14
#00718:0000141400000000
#00818:00140000
#00814:00000014
#00812:24
#0081a:0024
#00918:00000014
#00914:0000000000000024
#0101a:0000001400000014
#01012:0014
#01018:0000000000140000
#01014:00000014
#01118:0000001400000014
#01112:2414
#0111a:0000000000140000
#01114:00000014
#01110:41
#01212:14
#01219:00140000
#01217:0014
#01215:00000014
#01415:0000000000000013
#01418:0000000000000013
#01312:0000000000000013
#0131b:0000000000002313
#01313:24
#01712:13130000
#0171b:1300000000130000
#01713:00000000005300000000000000000000
#01714:0000005300000000
#01715:00000000000000530000000000000000
#01716:0053
#0171a:00000000000000000000005300000000
#01719:00000053
#01718:00000000000000000000000000530053
#01717:0000000000000053
#02318:1313
#0231b:00130000
#02515:0000000000000013
#02512:00240000
#0251b:00000023
#02612:0013000000001300
#02615:0000001300000000
#02618:2300000023000013
#0261b:00230000
#02715:1313
#02712:00130000
#02710:41
#03118:12
#0311b:0012
#03218:12
#03518:12
#0351a:0012
#03510:41
#03616:12
#03614:0012
#03912:14
#03918:0014
#03815:0013
#0381a:13
#03718:0012
#0401a:0012
#04018:00000012
#04019:25
#04818:13
#04815:13
#05015:0013000000000013
#0501b:0000000000130000
#05018:00000013
#05010:41
#0511b:0000000000000013
#0511a:24
#05118:0000002300000000
#05115:00230000
#05514:0000000000000014
#05518:0000000000000014
#05516:24
#05512:0000242400000000
#0551a:0000242400000000
#05916:14
#05915:00140000
#05914:0014
#05913:00000014
#0591a:24
#05919:00240000
#05918:0024
#05917:00000024
#0411f:11
#04116:22
#0411b:22
#04113:0022
#04118:0022
#01815:00230000
#0181a:0024
#01812:00000024
#01819:530000000000006400000000
#01818:000064
#01813:000000000064
#01814:000000000000000000000064
#0191a:00240000
#01914:0024
#01918:00000024
#01910:41
#01915:64
#02912:24
#02916:00240000
#0291a:0024
#03419:00250000
#03412:0025
#06314:24
#06318:00240025
#06313:0025
#06412:2628
#06418:00260000
#06416:00000028
#05412:23
#05415:00230000
#05418:0023
#0541b:00000023
#05812:00000024
#0581a:00240000
#05815:64
#05819:006400
#05818:000000000064000000000000
#05817:0064
#03016:24
#0301a:00240000
#03012:0024
#03312:24
#03316:00240000
#0331a:0024
#04216:22
#0421b:22
#0421a:0022
#04314:22
#04318:0022
#04413:22
#04417:0022
#0441b:0022
#04513:22
#04517:2222
#0451b:0022
#04619:22
#04617:0022
#04615:22
#04613:0022
#0471b:23
#04712:23
#05612:00000024
#0561a:00000024
#0571a:00240000
#05712:00000024
#05719:006400
#05718:000000000064000000000000
#05717:0064
#05713:000000000064
#05714:000000000000000000000064
#06512:2a2b
#06514:002a0000
#06513:0000002b
#06612:2c
#0281a:23
#02815:0023000000000000
#02819:00230000
#02814:0000002300000000
#02818:0023
#01612:53
#0161b:53
#0195a:00440000
#01954:0034
#01958:00000044
#01955:14
#02052:34
#0205a:00440000
#02255:0013
#02455:0013
#0245a:00000054
#02557:14
#02552:00640000
#02555:0014
#03452:0015
#03459:00150000
#04059:15
#04952:1500000000000053
#04959:15
#04955:0000005300000000
#0515a:14
#0515b:0000000000000053
#05158:0000005300000000
#05358:13
#05556:14
#05552:0000005400000000
#05554:0000000000000054
#05558:0000000000000064
#0555a:0000006400000000
#05852:00000014
#05855:14
#05857:0014
#00357:54
#00452:00000000000000000000000000240000
#00454:0000000000540000
#0095a:14
#00954:0000000000000064
#01152:54
#01455:0000000000000053
#01458:0000000000000063
#01353:54
#01352:0000000000000023
#0135b:0000000000000023
#02152:13
#02158:0013
#0215b:00530000
#02358:5353
#0235b:00530000
#02658:0013
#02755:6363
#02752:00630000
#03158:52
#0315b:0052
#03258:52
#0335a:0014
#03558:52
#0355a:0052
#03656:62
#03654:0062
#03958:0054
#03952:54
#03758:0052
#03855:0053
#0385a:53
#0475b:53
#04752:63
#04858:53
#04855:63
#05055:0053000000000000
#05652:0000001400005400
#0565a:0000001400005400
#05755:13
#05758:13
#05757:0014
#06056:5414
#0605a:0014
#06052:54
#06258:0053
#0625a:00000014
#06354:14
#06358:00140015
#06353:0015
#06452:1618
#06458:00160000
#06456:00000018
#06552:1a1b
#06554:001a0000
#06553:0000001b
#06652:1c
#00152:54
#0015a:0000000000000054
#0025a:00000054
#00558:54
#00654:0000005400000000
#00758:0000006400000000
#02858:0013
#001320:14
#001360:0024
#0013a0:0000000000000014
#002360:00240000
#0023a0:00000014
#003370:34
#0033a0:0024
#004380:0000001400240000
#004341:0000000000140000
#004321:00000000000000000000000000540000
#005341:24
#005380:14
#0053a0:0024
#006340:0000001400000000
#006320:00000024
#007380:0000001400000000
#0073a0:00000024
#008320:14342400
#0083a1:00001434
#0093a1:24
#009341:0000000000000014
#010321:00240000
#011321:14
#011341:00240000
#013331:14
#013321:0000000000003333
#014351:0000000000003333
#016321:23
#0133b0:0000000000001333
#014380:0000000000003333
#0163b0:23
#0213b0:00130000
#021380:0023
#023380:1333
#0233b0:00330023
#0243a0:00000014
#025370:24
#025320:00140000
#025350:0024
#027350:1333
#027320:00330023
#031380:12
#0313b0:0032
#032380:32
#0323b0:0022
#035380:12
#0353a0:0032
#036380:22
#036361:12
#036341:0032
#037361:22
#037381:0012
#0383a1:33
#038381:0023
#038350:0013
#039320:34
#039340:0024
#039381:0014
#040391:25
#042361:1222
#0423a0:0012
#0433a0:22
#043341:1222
#043380:0012
#044380:22
#0473b0:13
#048380:33
#049390:25
#047321:13
#048351:33
#049321:25
#049351:0000001300000000
#049321:0000000000230000
#049321:0000000000000013
#050351:0033000000000000
#050321:0000002300000000
#051381:0000001300000000
#0513b1:0000000000003333
#052381:00230000
#055321:0000001400000000
#055341:0000000000003434
#056321:0000342400000000
#0553a0:0000001400000000
#055380:0000000000003434
#0563a0:0000342400000000
#056320:00000014
#057350:23
#0563a1:00000014
#057381:23
#060321:14
#060361:00000000000034342400000000000000
#060360:14
#0603a0:00000000000034342400000000000000
#062380:0013
#0623a0:00000024
#017920:00130000
#017960:0023
#0179b0:0000000000130000
#017970:0000000000000053
#018990:23
#0189a0:0014
#018980:000024
#018920:00000014
#019950:24
#020920:0013
#020960:00000053
#021920:23
#0579a0:00140000
#057970:0024
#057920:00000014
#058950:24
#0589a0:00140000
#058970:0024
