This file was generated by Ched 2.7.0.0.
#TITLE ""
#ARTIST ""
#DESIGNER ""
#DIFFICULTY 0
#PLAYLEVEL
#SONGID ""
#WAVE ""
#WAVEOFFSET 0
#JACKET ""
#REQUEST "ticks_per_beat 480"
#00002: 4
#BPM01: 154
#00008: 01
#TIL00: ""
#VOLUME: ""
#HISPEED 00
#MEASUREHS 00
#00318:16
#00412:16
#00512:16
#00618:16
#00718:16
#00812:16
#00912:16
#01214:14
#01318:14
#0161a:14
#01712:14
#02418:14
#02514:14
#02812:14
#02810:41
#0291a:14
#03318:14
#03214:14
#03812:0016
#03818:26
#03810:41
#04012:1616
#04112:16
#04118:0016
#04614:14
#0471a:14
#04814:14
#0491a:14
#05012:14
#05010:41
#05118:14
#05212:14
#05318:14
#06014:0014
#0601a:24
#06212:14
#06218:0014
#06412:0016
#06418:26
#0641f:21
#06612:16
#06618:0016
#06712:16
#06718:0016
#07512:14
#07618:14
#07714:14
#0781a:14
#0211a:14
#04218:0016
#04212:26
#04418:1616
#05818:14
#06818:0016
#06812:26
#07018:16
#07012:0016
#07212:16
#07218:0016
#0561f:11
#00018:26
#00112:26
#00218:26
#01818:24
#03012:26
#03118:26
#03412:26
#03518:26
#04518:26
#05412:26
#05518:26
#07118:26
#07418:26
#07914:24
#07918:0024
#08014:24
#05914:24
#07312:26
#01010:41
#06510:41
#02010:41
#0103a0:14
#0113a0:24
#014320:14
#015320:24
#018380:14
#0203a0:24
#022320:14
#023320:24
#0263a0:14
#0273a0:24
#036340:14
#037340:24
#039380:1626
#043320:1626
#045380:1636363626000000
#056340:14
#057340:24
#0613a0:1424
#063320:1434343424000000
#065380:1626
#069320:1626
#071380:1636363626000000
#073320:1636363626000000
#074380:1636363626000000
