This file was generated by Ched 2.7.0.0.
#TITLE ""
#ARTIST ""
#DESIGNER ""
#DIFFICULTY 0
#PLAYLEVEL
#SONGID ""
#WAVE ""
#WAVEOFFSET 0
#JACKET ""
#REQUEST "ticks_per_beat 480"
#00002: 4
#BPM01: 154
#00008: 01
#TIL00: ""
#VOLUME: ""
#HISPEED 00
#MEASUREHS 00
#00217:00000000130000000000001300000000
#00212:00130000
#0021b:2300000013000013
#00216:2300000013000013
#00315:0000130000000013
#00318:0000001300005300
#00312:0013000013001300
#0031b:0000000013130000
#0031a:000053
#00319:000000000000000000000000000000000053000000000000
#01012:1313
#01015:00001300000000000000001300000000
#01018:00130000
#0101b:1300000013000013
#01010:41
#0131b:00001313
#01318:0013130000130000
#01315:00000013000013000000001300000000
#01312:0013
#0171a:00000014
#01716:00000014
#01718:0013130000000000
#01715:00000013000013000000000000000000
#0171b:0013
#01712:0013
#02012:1300000013000013
#02016:00000000130000000000001300000000
#0201b:00130000
#02017:0000000013000013
#02010:41
#0221b:0013130000000013
#02212:1313
#02218:13
#02216:00130000
#02219:00000000000000000000001300000000
#03118:0000000000131300
#03115:00000000000000000000001300001300
#0311a:24
#03116:00000024000000000000000000000000
#03112:0000002400000000
#0321b:1300001300000013
#03218:0000000000130000
#03212:13131313
#03912:13130000
#0391b:0000000013000000130000000000000000000000000000130000000000000000
#03915:0000001300000000
#03918:00000000000000130000000000000000
#04015:00000000130000130000000000000000
#04018:00000000001300000000000000000000
#0401a:00001400000000000000145454000000
#04012:14
#04115:1300001300130013
#04118:1313
#0411b:00000000000000000000001300000000
#04112:0013
#0471b:00001300130000000000130000130000
#04712:1314
#04715:0013130000000000
#04714:00000000000000000000001400000000
#04716:0000000000000014
#04916:0013000000000000
#04912:1300130000240024
#04918:0000001300000000
#04915:00000000000000130000000000000000
#0491b:0013000000000000
#04917:00130000
#0491a:00002424
#05318:13
#05315:00130000000000000000000000000000
#05312:00000000140000000000140000140000
#0531a:0000000014000014
#05316:00000000000000000000001400000000
#05415:0000000000001313
#05418:00000000000000000000130000130000
#05412:2400002400000000
#05416:00000024000000000000000000000000
#05416:00000024000000000000000000000000
#0541a:0000002400000000
#0611a:14
#06118:00000013000013000000000013000000
#06115:00001300000000130000000000001300
#06112:00140000
#0611b:0000000000130000
#0621b:1300000000130000
#06218:0013001300000000
#06215:00130000
#06212:13000000000000130000000000000000
#06219:00000013
#06217:0000000000000013
#06216:0000000000130000
#06214:00000033
#06412:0014000014000000
#0641a:2400141400000000
#06416:54130000
#06417:0013
#06419:0000000000250025
#06414:00000025
#0641f:21
#06512:0000001400140000
#06516:00000000140000140000000014000000
#0651a:0000000000000000000000000000000000140000000000000000000014000000
#06510:41
#0661b:13001300000000130000000000000000
#06615:00000000130000000000001300000000
#06618:00000000001300000000130016000000
#06612:1313000000000000
#06616:00000000000000130000000000000000
#06715:13000000000000000000001300000000
#06718:1300000000130000
#06714:0000001300000000
#06719:0000001300000000
#06712:0013
#0671b:0000000013000013
#00417:2300000013000013
#00412:2300000013000013
#00416:00000000130000000000001300000000
#0041b:00130000
#00512:0000000013130000
#0051b:0013000013001300
#00518:0000130000000013
#00515:0000001300005300
#00513:000053
#00514:000000000000000000000000000000000053000000000000
#00616:2300000013000013
#0061b:2300000013000013
#00617:00000000130000000000001300000000
#00612:00130000
#0071b:00001353
#00718:0000001300130000
#00712:0013000013001300
#00715:0000130000000013
#00719:000053
#0071a:000000000000000000000000000000000053000000000000
#00817:2300000013000013
#00812:2300000013000013
#00816:00000000130000000000001300000000
#0081b:00130000
#00918:0000130000000013
#00912:00001353
#00915:0000001300130000
#0091b:0013000013001300
#00914:000053
#00913:000000000000000000000000000000000053000000000000
#0141b:13000000000000001300001300000000
#01412:0013130000000013
#01416:1313
#01417:00130000
#0161b:1300130000000013
#01618:0013000000000000
#01612:00000013000000001300001300000000
#01615:00130000000000000000000000000000
#01617:0013
#02112:0000000013000013
#0211b:0000000000130000
#02115:13000013
#0211a:000053
#02119:000000000000000000000000000000000053000000000000
#02118:00000053
#02412:00001300130000000000001300000000
#0241b:1313
#02415:13
#02417:00130000
#02414:0000000000000013
#02518:0013000014000000
#02515:00000013000000000000000000000000
#02512:0000001300000000
#02514:0014
#02614:0013000000000000
#0261b:00000000130000000000001300000000
#02612:13
#02617:1300000000000013
#02616:00130000
#02712:0013000014000000
#0271b:00000013000000000000000000000000
#02718:0000001300000000
#0271a:0014
#02918:0013000014000000
#02915:00000013000000000000000000000000
#02912:0000001300000000
#02914:0014
#03318:13000000000000000000001300000000
#03315:1300000000130000
#0331a:0000001400000000
#03312:0000001400001300
#0351b:0000000000131300
#03512:2400001400000000
#03516:00000024000000000000000014000000
#0351a:0000002400000000
#03818:0013000013000000
#03815:0000001300000000
#0381a:2400000000140014
#03814:00000014
#03812:00131300
#03810:41
#04415:0000001300000000
#04418:00000000130000130000000000000000
#04416:0000000000130000
#04414:00000013
#04412:0014000000000013
#0441a:14
#0441b:0000000000133300
#0451a:1414242414000000
#04512:2424141424002600
#04518:0000000000132600
#04515:0000000000230000
#04612:13000000000000000000130000130000
#0461b:13
#04614:00130000
#04619:00130000
#0461a:0014
#04618:00000000000000000000001400000000
#04616:0000000000000014
#0481b:13
#04814:00130000
#04819:00130000
#0481a:0014
#04812:00000000000000000000130000130000
#04818:00000000000000000000001400000000
#04816:0000000000000014
#05518:0000000000130000
#05515:00000000000000000000001300000000
#0551b:00000013
#0551a:2400002400000000
#05516:00000024000000000000000000000000
#05516:00000024000000000000000000000000
#05512:0000002400000000
#05616:12
#05613:0012
#0561a:0012000000000012
#0561b:0000001200120000
#0561f:11
#05718:12
#0571c:0012
#05714:0012000000000012
#05713:0000001200120000
#05912:00000000000000000000130000130000
#0591a:0000000024000024
#05916:00000000000000000000002400000000
#06014:14
#06018:14001515
#06012:0013000000000000
#0601b:0013000000000000
#06013:0000000000150015
#0631a:1414000014000000
#06314:0000141400000054
#06312:24002414
#06318:0000240000540000
#06319:00000000000000000054000000000000
#06317:00000000000000000000005400000000
#06316:00000054
#06313:00000000000000000000000000540000
#06315:00000000000000000000000000000054
#07116:1414141400000000
#07112:2424000024000000
#0711a:0000242424000000
#07512:24130000
#07517:00000000130000000000001300000000
#07516:0000000013000013
#0751b:0000000013000013
#0751a:24
#07618:0000000013000013
#0761b:00000013
#07612:0000000000130000
#07613:000053
#07614:000000000000000000000000000000000053000000000000
#07615:00000053
#07716:00000000130000000000001300000000
#07717:0000000013000013
#0771b:00130000
#07712:2400000013000013
#0771a:24
#07812:00001313
#07815:0000000000000013
#0781b:0000000000130000
#0781a:000053
#07819:000000000000000000000000000000000053000000000000
#07818:00000053
#07914:0000002400140000
#07912:0026000000000014
#07918:16141400
#0001a:0000002400000014
#00018:0000000000130000
#00012:0024000014000000
#00015:00000000000000000000001300000000
#0111a:00000013
#01113:00000013
#01114:0012
#01118:00000012000000000000000000000000
#01116:0012000000000000
#0121b:1313
#01218:00001300000000000000001300000000
#01215:00130000
#01212:1300000013000013
#01515:00000013000000000000000000000000
#01518:0013000000000000
#01512:00000014
#0151a:00000014
#0151b:0013
#02819:0013000000000000
#02812:00000000130000000000001300000000
#0281b:13
#02816:1300000000000013
#02817:00130000
#02810:41
#0301b:0013
#03014:00000013
#03017:0000000000530013
#03012:25251300
#03019:25000000250000000053000000000000
#03412:25251300
#03419:25250013
#03416:0000000000530013
#0341b:0013
#03414:00000000000000000053000000000000
#03618:0013130000130000
#03615:00000013000013000000000013000000
#0361b:0013
#03612:2400000000000013
#0361a:24
#0431b:13130000
#04312:0000000013000000130000000000000000000000000000130000000000000000
#04318:0000001300000000
#04315:00000000000000130000000000000000
#04215:0013000013000000
#04218:0000001300001400
#04212:2400000000140014
#0421b:00131300
#05112:00001300000000000000140000140000
#05116:00000000130000000000001400000000
#0511a:1400000014000014
#05117:0013000000000000
#0511b:00130000
#0501a:14000000000000000000140000140000
#05019:00130000
#05014:00130000
#05012:0000000014000014
#05016:00000000000000000000001400000000
#05010:41
#05219:00130000
#05214:00130000
#05212:1400000014000014
#0521a:00000000000000000000140000140000
#05216:00000000000000000000001400000000
#0701b:0000000000000013
#07019:00000013
#07017:0000000000130000
#0701a:00140000
#07015:0000001300000000
#07018:00000000000000130000000000000000
#07012:0000000000130000
#07014:00000013
#07016:0000000000000013
#0681a:2414000014000000
#06812:2400141400250025
#06817:00130025
#06816:0013
#0691a:0000001400140000
#06916:00000000140000140000000014000000
#06912:0000000000000000000000000000000000140000000000000000000014000000
#07316:1414141400000000
#0731a:2424000024000000
#07312:0000242424000000
#07212:0000140000000013
#07214:00000013
#07216:0000000000130000
#07218:0000001300000000
#07215:00000000000000130000000000000000
#0721b:0000000000130000
#07219:00000013
#07217:0000000000000013
#02313:00000013
#0231a:00001213
#02316:00000012000000000000000000000000
#02318:0012000000000000
#05816:12
#05812:00000024
#0581a:00000024
#05818:52
#01816:24
#01812:24
#0191a:240000000000240000000000240000002400000024000000240000240000240000240000240024002400240024002400
#01919:000000000000240000000000000000000000240000000000000000000000240000000000000000000000240000000000000000002400000000000000240000000000000024000000000000002400000000000000240000000000000024000000000000240000000000240000000000240000000000240000000000240000000000240000000000240000000000240000000024000000240000002400000024000000240000002400000024000000240000002400000024000000240000002400
#01918:000000000000240000000000000000000000240000000000000000002400000000000000240000000000000024000000000000240000000000240000000000240000000000240000000024000000240000002400000024000000240000002400
#07418:24000026
#07414:0026000000000000
#07415:00280000
#07412:0000002a2c002600
#0801a:24
#08012:24
#00119:00000025
#00112:00240025
#0011a:2424
#00116:24242400
#03718:2600002600000000
#03712:00000026000000000000000000000000
#01856:64
#01852:14
#0195a:240000000000240000000000240000002400000024000000240000240000240000240000240024002400240024002400
#01959:000000000000540000000000000000000000540000000000000000000000540000000000000000000000540000000000000000005400000000000000540000000000000054000000000000006400000000000000640000000000000064000000000000540000000000540000000000540000000000540000000000540000000000540000000000540000000000540000000054000000540000005400000054000000540000005400000054000000540000005400000054000000540000005400
#01958:000000000000240000000000000000000000240000000000000000002400000000000000240000000000000024000000000000240000000000240000000000240000000000240000000024000000240000002400000024000000240000002400
#0135b:00000013
#0175a:00000014
#01756:00000014
#03059:15
#03052:00150000
#0325b:5300001300000000
#03258:0000000000130000
#0335a:00000014000054000000000000000000
#03358:63
#03355:53
#03352:00000014000000000000000000000000
#03652:14
#0365a:14
#04055:00000000000000630000000000000000
#04052:34000014
#0405a:0044000000001400
#0415b:00000000000000000000006300000000
#04155:53
#04158:53
#05452:1400001400000000
#05456:00000014000000000000000000000000
#05456:00000014000000000000000000000000
#0545a:0000001400000000
#06155:00000000000000630000000000000000
#06252:00000000000000530000000000000000
#06256:0000000000230000
#06556:00000000000000640000000014000000
#0655a:0000000000000000000000000000000000240000000000000000000014000000
#06552:0000000000140000
#06755:53000000000000000000006300000000
#06758:53
#06752:0053
#0005a:0000001400000000
#00052:0014000000000000
#00055:00000000000000000000005300000000
#0025b:0000000000000063
#00256:0063
#00252:00000000000000000000001300000000
#00457:0053
#00452:0000000000000053
#0045b:00000000000000000000001300000000
#00656:0063
#0065b:0000000000000063
#00652:00000000000000000000001300000000
#00857:0053
#00852:0000000000000053
#0085b:00000000000000000000001300000000
#0105b:0000000053000013
#01055:00000000000000000000005300000000
#01052:0000000000000013
#01456:0053
#0145b:00000000000000000000005300000000
#01452:0000130000000013
#01457:0000000000000013
#02057:0053
#02052:0000000000000053
#0205b:00000000000000000000001300000000
#02155:23
#0225b:00530000
#02252:0063
#02452:00630000
#0245b:0053
#0255a:00000014
#02552:00000014
#02558:0054
#02554:0064
#0265b:00530000
#02752:0054
#0275a:0054
#02754:00000014
#02758:00000014
#02958:0054
#02954:0064
#0295a:00000014
#02952:00000014
#0315a:14
#03156:00000014000000000000000000000000
#03152:0000001400000000
#0385a:0000000000140014
#03854:00000014
#03952:53
#0395b:0000000000000000000000000000000000000000000000230000000000000000
#03958:00000000000000530000000000000000
#04458:00000000000000630000000000000000
#0445a:44
#04452:0034000000000000
#0445b:0000000000230000
#04558:00000046
#04552:00000036
#0555b:00000053
#0555a:1400001400000000
#05556:00000014000000000000000000000000
#05556:00000014000000000000000000000000
#05552:0000001400000000
#05656:52
#05653:0022
#05758:62
#0575c:0022
#06054:54
#06058:54003535
#06052:0023000000000000
#0605b:0023000000000000
#06053:0000000000350035
#06352:1414
#06358:00140000
#06656:00000000000000530000000000000000
#06658:00000016
#07458:14000046
#07454:0016000000000000
#07455:00180000
#07452:0000001a1c003600
#07556:0063
#0755b:0000000000000063
#07552:00000000000000000000001300000000
#07757:0053
#07752:0000000000000053
#0775b:00000000000000000000001300000000
#07952:0016000000000000
#07954:0000001400000000
#0805a:14
#08052:14
#00159:00000015
#00152:00140015
#0015a:1414
#00156:14141400
#0115a:00000013
#01153:00000013
#05352:00140000
#0535a:0000140044000044
#05356:00000000000000000000004400000000
#06459:0000000000450045
#0645a:14
#06454:00000035
#01252:0000000063000013
#01258:00000000000000000000006300000000
#0125b:0000000000000013
#01552:00000014
#0155a:00000014
#0165b:0000130000000013
#01657:0063
#01652:00000000000000000000006300000000
#01656:0000000000000013
#02852:00630000
#03552:1400005400000000
#03556:00000014000000000000000054000000
#0355a:0000001400000000
#03758:4600004600000000
#03752:00000036000000000000000000000000
#0435b:63
#04355:00000000000000630000000000000000
#04352:0000000000000000000000000000000000000000000000230000000000000000
#04252:0000000000140014
#04258:00000014
#0465a:0044
#04658:00000000000000000000004400000000
#04656:0000000000000044
#04752:0034
#04754:00000000000000000000003400000000
#04756:0000000000000034
#0485a:0044
#04858:00000000000000000000004400000000
#04856:0000000000000044
#05052:1400000034000034
#05056:00000000000000000000003400000000
#0505a:14
#0515a:0000000044000044
#05156:00000000000000000000004400000000
#05252:0000000034000034
#05256:00000000000000000000003400000000
#05954:14
#05958:14
#05852:00000054
#0585a:00000054
#06956:00000000000000540000000014000000
#0695a:0000000000140000
#06952:0000000000000000000000000000000000240000000000000000000014000000
#07152:0014
#0715a:0014
#07352:0014
#0735a:0014
#03452:15
#03459:00150000
#06852:0000000000350035
#06857:00000045
#02353:00000013
#0235a:00000013
#000320:1424000000000000
#0003a0:0000142400000000
#000350:00000000000000000000001300000000
#000320:0000000000000023
#002360:0013
#002320:00000000000000000000002300000000
#0023b0:0000000000000013
#003370:0023000000000000
#004370:0013
#0043b0:00000000000000000000002300000000
#004320:0000000000000013
#005360:0023000000000000
#006360:0013
#006320:00000000000000000000002300000000
#0063b0:0000000000000013
#007370:0023000000000000
#008370:0013
#0083b0:00000000000000000000002300000000
#008320:0000000000000013
#009360:0023000000000000
#0103b0:0013
#010380:00000000000000000000002300000000
#010351:00000000000000000000001300000000
#010321:0000000000000023
#011361:0000122200000000
#0113a0:0000001222000000
#012320:0013
#012350:00000000000000000000002300000000
#012381:00000000000000000000001300000000
#0123b1:0000000000000023
#014361:0013
#014321:00000000000000000000002300000000
#0143b0:00000000000000000000001300000000
#014370:0000000000000023
#015380:0000132300000000
#015321:0000001323000000
#016371:0013
#0163b1:00000000000000000000002300000000
#016320:00000000000000000000001300000000
#016360:0000000000000023
#018360:14
#0183a0:0000000000000054
#0193a0:540000000000540000000000540000005400000054000000540000540000540000540000540054005400540054005400
#019390:000000000000540000000000000000000000540000000000000000000000540000000000000000000000540000000000000000005400000000000000540000000000000054000000000000005400000000000000540000000000000054000000000000540000000000540000000000540000000000540000000000540000000000540000000000540000000000540000000054000000540000005400000054000000540000005400000054000000540000005400000054000000540000005400
#019380:000000000000540000000000000000000000540000000000000000005400000000000000540000000000000054000000000000540000000000540000000000540000000000540000000054000000540000005400000054000000540000005400
#0203a0:24
#020370:0013
#0203b0:00000000000000000000002300000000
#020320:0000000000000013
#021350:53
#021320:0023000000000000
#0213b1:0013230000000000
#021350:0000132300000000
#021381:0000001323000000
#0223b1:00130000
#022371:0023
#022320:0013
#022360:0000000000000023
#023380:0000122200000000
#023341:0000001222000000
#024321:00130000
#024361:0023
#0243b0:0013
#024370:0000000000000023
#0253b0:0000132300000000
#025380:0014
#0253a0:00000024
#025341:0014
#025321:00000024
#0263b1:00130000
#026371:0023
#026320:0000000013000023
#026360:00000000000000000000003300000000
#027350:0000132300000000
#027320:0014
#027340:00000024
#0273a1:0014
#027381:00000024
#028321:00130000
#028361:0023
#0283b0:0000000013000023
#028370:00000000000000000000003300000000
#0293b0:0000132300000000
#029380:0014
#0293a0:00000024
#029341:0014
#029321:00000024
#0323b1:13
#032381:00230000
#033381:13
#0333a1:00000024000000000000000000000000
#033350:13
#033320:00000024000000000000000000000000
#0333a0:0000001400000000
#033380:0000000000230000
#035320:0000001400000000
#035360:0000000000343400
#036320:24
#038350:1323000000000000
#0383b0:0000132300000000
#039320:13
#039360:0023000000000000
#039380:00000000000000130000000000000000
#0393b0:0000000000000000000000000000000000000000000000530000000000000000
#040380:23
#040350:00000000000000130000000000000000
#040320:00000000000000000000343424000000
#041350:13
#041320:00230000
#041381:13
#0413b1:00230000
#0413b1:00000000000000000000001300000000
#041381:0000000000000023
#042381:1323000000000000
#042321:0000132300000000
#0433b1:13
#043371:0023000000000000
#043351:00000000000000130000000000000000
#043321:0000000000000000000000000000000000000000000000530000000000000000
#044351:23
#044381:00000000000000130000000000000000
#0443b1:0000000000333300
#044371:0000000000000023
#0493a1:0014
#049361:0000000000240000
#049320:0000000000140000
#049360:00000024
#0493a1:00000014
#049361:0000000000000024
#049320:0000000000000014
#050320:24
#0533a0:0014240000000000
#0553b0:00000013
#056380:22
#056361:12
#056331:0032
#057361:22
#057380:12
#0573c0:0032
#058380:22
#058320:00000014
#059340:24
#0583a1:00000014
#059381:24
#060341:14240000
#060321:0053000000000000
#060380:14240000
#0603b0:0053000000000000
#061350:00000000000000130000000000000000
#061320:0000000000230000
#062320:00000000000000130000000000002300
#062360:0000000000330000
#062340:00000033
#065320:1424000000000000
#0653a1:0014240000000000
#065361:00000000000000140000240000000000
#0653a1:0000000000000000000000000000000000540000000000000000000000000000
#066361:00000000000000130000000000000000
#066321:0000000000230000
#067351:13
#067321:00230000
#067380:13
#0673b0:00230000
#067320:0013
#067350:0000000000230000
#067350:00000000000000000000001300000000
#067320:0000000000000023
#0693a0:1424000000000000
#069321:0014240000000000
#069361:00000000000000140000240000000000
#069321:0000000000000000000000000000000000540000000000000000000000000000
#0703a1:14
#070361:00542400000000000000000000000000
#070320:0014000000000000
#070360:00000054240000000000000000000000
#072320:14
#072360:00542400000000000000000000000000
#0723a1:0014000000000000
#072361:00000054240000000000000000000000
#073381:0000000000000014
#074381:24
#075361:0013
#075321:00000000000000000000002300000000
#0753b1:0000000000000013
#076371:0023000000000000
#076320:0013000000000000
#076350:00230000
#076381:00130000
#0763b1:0000002300000000
#076350:0000001300000000
#076320:0023
#077370:0013
#0773b0:00000000000000000000002300000000
#077320:0000000000000013
#078360:0023000000000000
#0783b1:0013000000000000
#078381:00230000
#078350:00130000
#078320:0000002300000000
#078381:0000001300000000
#0783b1:0023
#079381:00000000000000000000001400000000
#0793a1:0000000000005434
#0803a1:24
#0039b0:0000000000130000
#003980:00000023
#005920:0000000000130000
#005950:00000023
#007980:0000000000130000
#0079b0:00000023
#009950:0000000000130000
#009920:00000023
#0219b0:0000000000130000
#021980:00000023
#0309b0:0013
#030970:0000000000230000
#034920:0013
#034960:0000000000230000
#0409a0:0000000000142400
#0639a0:0014
#063960:00000024
#063921:00000014
#064961:24
#076921:0000000000130000
#076951:00000023
#0789b1:0000000000130000
#078981:00000023
