This file was generated by Ched 2.7.0.0.
#TITLE ""
#ARTIST ""
#DESIGNER ""
#DIFFICULTY 0
#PLAYLEVEL
#SONGID ""
#WAVE ""
#WAVEOFFSET 0
#JACKET ""
#REQUEST "ticks_per_beat 480"
#00002: 4
#BPM01: 154
#00008: 01
#TIL00: ""
#VOLUME: ""
#HISPEED 00
#MEASUREHS 00
#00218:00130000
#00215:0013
#0021b:2300000000000013
#00212:23
#00315:0013000000130000
#00318:00130013
#00312:0000001300000013
#0031b:0013
#00415:00130000
#00418:2313
#00412:0000000000000013
#00518:0013000000130000
#00515:00130013
#0051b:0000001300000013
#00512:0013
#00618:0000130000000013
#00615:2313
#00815:0000130000000013
#00818:2313
#01018:0013130000000000
#01012:0014
#01016:00000000000000000000001400000000
#0101a:0000000000000014
#01015:13
#01010:41
#01118:0013
#0111b:00130000
#01115:0000001300000000
#01112:0013000000000000
#01215:13
#01218:0013130000000000
#01212:0014
#01216:00000000000000000000001400000000
#0121a:0000000000000014
#01315:0013130000000000
#01318:00000013000013000000000000000000
#0131b:0013
#01314:00000014
#0171a:00000014
#01712:00001314
#01718:0013130000000000
#01715:00000013000013000000000000000000
#02018:0013
#02015:0000130000000013
#02010:41
#02215:13
#0221b:0013130000000000
#02212:0014
#02216:00000000000000000000001400000000
#0221a:0000000000000014
#02515:0013130000000000
#02518:00000013000013000000000000000000
#0251b:0013
#02514:00000014
#03112:00000025000000000000130000000000
#03118:00000013
#03115:0000000000000013
#03119:2500002500000000
#03218:0000001300000013
#0321b:1300000000130000
#03215:00130013
#03212:0013
#03318:0000001300000000
#03315:13
#03518:0000000000130000
#03515:00000013
#03512:2500002500000000
#03519:00000025000000000000000000000000
#03818:0013001300000000
#03815:00130000
#03812:2313
#03819:0000000000151515
#03810:41
#03912:13
#03918:0013001300000000
#03915:00000000130000130000000000000000
#0401b:13
#04012:0013000000000000
#04018:00000000130000130000000000000000
#04015:00000000001300000000000000000000
#04118:0000001300130000
#04115:0013
#04112:00000000000000000000001300000000
#04215:0013001300000000
#04218:00130000
#0421b:2313
#04212:0000000000151515
#0431b:13
#04315:0013001300000000
#04318:00000000130000130000000000000000
#04412:13000000000000130000000000000000
#04418:0013001300001300
#04415:0000130000000013
#0461b:1313
#04615:00130000
#04619:00000000000000000000005300000000
#04617:0000000000000053
#04712:0013130000000000
#04717:0013
#04719:00000000000000000000005300000000
#0471b:0000000000000053
#0491b:0013130000000023
#04912:0023
#04918:0000000000230000
#04915:00000023
#05012:13
#05018:00130000
#05010:41
#05115:0013130000000000
#05212:13
#05218:00130000
#05315:0013130000000000
#06015:1313
#06018:0013001300160016
#06012:00130016
#06112:13
#06118:0013001300000000
#06115:00000000130000130000000000000000
#06218:13000000000000130000000013000000
#06212:0013000000130000
#0621b:00130000
#06215:0000001300000013
#06412:0014000000262626
#06418:00140000
#06414:0000001400000000
#0641a:0014
#0641f:21
#0651a:1400000000000000000000000000000000000014000000000000000000000000
#06514:0014001400000000
#06518:00000000140000140000000000000000
#06510:41
#0661b:0013000000000000
#06615:00130000
#06618:00000000001300000000000000000000
#06612:13000000000000130000000000000000
#06715:0000001300000000
#06718:00000000000000001300001300000000
#06712:0000000000130000
#06818:0014000000262626
#06814:00140000
#0681a:0000001400000000
#06812:2414
#06912:1400000000000000000000000000000000000014000000000000000000000000
#06918:0014001400000000
#06914:00000000140000140000000000000000
#07012:0013000000000000
#07018:00000000130000130000000000001300
#07015:0000001300001300
#0701b:13
#07518:00130000
#0751b:2300000013000013
#07512:00130000
#07515:2313
#07612:0013000000000000
#07618:00130013
#07615:0000001300130013
#0761b:0013
#0771b:00130000
#07715:00130000
#07712:2300000013000013
#07718:2313
#00012:2514
#00019:00250000
#00013:00000000000000000000003400000000
#00715:0013000000130013
#0071b:00130013
#00712:0000001300000000
#00718:0013
#00918:0013000000130013
#00912:00130013
#0091b:0000001300000000
#00915:0013
#01415:0013130000000000
#0141a:0014
#01416:00000000000000000000001400000000
#01418:13
#01412:0000000000000014
#0161a:0014
#01616:00000000000000000000001400000000
#01612:0000000000000014
#01618:13
#01615:0013130000000000
#0211b:0013000000000013
#02115:00130013
#02118:0000001300130000
#02112:0013
#02318:00130000
#02315:0000001300000000
#02312:0013000000000000
#0231a:0014
#01515:0013
#01512:00130000
#01518:0000001300000000
#0151b:0013000000000000
#02412:1314
#02418:0013130000000000
#02416:00000000000000000000001400000000
#0241a:0000000000000014
#02618:13
#02612:0013130000000014
#0261a:0014
#02616:00000000000000000000001400000000
#02715:00130000
#02718:0000001300000000
#0271b:0013000000000000
#02712:0014
#0281b:13
#02815:0013130000000000
#0281a:0014
#02816:00000000000000000000001400000000
#02812:0000000000000014
#02810:41
#02918:0013130000001400
#02915:00000013000013000000000000000000
#02912:0013
#04812:1313
#04818:00130000
#04814:00000000000000000000005300000000
#04816:0000000000000053
#07212:0013000000000000
#07218:00000000130000130000000000001300
#07215:0000001300001300
#0721b:13
#0781b:0013000000000000
#07815:00130013
#07818:0000001300130013
#07812:0013
#0561f:11
#0011a:24
#00114:00240000
#00118:0024
#00112:00000025
#00119:00000025
#01817:24
#01812:24
#03012:25
#03019:25
#0191a:24
#01915:24
#0591a:0000000024000024
#05912:00000000000000000000002400000000
#03419:25
#03412:25
#03612:25
#03619:25
#03712:24000024000024000000000000000000
#0371a:24000024000024000000000000000000
#04518:24242400
#04514:0024002400240000
#05412:2500002500000000
#05419:00000025000000000000000000000000
#05519:2500002500000000
#05512:00000025000000000000000000000000
#0631a:24242400
#06312:0024002400000000
#06316:00000000000000000034343434340000
#0741a:24242400
#07412:0024002400000000
#07912:2624
#07918:00000000260000000000003400000000
#0791a:0024
#07914:00000000000000000000003400000000
#07112:24242400
#0711a:0024002400000000
#07312:24242400
#0731a:0024002400000000
#05812:00000024
#0581a:00000024
#01857:64
#01852:64
#0195a:24
#01955:24
#03052:15
#03059:15
#00152:00000015
#00159:00000015
#00255:0063
#00252:00000000000000000000001300000000
#00458:0053
#0045b:00000000000000000000001300000000
#00655:0063
#00652:00000000000000000000001300000000
#01354:00000014
#0175a:00000014
#01752:00000014
#02058:0053
#0205b:00000000000000000000001300000000
#02357:00000014
#0235a:0054
#03358:0000006300000000
#03355:63
#03459:15
#03452:15
#03652:15
#03659:15
#03955:00000000000000630000000000000000
#04058:00000000000000530000000000000000
#0405b:00000013
#04152:00000000000000000000005300000000
#04358:00000000000000530000000000000000
#05452:1500001500000000
#05459:00000015000000000000000000000000
#05559:1500001500000000
#05552:00000015000000000000000000000000
#0595a:1400000014000014
#05952:14000000000000000000001400000000
#06155:00000000000000630000000000000000
#06456:14
#0635a:0064
#06558:00000000000000640000000014000000
#0655a:0000000000000000000000000000000000000024000000000000000000000000
#06652:00000000000000530000000000000000
#06655:00000013
#06758:00000000000000000000005300000000
#06954:00000000000000540000000014000000
#06952:0000000000000000000000000000000000000024000000000000000000000000
#07058:00000000000000530000000000000000
#07156:00000014
#07152:0054
#0745a:14141400
#07452:0014001400000000
#0755b:0063
#07555:0063
#07552:00000000000000000000001300000000
#07558:00000000000000000000001300000000
#07952:1664
#07958:00160000
#0795a:0054
#08054:14
#08058:14
#00059:00150000
#00052:1554
#00858:0053
#0085b:00000000000000000000001300000000
#02554:00000014
#0325b:13
#04452:00000000000000530000000000000000
#04554:00000014
#07752:0053
#07758:0053
#0775b:00000000000000000000001300000000
#07755:00000000000000000000001300000000
#01158:0053
#0115b:00000013
#01555:0063
#01552:00000013
#02752:0064
#02755:00000014
#02958:00000014
#07258:00000000000000530000000000000000
#07352:0054
#07356:00000014
#000320:0014
#000330:00000000000000000000003400000000
#000340:0000000000000024
#002350:0013
#002320:00000000000000000000002300000000
#004380:0013
#0043b0:00000000000000000000002300000000
#006350:0013
#006320:00000000000000000000002300000000
#008380:0013
#0083b0:00000000000000000000002300000000
#011380:0013
#0113b0:00000023
#015350:0013
#015320:00000023
#018370:14
#0193a0:54
#020370:24
#018321:14
#019351:54
#020321:24
#020381:0013
#0203b1:00000000000000000000002300000000
#0233a1:0014
#023371:00000024
#027321:0014
#027351:00000024
#033351:13
#033321:00000023000000000000000000000000
#033381:0000001300000000
#0333b1:00000023
#039351:00000000000000130000000000000000
#039321:00000023
#040381:00000000000000130000000000000000
#0403b1:00000023
#041321:13230000
#041351:0053000000000000
#0413b0:13230000
#041380:0053000000000000
#041320:00000000000000000000001300000000
#041350:0000000000000023
#043380:00000000000000130000000000000000
#0433b0:00000023
#044320:00000000000000130000000000000000
#044350:0000000000230000
#045340:0000000000142400
#050320:0000000013000023
#050350:00000000000000000000003300000000
#0513b0:0000000013000023
#051380:00000000000000000000003300000000
#052350:0000000013000023
#052320:00000000000000000000003300000000
#053380:0000000013000023
#0533b0:00000000000000000000003300000000
#056350:13
#056320:0033
#057350:23
#057381:13
#0573b1:0033
#058381:23
#0583a1:00000014
#0593a1:24
#058320:00000014
#059320:24
#061350:00000000000000130000000000000000
#061320:00000023
#0633a0:0014
#063360:00000000000000000034343434343434
#064360:24
#065380:00000000000000140000000024000000
#0653a0:0000000000000000000000000000000000000054000000000000000000000000
#066320:00000000000000130000000000000000
#066350:00000023
#0673b0:13230000
#067380:0053000000000000
#067321:13230000
#067351:0053000000000000
#067381:00000000000000000000001300000000
#0673b1:0000000000000023
#069341:00000000000000140000000024000000
#069321:0000000000000000000000000000000000000054000000000000000000000000
#070381:00000000000000130000000000000000
#0703b1:0000000000230000
#071321:0014
#071361:00000024
#072381:00000000000000130000000000000000
#0723b1:0000000000230000
#073321:0014
#073361:00000024
#0753b1:0013
#075381:00000000000000000000002300000000
#075350:0013
#075320:00000000000000000000002300000000
#077320:0013
#077350:00000000000000000000002300000000
#077381:0013
#0773b1:00000000000000000000002300000000
#079321:0014
#079341:00000000000000000000003400003400
#080341:24
#0793a0:0014
#079380:00000000000000000000003400003400
#080380:24
#0469b0:0013
#046970:000000000000000000000000000000000000000000000000000000000000000000000000000000000000000000000000000000000000000000000000000000000000000000000000000000000000000000000000000000000000000000000000000000000000000000000000000000000000000000000000000000000000000000000000000000000000000000000000000000000000000000000000000000000000000000000000000000000000000000000000000000000000000000000000000000000000000000000000000000000000000000000000000000000000000000000000000000000000000000000000000000000000000000000000000000000000000000000000000000000000000000000000000000000000000000000000000000000000000000000000000000000000000000000000000000000000000000000000000000000000000000000000000000000000000000000000000000000000000000000000000000000000000000000000000000000000000000000000000000000000000000000000000000000000000000000000000000000000000000000000000000000000000000000000000000000000000000000000000000000000000000000000000000000000000000000000000000000000000000000000000000000000000000000000000000000000000000000000000000000000000000000000000000000000000000000000000000000000000000000000000000000000000000000000000000000000000000000000000000000000000000000000000000000000000000000000000000000000000000000000000000000000000000000000000000000000000000000000000000000000000000000000000000000000000000000000000000000000000000000000000000000000000000000000000000000000000000000000000000000000000000000000000000000000000000000000000000000000000000000000000000000000000000000000000000000000000000000000000000000000000000000000000000000000000000000000000000000000000000000000000000000000000000000000000000000000000000000000000000000000000000000000000000000000000000000000000000000000000000000000000000000000000000000000000000000000000000000000000000000000000000000000000000000000000000000000000000000000000000000000000000000000000000000000000000000000000000000000000000000000000000000000000000000000000000000000000000000000000000000000000000000000000000000000000000000000000000000000000000000000000000000000000000000000000000000000000000000000000000000000000000000000000000000000000000000000000000000000000000000000000000000000000000000000000000000000000000000000000000000000000000000000000000000000000000000000000000000000000000000000000000000000000000000000000000000000000000000000000000000000000000000000000000000000000000000000000000000000000000000000000000000000000000000000000000000000000000000000000000000000000000000000000000000000000000000000000000000000000000000000000000000000000000000000000000000000000000000000000000000000000000000000000000000000000000000000000000000000000000000000000000000000000000000000000000000000000000000000000000000000000000000000000000000000000000000000000000000000000000000000000000000000000000000000000000000000000000000000000000000000000000000000000000000000000000000000000000000000000000000000000000000000000000000000000000000000000000000000000000000000000000000000000000000000000000000000000000000000000000000000000000000000000000000000000000000000000000000000000000000000000000000000000000000000000000000000000000000000000000000000000000000000000000000000000000000000000000000000000000000000000000000000000000000000000000000000000000000000000000000000000000000000000000000000000000000000000000000000000000000000000000000000000000000000000000000000000000000000000000000000000000000000000000000000000000000000000000000000000000005353230000000000000000000000000000000000000000000000000000000000000000000000000000000000000000000000000000000000000000000000000000000000000000000000000000000000000000000000000000000000000000000000000000000000000000000000000000000000000000000000000000000000000000000000000000000000000000000000000000000000000000000000000000000000000000000000000000000000000000000000000000000000000000000000000000000000000000000000000000000000000000000000000000000000000000000000000000000000000000000000
#047970:0013
#0479b0:000000000000000000000000000000000000000000000000000000000000000000000000000000000000000000000000000000000000000000000000000000000000000000000000000000000000000000000000000000000000000000000000000000000000000000000000000000000000000000000000000000000000000000000000000000000000000000000000000000000000000000000000000000000000000000000000000000000000000000000000000000000000000000000000000000000000000000000000000000000000000000000000000000000000000000000000000000000000000000000000000000000000000000000000000000000000000000000000000000000000000000000000000000000000000000000000000000000000000000000000000000000000000000000000000000000000000000000000000000000000000000000000000000000000000000000000000000000000000000000000000000000000000000000000000000000000000000000000000000000000000000000000000000000000000000000000000000000000000000000000000000000000000000000000000000000000000000000000000000000000000000000000000000000000000000000000000000000000000000000000000000000000000000000000000000000000000000000000000000000000000000000000000000000000000000000000000000000000000000000000000000000000000000000000000000000000000000000000000000000000000000000000000000000000000000000000000000000000000000000000000000000000000000000000000000000000000000000000000000000000000000000000000000000000000000000000000000000000000000000000000000000000000000000000000000000000000000000000000000000000000000000000000000000000000000000000000000000000000000000000000000000000000000000000000000000000000000000000000000000000000000000000000000000000000000000000000000000000000000000000000000000000000000000000000000000000000000000000000000000000000000000000000000000000000000000000000000000000000000000000000000000000000000000000000000000000000000000000000000000000000000000000000000000000000000000000000000000000000000000000000000000000000000000000000000000000000000000000000000000000000000000000000000000000000000000000000000000000000000000000000000000000000000000000000000000000000000000000000000000000000000000000000000000000000000000000000000000000000000000000000000000000000000000000000000000000000000000000000000000000000000000000000000000000000000000000000000000000000000000000000000000000000000000000000000000000000000000000000000000000000000000000000000000000000000000000000000000000000000000000000000000000000000000000000000000000000000000000000000000000000000000000000000000000000000000000000000000000000000000000000000000000000000000000000000000000000000000000000000000000000000000000000000000000000000000000000000000000000000000000000000000000000000000000000000000000000000000000000000000000000000000000000000000000000000000000000000000000000000000000000000000000000000000000000000000000000000000000000000000000000000000000000000000000000000000000000000000000000000000000000000000000000000000000000000000000000000000000000000000000000000000000000000000000000000000000000000000000000000000000000000000000000000000000000000000000000000000000000000000000000000000000000000000000000000000000000000000000000000000000000000000000000000000000000000000000000000000000000000000000000000000000000000000000000000000000000000000000000000000000000000000000000000000000000000000000000000000000000000000000000000000000000000000000000000000000000000000000000000000000000000000000000000000000000000000000000000000000000000000000000000000000000000000000000000000000000000000000000000005353230000000000000000000000000000000000000000000000000000000000000000000000000000000000000000000000000000000000000000000000000000000000000000000000000000000000000000000000000000000000000000000000000000000000000000000000000000000000000000000000000000000000000000000000000000000000000000000000000000000000000000000000000000000000000000000000000000000000000000000000000000000000000000000000000000000000000000000000000000000000000000000000000000000000000000000000000000000000000000000000
#048920:0013
#048960:000000000000000000000000000000000000000000000000000000000000000000000000000000000000000000000000000000000000000000000000000000000000000000000000000000000000000000000000000000000000000000000000000000000000000000000000000000000000000000000000000000000000000000000000000000000000000000000000000000000000000000000000000000000000000000000000000000000000000000000000000000000000000000000000000000000000000000000000000000000000000000000000000000000000000000000000000000000000000000000000000000000000000000000000000000000000000000000000000000000000000000000000000000000000000000000000000000000000000000000000000000000000000000000000000000000000000000000000000000000000000000000000000000000000000000000000000000000000000000000000000000000000000000000000000000000000000000000000000000000000000000000000000000000000000000000000000000000000000000000000000000000000000000000000000000000000000000000000000000000000000000000000000000000000000000000000000000000000000000000000000000000000000000000000000000000000000000000000000000000000000000000000000000000000000000000000000000000000000000000000000000000000000000000000000000000000000000000000000000000000000000000000000000000000000000000000000000000000000000000000000000000000000000000000000000000000000000000000000000000000000000000000000000000000000000000000000000000000000000000000000000000000000000000000000000000000000000000000000000000000000000000000000000000000000000000000000000000000000000000000000000000000000000000000000000000000000000000000000000000000000000000000000000000000000000000000000000000000000000000000000000000000000000000000000000000000000000000000000000000000000000000000000000000000000000000000000000000000000000000000000000000000000000000000000000000000000000000000000000000000000000000000000000000000000000000000000000000000000000000000000000000000000000000000000000000000000000000000000000000000000000000000000000000000000000000000000000000000000000000000000000000000000000000000000000000000000000000000000000000000000000000000000000000000000000000000000000000000000000000000000000000000000000000000000000000000000000000000000000000000000000000000000000000000000000000000000000000000000000000000000000000000000000000000000000000000000000000000000000000000000000000000000000000000000000000000000000000000000000000000000000000000000000000000000000000000000000000000000000000000000000000000000000000000000000000000000000000000000000000000000000000000000000000000000000000000000000000000000000000000000000000000000000000000000000000000000000000000000000000000000000000000000000000000000000000000000000000000000000000000000000000000000000000000000000000000000000000000000000000000000000000000000000000000000000000000000000000000000000000000000000000000000000000000000000000000000000000000000000000000000000000000000000000000000000000000000000000000000000000000000000000000000000000000000000000000000000000000000000000000000000000000000000000000000000000000000000000000000000000000000000000000000000000000000000000000000000000000000000000000000000000000000000000000000000000000000000000000000000000000000000000000000000000000000000000000000000000000000000000000000000000000000000000000000000000000000000000000000000000000000000000000000000000000000000000000000000000000000000000000000000000000000000000000000000000000000000000000000000000000000000000000000000000000000000000000000000000000000000005353230000000000000000000000000000000000000000000000000000000000000000000000000000000000000000000000000000000000000000000000000000000000000000000000000000000000000000000000000000000000000000000000000000000000000000000000000000000000000000000000000000000000000000000000000000000000000000000000000000000000000000000000000000000000000000000000000000000000000000000000000000000000000000000000000000000000000000000000000000000000000000000000000000000000000000000000000000000000000000000000
