This file was generated by Ched 2.7.0.0.
#TITLE ""
#ARTIST ""
#DESIGNER ""
#DIFFICULTY 0
#PLAYLEVEL
#SONGID ""
#WAVE ""
#WAVEOFFSET 0
#JACKET ""
#REQUEST "ticks_per_beat 480"
#00002: 4
#BPM01: 154
#00008: 01
#TIL00: ""
#VOLUME: ""
#HISPEED 00
#MEASUREHS 00
#01314:1414
#01318:00140000
#02114:14
#02118:0014
#0331a:1414
#03314:00140000
#03218:14
#03212:0014
#0481a:14
#04814:0014
#06718:14
#0671a:0014
#06714:00000014
#06712:00140000
#06818:0014
#0681a:14
#06814:00140000
#06812:00000014
#07012:14
#07014:0014
#0701a:00140000
#07018:00000014
#07514:14
#0751a:0014
#07612:14
#07618:00140000
#07614:0014
#0761a:00000014
#07712:14
#0771a:0014
#07818:00140000
#07812:14
#07814:0014
#0781a:00000014
#00018:14
#00014:0014
#00218:0014
#00212:24
#00314:14
#00318:0014
#00412:14
#0041a:0014
#00514:14
#0051a:0014
#00618:0014
#00612:14
#00714:14
#00718:0014
#00812:14
#0081a:0014
#00914:14
#0091a:0014
#0121a:0014
#01212:14
#0201a:0014
#02010:41
#02514:14
#02518:00140000
#02512:0014
#0241a:0014
#02412:14
#03814:00140014
#03818:0014
#03810:41
#03918:14
#0391a:0034343400000000
#04212:14
#04218:00140014
#04214:0014
#04314:14
#04312:0034343400000000
#0461a:14
#04614:0014
#04718:14140000
#04714:0014
#04918:14140000
#04914:0014
#05212:14
#0521a:0014
#05012:14
#0501a:0014
#05010:41
#05114:14140000
#0511a:0014
#05314:14140000
#0531a:0014
#06014:1414
#06018:00140014
#06114:14
#06112:0034343400000000
#0621a:14
#06212:00140000
#06218:0014
#06214:00000014
#06418:00140000
#06414:0014
#0641a:00000014
#06412:24
#0641f:21
#06512:14
#06514:0034343400000000
#06510:41
#0691a:14
#06918:0034343400000000
#0721a:14
#07218:0014
#07212:00140000
#07214:00000014
#0111a:0014
#01718:1414
#01714:00140000
#01612:0014
#0161a:14
#01512:0014
#0231a:0014
#02918:14
#02914:00140000
#0291a:0014
#02912:00000014
#02812:0014
#0281a:14
#02810:41
#02712:0014
#04012:14
#04018:00140000
#04014:0014
#0401a:00000014
#0441a:14
#04414:00140000
#04418:0014
#04412:00000014
#0561f:11
#00118:26262600
#01814:24
#03018:26
#03114:24
#03112:00000034000034000000000000000000
#04518:26
#04512:00000026
#05414:24
#05413:00000034000000000000000000000000
#05812:24
#0581a:24
#05919:24
#05913:24
#0591a:0024
#05912:0024
#07112:26
#07318:26
#07412:26
#07418:00000026
#07912:2626
#07918:00260000
#01912:24
#03412:26
#03518:24
#0351a:00000034000034000000000000000000
#03612:26
#03718:24
#0371a:00000034000000000000000000000000
#05518:24
#05519:00000034000000000000000000000000
#06318:26
#01010:41
#01854:54
#01952:24
#03058:16
#03154:54
#03452:16
#03558:64
#03652:16
#03758:64
#03958:64
#04354:54
#04552:00000016
#05454:64
#05452:0000001400000000
#05558:54
#0555a:0000001400000000
#06154:54
#06358:0016
#06552:64
#0695a:54
#07152:0016
#07358:0016
#07452:0016
#07458:00000016
#08052:16
#01354:0014
#01758:0014
#02552:0014
#0385a:14
#06452:14
#010340:14
#010320:0034
#011340:24
#014380:14
#0143a0:0034
#015380:24
#018340:14
#019320:54
#020340:24
#022320:14
#022340:0034
#023320:24
#0263a0:14
#026380:0034
#0273a0:24
#031340:14
#031320:00000034000034000000000024000000
#035380:14
#0353a0:00000034000034000000000024000000
#037380:14
#0373a0:00000034000034000000000000000000
#0383a0:24
#039380:14
#0393a0:00003400340034340000000024000000
#041320:14
#041340:00240000
#0413a0:0014
#041380:00000024
#043340:14
#043320:00003400340034340000000024000000
#045380:1636363626000000
#054340:14
#054330:00000034000000000000000000000000
#054320:0000002400000000
#055380:14
#055390:00000034000000000000000000000000
#0553a0:0000002400000000
#056340:14
#056320:0034
#057320:34
#057340:0024
#061340:14
#061320:00003400340034340000000024000000
#063380:1636363626000000
#065320:14
#065340:00003400340034340000000024000000
#0663a0:14
#066380:00240000
#066320:0014
#066340:00000024
#0693a0:14
#069380:00003400340034340000000024000000
#071320:1636363626000000
#073380:1636363626000000
#074320:1636363626000000
#079320:00000000000000001600363600003600
#080320:26
