This file was generated by Ched 2.7.0.0.
#TITLE ""
#ARTIST ""
#DESIGNER ""
#DIFFICULTY 0
#PLAYLEVEL
#SONGID ""
#WAVE ""
#WAVEOFFSET 0
#JACKET ""
#REQUEST "ticks_per_beat 480"
#00002: 4
#BPM01: 125
#00008: 01
#TIL00: "64'477:10000.0, 64'478:1.0"
#VOLUME: ""
#HISPEED 00
#MEASUREHS 00
#00115:130000000000000013000000130000530000530000530000530000000000000013000000130000530000530000530000
#00118:2424
#00114:0000000000000000005300530053005300000000000000000053005300530053
#00215:530013001313000000000000
#00212:0000000000000000000000000000000000000000000000001333333333333333
#00218:24242400
#00316:001400001400000000000000
#0031a:241400140000
#00312:000000240014000000140000
#00310:41
#00416:001400001400000000000000
#00412:241400140000
#0041a:000000240014000000140000
#00516:001400001400000000000000
#0051a:240014000000140000000014
#00512:000000240014000000140000
#00612:001400000000
#0061a:000000000014000000000000
#00616:24242424
#0091a:14140000
#00912:13001414
#00915:0013000000000000
#0091b:0013
#00918:0000000000130000
#01015:1313
#01012:0013000000000000
#0101a:14140000
#01018:0013
#01112:13
#01117:13
#0111b:0013
#01116:0013
#01110:41
#01212:1313
#01216:0013000000000000
#0121b:1313
#01217:000000000000000000000000000000000000000000000000000000000000000000000000000000000000000000000013000000000000000000000000000000000000000000000000000000000000000000000000000000000000000000000000000000000000000000000000000000000000000000000000000000000000000000000000000000000000000000000000000000000000000000000000000000000000000000000000000000000000000000000000000000000000000000000000000000000000000000000000000000000000000000000000000000000000000000000000000000000000000000000000000000000000000000000000000000000000000000000000000000000000000000000000000000000000000000000000000000000000000000000000000000000000000000000000000000000000000000000000000000000000000000000000000000000000000000000000000000000000000000000000000000000000000000000000000000000000000000000000
#01312:13
#01318:001300130000
#01315:00130013
#01314:000000000013000000000000
#01319:000013
#0131b:13
#01313:000000000000000000000013
#01418:130000000000130000000013
#0141a:001300000000
#01415:00130013
#01412:000000000013000000000000
#0141b:000033
#01518:130000000013130000000013
#01512:1313
#01515:000013130000000013130000
#0151b:00130013
#01615:13
#01618:001414240000
#01614:000000140014000000000000
#01612:00000013
#0161b:00000013
#01712:1313
#01718:130000130000000023000000
#01715:000033000000000000230000
#0171b:000000000033000000000023
#0181b:000000130000000000000023
#01815:13000023
#01812:003300130000
#01818:000000000033000023000000
#01912:13000023
#0191b:000013000000000000000023
#01916:00130000
#01919:000000000013000000000000
#01914:0013
#01917:000023
#01910:41
#02015:1313
#02012:0014000000140000
#02018:00130013
#0201a:0000001400000000
#0211b:1313
#02115:130000130000000023000000
#02118:000033000000000000230000
#02112:000000000033000000000023
#02212:000000130000000000000023
#02218:13000023
#0221b:003300130000
#02215:000000000033000023000000
#02418:001313001313
#02415:000000130013000000130013
#0241a:2424
#02412:2424
#0231b:13000013
#02312:001300000000
#02317:00130000
#02314:000000000013000000000000
#02319:0013
#02316:000013
#02616:001400001400000000000000
#02612:000014000014000000240000
#0261a:24242400
#02716:001400001400000000000000
#0271a:000014000014000000240000
#02712:24242400
#02816:001400240014000000000000
#02812:001400240000
#0281a:240000001400000000240000
#0281b:000000000000000000000013
#02916:14141414
#02912:001300000000
#0291b:000000000013000000000000
#0291a:0000000000000014
#03015:001400000000000000000000
#03018:001400000000
#03017:001400
#0301a:000000000014000000240000
#03016:0000000000140000
#03012:2424
#03014:00240000
#03010:41
#03117:001400000000000000000000
#03114:001400000000
#03115:001400
#03112:000000000014000000240000
#03116:0000000000140000
#0311a:2424
#03118:00240000
#03216:001400240014000000000000
#0321a:001400240000
#03212:240000001400000000240013
#03316:14141414
#0331b:001300001300
#03312:000000000013000000000013
#03416:14
#0341a:0000001400000000
#03412:00000013
#03413:000000000053
#03414:000000000000000000000053
#03512:00130000
#0351b:1313
#03515:53005313
#03513:005300
#03514:000000000053000000000000
#0351a:005300000000005300000000
#03519:005300005300
#03518:00530053
#03615:000000000013
#03618:000000000000000000000013
#03617:1313
#03616:00130000
#03612:2424
#0361a:00240024
#03716:00130013
#03717:0013
#03712:2424
#0371a:00240024
#03819:001300000000
#03817:000000000013000000000000
#0381a:000013
#03818:000000000000000000000013
#03812:24
#03815:00240000
#03813:0024
#03816:00000024
#0391b:000013000000001300000000
#03918:000000000013000000000000
#03912:000000240000000013000000
#03914:2424
#03916:00000024
#04018:000000000013
#04015:000000000000000000000013
#04016:1313
#04017:00130000
#0401a:2424
#04012:00240024
#04010:41
#04117:00130013
#04116:0013
#0411a:2424
#04112:00240024
#04214:001300000000
#04216:000000000013000000240000
#04213:000013
#04215:000000000000000000000013
#0421a:24
#04217:00240000
#04219:0024
#04312:000013000000001300000000
#04315:000000000013000000000000
#0431b:000013
#04318:2424
#0431a:00240000
#04316:00000024
#04416:12
#04413:0012
#04418:12
#0441a:00120012
#0441b:0012
#0441f:11
#04513:00140014
#04512:0014
#04518:14
#0451a:0014
#0461b:00130013
#04618:0013
#04718:1313
#04715:001300001300
#0471b:00130013
#04712:000000000013000000000000
#04812:143434003434140000000000
#04816:143434143434140000000000
#0481a:00140000
#04818:000033
#04815:000033
#0491a:140000000000000054540000
#04912:00140014
#04918:000054540000140000000000
#04914:140000000054540000000000
#05018:002400000024000000240013
#05012:2424
#05014:002424000000
#0501a:00240000
#05118:000000130000000000130013
#05115:13
#05112:003300130000
#0511b:000000000033000000000000
#05215:130000000013000013000000
#0521b:001300000000
#05212:00130000
#05218:000000001300130000130000
#05317:001400000000000000000000
#05314:001400000000
#05315:001400
#05318:000000000014000000000000
#05316:0000000000142400
#05312:240000243400
#0531a:24240000
#0531f:21
#05415:001400000000000000000000
#05418:001400000000
#05417:001400
#05414:000000000014000000000000
#05416:0000000000142400
#0541a:240000243400
#05412:24240000
#05410:41
#0551b:000000000000000000000013
#05514:001400000000000000000000
#05516:000000001400000000001400000000140000240000000000
#05518:001400
#05512:240000240000240034000000
#0551a:24242400
#05616:14141300
#05612:000000001300000000000000000000130000000000000000
#0561b:000000000000000000001300000000000000000000133300
#05618:00000013
#05615:000033
#05715:001400000000000000000000
#05718:001400000000
#05717:001400
#0571a:000000000014000000240000
#05712:2400000000140000
#05714:00240000
#05716:000000243400
#05918:001400000000000000000000
#05916:000000001400000000001400000000140000240000000000
#05914:001400
#05912:240000240000240000000013
#0591a:240000240000240034000000
#05817:001400000000000000000000
#05814:001400000000
#05815:001400
#05812:240000000014000000240000
#0581a:2400000000140000
#05818:00240000
#05816:000000243400
#06016:14141400
#0601b:000013130000000000000013
#06012:130000000013130000240000
#0601a:000000000000000034240000
#06116:14141400
#06112:000013130000000034240013
#0611b:130000000013130000000000
#0611a:00000024
#06216:14141414
#0621b:000013130000000000000000
#06212:130000000013130000000034
#0621a:000000000000000034240000
#06318:000013001300000000230000
#06315:000000130013000000230000
#06312:2424
#0631a:2424
#00716:2424
#00712:0024
#00816:24242400
#0081a:2424
#00812:00240000
#0251a:24242400
#02512:24242400
#00252:00000063
#0035a:0054
#00356:00000014
#00352:00000014
#00452:0064
#00456:00000014
#0045a:00000014
#0055a:0054
#00552:00000014
#00556:00000014
#00656:14145464
#0075a:14
#00756:1414
#00752:0014
#0085a:4444
#00856:34443400
#00852:00340000
#00952:53
#00955:0023000000000000
#0095b:0063
#00958:0000000000230000
#01055:6353
#01052:0023000000001300
#01058:0053
#0105b:00000013
#01157:53
#01152:53
#0115b:0063
#01156:0063
#01252:5353
#01256:0023000000000000
#0125b:6353
#01257:000000000000000000000000000000000000000000000000000000000000000000000000000000000000000000000023000000000000000000000000000000000000000000000000000000000000000000000000000000000000000000000000000000000000000000000000000000000000000000000000000000000000000000000000000000000000000000000000000000000000000000000000000000000000000000000000000000000000000000000000000000000000000000000000000000000000000000000000000000000000000000000000000000000000000000000000000000000000000000000000000000000000000000000000000000000000000000000000000000000000000000000000000000000000000000000000000000000000000000000000000000000000000000000000000000000000000000000000000000000000000000000000000000000000000000000000000000000000000000000000000000000000000000000000000000000000000000000000
#01258:00000013
#01255:00000013
#01455:00130013
#0145b:00000013
#01458:1353
#01355:00130013
#01358:0013
#01655:53
#01658:0014
#01752:53
#01758:00530000
#0185b:00630000
#01855:63
#02055:53005313
#02052:0024000000240000
#02058:00630013
#0205a:0000002400000000
#0215b:63
#02155:00630000
#02252:00530000
#02258:53
#02552:0014
#0255a:0014
#02656:00000014
#02652:00000014
#0265a:0054
#02752:0064
#0275a:00000014
#02756:00000014
#02852:0054
#0285a:00000014
#02856:00000014
#02956:14145454
#0295a:0000000000000024
#03052:00006434
#03056:0000000000240000
#0305a:00000044
#03156:0000000000240000
#0315a:00005444
#03152:00000034
#03356:14141414
#0325a:0064
#03252:00000014
#03256:00000014
#03456:54
#0345a:0000002400000000
#03558:00000013
#03555:00000013
#0375a:00000014
#04152:00000014
#04456:52
#04453:0022
#0455a:0024
#04558:54
#0475b:00000013
#04852:5454
#04856:54545400
#0485a:00540000
#04858:00000013
#04855:00000013
#0495a:54000014
#04952:00640014
#04958:0064
#05054:00000014
#05058:00000014
#05052:0054
#05158:00530000
#05155:53
#05152:0053
#05258:00000013
#05356:0000000000241400
#05352:00005414
#05456:0000000000241400
#0545a:00006414
#05656:14145300
#0565b:0000000000000023
#05652:0000000000230000
#05658:00000053
#05752:0000000000240000
#05756:00006414
#0575a:00000014
#05956:0000000000241400
#0595a:00006414
#05556:0000000000241400
#05552:00005414
#0585a:0000000000240000
#05856:00005414
#05852:00000014
#06056:14145400
#06052:00000014
#0605a:00000014
#06156:14146400
#0615a:00000014
#06152:00000014
#06256:14145464
#0625a:00000014
#06352:14
#06358:00000043
#06355:00000033
#002320:0000000000000000000000000000000000000000000000001333333333333333
#003360:23
#0033a0:0014
#003360:00000024
#004320:0014
#004360:00000024
#0053a0:0014
#005360:00000024
#006360:0014
#006320:00000024
#006361:00000014
#0073a1:24
#009321:13230000
#009351:0053000000000000
#0093b1:00001323
#009381:0000000000530000
#010351:13230000
#010321:0053000000000000
#010351:0013
#010321:00000023
#010380:0013
#0103b0:00000023
#011320:13
#011360:00230000
#011371:13
#0113b1:00230000
#0113b1:0013
#011371:00000023
#011360:0013
#011320:00000023
#012320:13230000
#012360:0053000000000000
#0123b1:13230000
#012371:000000000000000000000000000000000000000000000000000000000000000000000000000000000000000000000053000000000000000000000000000000000000000000000000000000000000000000000000000000000000000000000000000000000000000000000000000000000000000000000000000000000000000000000000000000000000000000000000000000000000000000000000000000000000000000000000000000000000000000000000000000000000000000000000000000000000000000000000000000000000000000000000000000000000000000000000000000000000000000000000000000000000000000000000000000000000000000000000000000000000000000000000000000000000000000000000000000000000000000000000000000000000000000000000000000000000000000000000000000000000000000000000000000000000000000000000000000000000000000000000000000000000000000000000000000000000000000000000
#012321:0013
#012351:00000023
#0123b0:0013
#012380:00000023
#014380:0013
#0143b0:000000000000000033230000
#016350:13
#016320:002300000000
#017320:13
#017350:000033230000000000000000
#017381:00130000
#0173b1:000000000033230000000000
#018351:13
#018321:000033230000000000000000
#0183b0:00130000
#018380:000000000033230000000000
#020350:13230000
#020320:0054000000000000
#020381:00132300
#0203a1:0000005400000000
#020350:00001323
#020320:0000000000540000
#0213b0:13
#021380:000033230000000000000000
#021351:00130000
#021321:000000000033230000000000
#022381:13
#0223b1:000033230000000000000000
#022320:00130000
#022350:000000000033230000000000
#0263a0:0014
#026360:00000024
#027320:0014
#027360:00000024
#028320:0014
#028360:00000024
#029360:0014
#029320:00000024
#029361:00000014
#0293a1:0000000000000054
#030361:24
#030321:00001424
#030361:0000000000540000
#0313a1:00001424
#031361:0000000000540000
#0323a1:0014
#032361:00000024
#034361:14000024
#0343a1:0000005400000000
#044361:12
#044331:0052
#045361:22
#045380:14
#0453a0:0054
#046380:24
#046351:13000000000000000000000000000053000000000000000000000000000000000053000000000000000000000000005300000000000000000000000000000000
#046341:00535353
#046331:00000000000000000000000000000000005300000000000000000000000000530000000000000000000000000000000000530000000000000000000000000000
#047331:23
#048321:143434003434340000000000
#048361:00340000
#048351:000000000000000033230000
#048360:143434003434340000000000
#0483a0:00340000
#048380:000000000000000033230000
#050320:0014
#050340:00000024
#051350:13
#051320:000033230000000000000000
#051381:00130000
#0513b1:000000000033230000000000
#051320:0013
#051350:00000023
#053320:000000000000140034240000
#053360:0000000000540000
#0543a0:000000000000140034240000
#054360:0000000000540000
#055320:000000000000140034240000
#055360:0000000000540000
#056360:0013
#056320:0000000000530000
#056350:000000000000000033230000
#056381:00000013
#0563b1:000000000000000000000000000000000000000000533300
#057371:23
#057361:000000000000140034240000
#057321:0000000000540000
#058361:000000000000140034240000
#0583a1:0000000000540000
#0593a1:000000000000140034240000
#059361:0000000000540000
#060361:0014
#0603a1:000000000000000034240000
#061361:0014
#061321:000000000000000034240000
#062361:0014
#0623a1:000000000000000034240000
#062360:00000014
#062320:000000000000000000000034
#063320:24
#001950:000000000000000000000000000000000000000000000000000000000000000000000000000000000000000000000000000000000000000000000000000000000000000000000000000000000000000000000000000000000000000000000000000000000000000000000000000000000000000000000000000000000000000000000000000000000000000000000000000000000000000000000000000000000000000000000000000000000000000000000000000000000000000000000000000000000000000000000000000000000000000000000000000000000000000000000000000000000000000000000000000000000000000000000000000000000000000000000000000000000000000000000000000000000000000000000000000000000000000000000000000000000000000000000000000000000000000000000000000000000000000000000000000000000000000000000000000000000000000000000000000000000000000000000000000000000000000000000000000000000000000000000000000000000000000000000000000000000000000000000000000000000000000000000000000000000000000000000000000000000000000000000000000000000000000000000000000000000000000000000000130000000000000000000000000000000000000000000000000000000000000000000000000000000000000000000000000000000000000000000000000000000000000000000000000000000000000000000000000000000000000000000000000000000000000000000000000000000000000000000000530000000000000000000000000000000000000000000000000000000000000000000000000000000000000000000000000000000000000000000000000000000000000000000000000000000000000000000000000000000000000000000000000000000000000000000000000000000000000000000000530000000000000000000000000000000000000000000000000000000000000000000000000000000000000000000000000000000000000000000000000000000000000000000000000000000000000000000000000000000000000000000000000000000000000000000000000000000000000000000000530000000000000000000000000000000000000000000000000000000000000000000000000000000000000000000000000000000000000000000000000000000000000000000000000000000000000000000000000000000000000000000000000000000000000000000000000000000000000000005353230000000000000000000000000000000000000000000000000000000000000000000000000000000000000000000000000000000000000000000000000000000000000000000000000000000000000000000000000000000000000000000000000000000000000000000000000000000000000000000000000000000000000000000000000000000000000000000000000000000000000000000000000000000000000000000000000000000000000000000000000000000000000000000000000000000000000000000000000000000000000000000000000000000000000000000000000000000000000000000000000000000000000000000000000000000000000000000000000000000000000000000000000000000000000000000000000000000000000000000000000000000000000000000000000000000000000000000000000000000000000000000000000000000000000000000000000000000000000000000000000000000000000000000000000000000000000000000000000000000000000000000000000000000000000000000000000000000000000000000000000000000000000000000000000000000000000000000000000000000000000000000000000000000000000000000000000000000000000000000000000000000000000000000000000000000000000000000000000000000000000000000000000000000000000000000000000000000000000000000000000000000000000000000000000000000000000000000000000000000000000000000000000000000000000000000000000000000000000000000000000000000000000000000000000000000000000000000000000000000000000000000000000000000000000000000000000000000000000000000000000000000000000000000000000000000000000000000000000000000000000000000000000000000000000000000000000000000000000000000000000000000000000000000000000000000000000000000000000000000000000000000000000000000000000000000000000000000000000000000000000000000000000000000000000000000000000000000000000000000000000000000000000000000000000000000000000000000000000000000000000000000000000000000000000000000000000000000000000000000000000000000000000000000000000000000000000000000000000000000000000000000000000000000000000000000000000000000000000000000000000000000000000000000000000000000000000000000000000000000000
#001940:0000000000000000005300530053005300000000000000000000000000000000
#001950:000000000000000000000000000000000000000000000000000000000000000000000000000000000000000000000000000000000000000000000000000000000000000000000000000000000000000000000000000000000000000000000000000000000000000000000000000000000000000000000000000000000000000000000000000000000000000000000000000000000000000000000000000000000000000000000000000000000000000000000000000000000000000000000000000000000000000000000000000000000000000000000000000000000000000000000000000000000000000000000000000000000000000000000000000000000000000000000000000000000000000000000000000000000000000000000000000000000000000000000000000000000000000000000000000000000000000000000000000000000000000000000000000000000000000000000000000000000000000000000000000000000000000000000000000000000000000000000000000000000000000000000000000000000000000000000000000000000000000000000000000000000000000000000000000000000000000000000000000000000000000000000000000000000000000000000000000000000000000000000000000000000000000000000000000000000000000000000000000000000000000000000000000000000000000000000000000000000000000000000000000000000000000000000000000000000000000000000000000000000000000000000000000000000000000000000000000000000000000000000000000000000000000000000000000000000000000000000000000000000000000000000000000000000000000000000000000000000000000000000000000000000000000000000000000000000000000000000000000000000000000000000000000000000000000000000000000000000000000000000000000000000000000000000000000000000000000000000000000000000000000000000000000000000000000000000000000000000000000000000000000000000000000000000000000000000000000000000000000000000000000000000000000000000000000000000000000000000000000000000000000000000000000000000000000000000000000000000000000000000000000000000000000000000000000000000000000000000000000000000000000000000000000000000000000000000000000000000000000000000000000000000000000000000000000000000000000000000000000000000000000000000000000000000000000000000000000000000000000000000000000000000000000000000000000000000000000000000000000000000000000000000000000000000000000000000000000000000000000000000000000000000000000000000000000000000000000000000000000000000000000000000000000000000000000000000000000000000000000000000000000000000000000000000000000000000000000000000000000000000000000000000000000000000000000000000000000000000000000000000000000000000000000000000000000000000000000000000000000000000000000000000000000000000000000000000000000000000000000000000000000000000000000000000000000000000000000000000000000000000000000000000000000000000000000000000000000000000000000000000000000000000000000000000000000000000000000000000000000000000000000000000000000000000000000000000000000000000000000000000000000000000000000000000000000000000000000000000000000000000000000000000000000000000000000000000000000000000000000000000000000000000000000000000000000000000000000000000000000000000000130000000000000000000000000000000000000000000000000000000000000000000000000000000000000000000000000000000000000000000000000000000000000000000000000000000000000000000000000000000000000000000000000000000000000000000000000000000000000000000000530000000000000000000000000000000000000000000000000000000000000000000000000000000000000000000000000000000000000000000000000000000000000000000000000000000000000000000000000000000000000000000000000000000000000000000000000000000000000000000000530000000000000000000000000000000000000000000000000000000000000000000000000000000000000000000000000000000000000000000000000000000000000000000000000000000000000000000000000000000000000000000000000000000000000000000000000000000000000000000000530000000000000000000000000000000000000000000000000000000000000000000000000000000000000000000000000000000000000000000000000000000000000000000000000000000000000000000000000000000000000000000000000000000000000000000000000000000000000000005353
#001940:0000000000000000000000000000000000000000000000000053005300530053
#002950:23
#034920:00000013
#034950:000000000000000000000000000000000000000000000000000000000000000000000000000000000000000000000000000000000000000000000000000000000000000000000000000000000000000000000000000000000000000000000000000000000000000000000000000000000000000000000000000000000000000000000000000000000000000000000000000000000000000000000000000000000000000000000000000000000000000000000000000000000000000000000000000000000000000000000000000000000000000000000000000000000000000000000000000000000000000000000000000000000000000000000000000000000000000000000000000000000000000000000000000000000000000000000000000000000000000000000000000000000000000000000000000000000000000000000000000000000000000000000000000000000000000000000000000000000000000000000000000000000000000000000000000000000000000000000000000000000000000000000000000000000000000000000000000000000000000000000000000000000000000000000000000000000000000000000000000000000000000000000000000000000000000000000000000000000000000000000000000000000000000000000000000000000000000000000000000000000000000000000000000000000000000000000000000000000000000000000000000000000000000000000000000000000000000000000000000000000000000000000000000000000000000000000000000000000000000000000000000000000000000000000000000000000000000000000000000000000000000000000000000000000000000000000000000000000000000000000000000000000000000000000000000000000000000000000000000000000000000000000000000000000000000000000000000000000000000000000000000000000000000000000000000000000000000000000000000000000000000000000000000000000000000000000000000000000000000000000000000000000000000000000000000000000000000000000000000000000000000000000000000000000000000000000000000000000000000000000000000000000000000000000000000000000000000000000000000000000000000000000000000000000000000000000000000000000000000000000000000000000000000000000000000000000000000000000000000000000000000000000000000000000000000000000000000000000000000000000000000000000000000000000000000000000000000000000000000000000000000000000000000000000000000000000000000000000000000000000000000000000000000000000000000000000000000000000000000000000000000000000000000000000000000000000000000000000000000000000000000000000000000000000000000000000000000000000000000000000000000000000000000000000000000000000000000000000000000000000000000000000000000000000000000000000000000000000000000000000000000000000000000000000000000000000000000000000000000000000000000000000000000000000000000000000000000000000000000000000000000000000000000000000000000000000000000000000000000000000000000000000000000000000000000000000000000000000000000000000000000000000000000000000000000000000000000000000000000000000000000000000000000000000000000000000000000000000000000000000000000000000000000000000000000000000000000000000000000000000000000000000000000000000000000000000000000000000000000000000000000000000000000000000000000000000000000000000000000000000000000000000000000000000000000000000000000000000000000000000000000000000000000000000000000000000000000000000000000000000000000000000000000000000000000000000000000000000000000000000000000000000000000000000000000000000000000000000000000000000000000000000000000000000000000000000000000000000000000000000000000000000000000000000000000000000000000000000000000000000000000000000000000000000000000000000000000000000000000000000000000000000000000000000000000000000000000000000000000000000000000000000000000000000000000000000000000000000000000000000000000000000000000000000000000000000000000000000000000000000000000000000000000000000000000000000000000000000000000000000000000000000000000000000000000000000000000000000000000000000000000000000000000000000000000000000000000000000000000000000000000000000000000000000000000000000000000000000000000000000000000000000000000000000000000000000000000000000000000000000000000000000000000000000000000000000000000000000000000000000053
#035950:23
#0359b1:13
#035981:000000000000000000000000000000000000000000000000000000000000000000000000000000000000000000000000000000000000000000000000000000000000000000000000000000000000000000000000000000000000000000000000000000000000000000000000000000000000000000000000000000000000000000000000000000000000000000000000000000000000000000000000000000000000000000000000000000000000000000000000000000000000000000000000000000000000000000000000000000000000000000000000000000000000000000000000000000000000000000000000000000000000000000000000000000000000000000000000000000000000000000000000000000000000000000000000000000000000000000000000000000000000000000000000000000000000000000000000000000000000000000000000000000000000000000000000000000000000000000000000000000000000000000000000000000000000000000000000000000000000000000000000000000000000000000000000000000000000000000000000000000000000000000000000000000000000000000000000000000000000000000000000000000000000000000000000000000000000000000000053230000000000000000000000000000000000000000000000000000000000000000000000000000000000000000000000000000000000000000000000000000000000000000000000000000000000000000000000000000000000000000000000000000000000000000000000000000000000000000000000000000000000000000000000000000000000000000000000000000000000000000000000000000000000000000000000000000000000000000000000000000000000000000000000000000000000000000000000000000000000000000000000000000000000000000000000000000000000000000000000000000000000000000000000000000000000000000000000000000000000000000000000000000000000000000000000000000000000000000000000000000000000000000000000000000000000000000000000000000000000000000000000000000000000000000000000000000000000000000000000000000000000000000000000000000000000000000000000000000000000000000000000000000000000000000000000000000000000000000000000000000000000000000000000000000000000000000000000000000000000000000000000000000000000000000000000000000000000000000000000000000000000000000000000000000000000000000000000000000000000000000000000000000000000000000000000000000000000000000000000000000000000000000000000000000000000000000000000000000000000000000000000000000000000000000000000000000000000000000000000000000000000000000000000000000000000000000000000000000000000000000000000000000000000000000000000000000000000000000000000000000000000000000000000000000000000000000000000000000000000000000000000000000000000000000000000000000000000000000000000000000000000000000000000000000000000000000000000000000000000000000000000000000000000000000000000000000000000000000000000000000000000000000000000000000000000000000000000000000000000000000000000000000000000000000000000000000000000000000000000000000000000000000000000000000000000000000000000000000000000000000000000000000000000000000000000000000000000000000000000000000000000000000000000000000000000000000000000000000000000000000000000000000000000000000000000000000000000000000000000000000000000000000000000000000000000000000000000000000000000000000000000000000000000000000000000000000000000000000000000000000000000000000000000000000000000000000000000000000000000000000000000000000000000000000000000000000000000000000000000000000000000000000000000000000000000000000000000000000000000000000000000000000000000000000000000000000000000000000000000000000000000000000000000000000000000000000000000000000000000000000000000000000000000000000000000000000000000000000000000000000000000000000000000000000000000000000000000000000000000000000000000000000000000000000000000000000000000000000000000000000000000000000000000000000000000000000000000000000000000000000000000000000000000000000000000000000000000000000000000000000000000000000000000000000000000000000000000000000000000000000000000000000000000000000000000000000000000000000000000000000000000000000000000000000000000000000000000000000000000000000000000000000000000000000000000000000000000000000000000
#035920:00130000
#035950:000000000000000000000000000000000000000000000000000000000000000000000000000000000000000000000000000000000000000000000000000000000000000000000000000000000000000000000000000000000000000000000000000000000000000000000000000000000000000000000000000000000000000000000000000000000000000000000000000000000000000000000000000000000000000000000000000000000000000000000000000000000000000000000000000000000000000000000000000000000000000000000000000000000000000000000000000000000000000000000000000000000000000000000000000000000000000000000000000000000000000000000000000000000000000000000000000000000000000000000000000000000000000000000000000000000000000000000000000000000000000000000000000000000000000000000000000000000000000000000000000000000000000000000000000000000000000000000000000000000000000000000000000000000000000000000000000000000000000000000000000000000000000000000000000000000000000000000000000000000000000000000000000000000000000000000000000000000000000000000000000000000000000000000000000000000000000000000000000000000000000000000000000000000000000000000000000000000000000000000000000000000000000000000000000000000000000000000000000000000000000000000000000000000000000000000000000000000000000000000000000000000000000000000000000000000000000000000000000000000000000000000000000000000000000000000000000000000000000000000000000000000000000000000000000000000000000000000000000000000000000000000000000000000000000000000000000000000000000000000000000000000000000000000000000000000000000000000000000000000000000000000000000000000000000000000000000000000000000000000000000000000000000000000000000000000000000000000000000000000000000000000000000000000000000000000000000000000000000000000000000000000000000000000000000000000000000000000000000000000000000000000000000000000000000000000000000000000000000000000000000000000000000000000000000000000000000000000000000000000000000000000000000000000000000000000000000000000000000000000053230000000000000000000000000000000000000000000000000000000000000000000000000000000000000000000000000000000000000000000000000000000000000000000000000000000000000000000000000000000000000000000000000000000000000000000000000000000000000000000000000000000000000000000000000000000000000000000000000000000000000000000000000000000000000000000000000000000000000000000000000000000000000000000000000000000000000000000000000000000000000000000000000000000000000000000000000000000000000000000000000000000000000000000000000000000000000000000000000000000000000000000000000000000000000000000000000000000000000000000000000000000000000000000000000000000000000000000000000000000000000000000000000000000000000000000000000000000000000000000000000000000000000000000000000000000000000000000000000000000000000000000000000000000000000000000000000000000000000000000000000000000000000000000000000000000000000000000000000000000000000000000000000000000000000000000000000000000000000000000000000000000000000000000000000000000000000000000000000000000000000000000000000000000000000000000000000000000000000000000000000000000000000000000000000000000000000000000000000000000000000000000000000000000000000000000000000000000000000000000000000000000000000000000000000000000000000000000000000000000000000000000000000000000000000000000000000000000000000000000000000000000000000000000000000000000000000000000000000000000000000000000000000000000000000000000000000000000000000000000000000000000000000000000000000000000000000000000000000000000000000000000000000000000000000000000000000000000000000000000000000000000000000000000000000000000000000000000000000000000000000000000000000000000000000000000000000000000000000000000000000000000000000000000000000000000000000000000000000000000000000000000000000000000000000000000000000000000000000000000000000000000000000000000000000000000000000000000000000000000000000000000000000000000000000000000000000000000000000000000000
#0359b1:0013
#035981:000000000000000000000000000000000000000000000000000000000000000000000000000000000000000000000000000000000000000000000000000000000000000000000000000000000000000000000000000000000000000000000000000000000000000000000000000000000000000000000000000000000000000000000000000000000000000000000000000000000000000000000000000000000000000000000000000000000000000000000000000000000000000000000000000000000000000000000000000000000000000000000000000000000000000000000000000000000000000000000000000000000000000000000000000000000000000000000000000000000000000000000000000000000000000000000000000000000000000000000000000000000000000000000000000000000000000000000000000000000000000000000000000000000000000000000000000000000000000000000000000000000000000000000000000000000000000000000000000000000000000000000000000000000000000000000000000000000000000000000000000000000000000000000000000000000000000000000000000000000000000000000000000000000000000000000000000000000000000000000000000000000000000000000000000000000000000000000000000000000000000000000000000000000000000000000000000000000000000000000000000000000000000000000000000000000000000000000000000000000000000000000000000000000000000000000000000000000000000000000000000000000000000000000000000000000000000000000000000000000000000000000000000000000000000000000000000000000000000000000000000000000000000000000000000000000000000000000000000000000000000000000000000000000000000000000000000000000000000000000000000000000000000000000000000000000000000000000000000000000000000000000000000000000000000000000000000000000000000000000000000000000000000000000000000000000000000000000000000000000000000000000000000000000000000000000000000000000000000000000000000000000000000000000000000000000000000000000000000000000000000000000000000000000000000000000000000000000000000000000000000000000000000000000000000000000000000000000000000000000000000000000000000000000000000000000000000000000000000000000000000000000000000000000000000000000000000000000000000000000000000000000000000000000000000000000000000000000000000000000000000000000000000000000000000000000000000000000000000000000000000000000000000000000000000000000000000000000000000000000000000000000000000000000000000000000000000000000000000000000000000000000000000000000000000000000000000000000000000000000000000000000000000000000000000000000000000000000000000000000000000000000000000000000000000000000000000000000000000000000000000000000000000000000000000000000000000000000000000000000000000000000000000000000000000000000000000000000000000000000000000000000000000000000000000000000000000000000000000000000000000000000000000000000000000000000000000000000000000000000000000000000000000000000000000000000000000000000000000000000000000000000000000000000000000000000000000000000000000000000000000000000000000000000000000000000000000000000000000000000000000000000000000000000000000000000000000000000000000000000053230000000000000000000000000000000000000000000000000000000000000000000000000000000000000000000000000000000000000000000000000000000000000000000000000000000000000000000000000000000000000000000000000000000000000000000000000000000000000000000000000000000000000000000000000000000000000000000000000000000000000000000000000000000000000000000000000000000000000000000000000000000000000000000000000000000000000000000000000000000000000000000000000000000000000000000000000000000000000000000000000000000000000000000000000000000000000000000000000000000000000000000000000000000000000000000000000000000000000000000000000000000000000000000000000000000000000000000000000000000000000000000000000000000000000000000000000000000000000000000000000000000000000000000000000000000000000000000000000000000000000000000000000000000000000000000000000000000000000000000000000000000000000000000000000000000000000000000000000000000000000000000000000000000000000000000000000000000000000000000000
#0499a1:14
#049981:000000000000000000000000000000000000000000000000000000000000000000000000000000000000000000000000000000000000000000000000000000000000000000000000000000000000000000000000000000000000000000000000000000000000000000000000000000000000000000000000000000000000000000000000000000000000000000000000000000000000000000000000000000005400000000000000000000000000000000000000000000000000000000000000000000000000000000000000000000000000000000000000000000000000000000000000000000000000000000000054240000000000000000000000000000000000000000000000000000000000000000000000000000000000000000000000000000000000000000000000000000000000000000000000000000000000000000000000000000000000000000000000000000000000000000000000000000000000000000000000000000000000000000000000000000000000000000000000000000000000000000000000000000000000000000000000000000000000000000000000000000000000000000000000000000000000000000000000000000000000000000000000000000000000000000000000000000000000000000000000000000000000000000000000000000000000000000000000000000000000000000000000000000000000000000000000000000000000000000000000000000000000000000000000000000000000000000000000000000000000000000000000000000000000000000000000000000000000000000000000000000000000000000000000000000000000000000000000000000000000000000000000000000000000000000000000000000000000000000000000000000000000000000000000000000000000000000000000000000000000000000000000000000000000000000000000000000000000000000000000000000000000000000000000000000000000000000000000000000000000000000000000000000000000000000000000000000000000000000000000000000000000000000000000000000000000000000000000000000000000000000000000000000000000000000000000000000000000000000000000000000000000000000000000000000000000000000000000000000000000000000000000000000000000000000000000000000000000000000000000000000000000000000000000000000000000000000000000000000000000000000000000000000000000000000000000000000000000000000000000
#049920:00140000
#049940:000000000000000000000000000000000000000000000000000000000000000000000000000000000000000000000000000000000000000000000000000000000000000000000000000000000000000000000000000000000000000000000000000000000000000000000000000000000000000000000000000000000000000000000000000000000000000000000000000000000000000000000000000000000000000000000000000000000000000000000000000000000000000000000000000000000000000000000000000000000000000000000000000000000000000000000000000000000000000000000000000000000000000000000000000000000000000000000000000000000000000000000000000000000000000000000000000000000000000000000000000000000000000000000000000000000000000000000000000000000000000000000000000000000000000000000000000000000000000000000000000000000000000000000000000000000000000000000000000000000000000000000000000000005400000000000000000000000000000000000000000000000000000000000000000000000000000000000000000000000000000000000000000000000000000000000000000000000000000000000054240000000000000000000000000000000000000000000000000000000000000000000000000000000000000000000000000000000000000000000000000000000000000000000000000000000000000000000000000000000000000000000000000000000000000000000000000000000000000000000000000000000000000000000000000000000000000000000000000000000000000000000000000000000000000000000000000000000000000000000000000000000000000000000000000000000000000000000000000000000000000000000000000000000000000000000000000000000000000000000000000000000000000000000000000000000000000000000000000000000000000000000000000000000000000000000000000000000000000000000000000000000000000000000000000000000000000000000000000000000000000000000000000000000000000000000000000000000000000000000000000000000000000000000000000000000000000000000000000000000000000000000000000000000000000000000000000000000000000000000000000000000000000000000000000000000000000000000000000000000000000000000000000000000000000000000000000000000000000000000000
#049981:0014
#0499a1:000000000000000000000000000000000000000000000000000000000000000000000000000000000000000000000000000000000000000000000000000000000000000000000000000000000000000000000000000000000000000000000000000000000000000000000000000000000000000000000000000000000000000000000000000000000000000000000000000000000000000000000000000000000000000000000000000000000000000000000000000000000000000000000000000000000000000000000000000000000000000000000000000000000000000000000000000000000000000000000000000000000000000000000000000000000000000000000000000000000000000000000000000000000000000000000000000000000000000000000000000000000000000000000000000000000000000000000000000000000000000000000000000000000000000000000000000000000000000000000000000000000000000000000000000000000000000000000000000000000000000000000000000000000000000000000000000000000000000000000000000000000000000000000000000000000000000000000000000000000000000000000000000000000000000000000000000000000000000000000000000000000000000000000000000000000000000000000000000000000000000000000000000000000000000000000000000000000000000000000000000000000000000000000000000000000000000000000000000000000000000000000000000000000000000000000000000000000000000000000000000000000000000000000000000000000000000000000000000000000000000000000000000000005400000000000000000000000000000000000000000000000000000000000000000000000000000000000000000000000000000000000000000000000000000000000000000000000000000000000054240000000000000000000000000000000000000000000000000000000000000000000000000000000000000000000000000000000000000000000000000000000000000000000000000000000000000000000000000000000000000000000000000000000000000000000000000000000000000000000000000000000000000000000000000000000000000000000000000000000000000000000000000000000000000000000000000000000000000000000000000000000000000000000000000000000000000000000000000000000000000000000000000000000000000000000000000000000000000000000000
#0649d1:000000000000000000000000000000000000000000000000000000000000000000000000000000000000000000000000000000000000000000000000000000000000000000000000000000000000000000000000000000000000000000000000000000000000000000000000000000000000000000000000000000000000000000000000000000000000000000000000000000000000000000000000000000000000000000000000000000000000000000000000000000000000000000000000000000000000000000000000000000000000000000000000000000000000000000000000000000000000000000000000000000000000000000000000000000000000000000000000000000000000000000000000000000000000000000000000000000000000000000000000000000000000000000000000000000000000000000000000000000000000000000000000000000000000000000000000000000000000000000000000000000000000000000000000000000000000000000000000000000000000000000000000000000000000000000000000000000000000000000000000000000000000000000000000000000000000000000000000000000000000000000000000000000000000000000000000000000000000000000001121000000000000000000000000000000000000000000000000000000000000000000000000000000000000000000000000000000000000000000000000000000000000000000000000000000000000000000000000000000000000000000000000000000000000000000000000000000000000000000000000000000000000000000000000000000000000000000000000000000000000000000000000000000000000000000000000000000000000000000000000000000000000000000000000000000000000000000000000000000000000000000000000000000000000000000000000000000000000000000000000000000000000000000000000000000000000000000000000000000000000000000000000000000000000000000000000000000000000000000000000000000000000000000000000000000000000000000000000000000000000000000000000000000000000000000000000000000000000000000000000000000000000000000000000000000000000000000000000000000000000000000000000000000000000000000000000000000000000000000000000000000000000000000000000000000000000000000000000000000000000000000000000000000000000000000000000000000000000000000000000000000000000000000000000000000000000000000000000000000000000000000000000000000000000000000000000000000000000000000000000000000000000000000000000000000000000000000000000000000000000000000000000000000000000000000000000000000000000000000000000000000000000000000000000000000000000000000000000000000000000000000000000000000000000000000000000000000000000000000000000000000000000000000000000000000000000000000000000000000000000000000000000000000000000000000000000000000000000000000000000000000000000000000000000000000000000000000000000000000000000000000000000000000000000000000000000000000000000000000000000000000000000000000000000000000000000000000000000000000000000000000000000000000000000000000000000000000000000000000000000000000000000000000000000000000000000000000000000000000000000000000000000000000000000000000000000000000000000000000000000000000000000000000000000000000000000000000000000000000000000000000000000000000000000000000000000000000000000000000000000000000000000000000000000000000000000000000000000000000000000000000000000000000000000000000000000000000000000000000000000000000000000000000000000000000000000000000000000000000000000000000000000000000000000000000000000000000000000000000000000000000000000000000000000000000000000000000000000000000000000000000000000000000000000000000000000000000000000000000000000000000000000000000000000000000000000000000000000000000000000000000000000000000000000000000000000000000000000000000000000000000000000000000000000000000000000000000000000000000000000000000000000000000000000000000000000000000000000000000000000000000000000000000000000000000000000000000000000000000000000000000000000000000000000000000000000000000000000000000000000000000000000000000000000000000000000000000000000000000000000000000000000000000000000000000000000000000000000000000000000000000000000000000000000000000000000000000000000000000000000000000000000000000000000000000000000000000000000000000000000
