This file was generated by Ched 2.7.0.0.
#TITLE ""
#ARTIST ""
#DESIGNER ""
#DIFFICULTY 0
#PLAYLEVEL
#SONGID ""
#WAVE ""
#WAVEOFFSET 0
#JACKET ""
#REQUEST "ticks_per_beat 480"
#00002: 4
#BPM01: 125
#00008: 01
#TIL00: "64'477:10000.0, 64'478:1.0"
#VOLUME: ""
#HISPEED 00
#MEASUREHS 00
#00512:000000240000000000000014
#00515:13
#00518:00130000
#0051a:2414
#00614:000014000000000000240000
#00612:000000000014000000000000
#00618:2424
#0061a:00240000
#01312:001300001300
#01318:00130013
#01315:000000000013000000000013
#0131b:1313
#0141b:13
#01412:001300000000
#01418:00131300
#01415:000000000013000000000000
#01518:000000000013000000000013
#01512:1313
#0151b:001300001300
#01515:00130013
#01615:130000000000000000000013
#0161b:00000013
#01612:00130000
#01915:13130023
#0191b:001300002300
#01918:000000000013000000000023
#01912:0013
#01910:41
#02415:000013001300000000130013
#02418:000000130013000013001300
#0241a:24
#02412:0024
#02812:000000240014000000000014
#02814:001400000000000000000000
#0281a:241400240000
#02818:001400
#02918:14
#02914:001400000000
#0291a:00140000
#02912:000000000014000000000000
#02916:0014
#03414:14
#03412:0000001400000000
#03615:000000000013
#03618:000000000000000000000013
#0361a:24000024
#03616:00240000
#03612:0024
#03918:000000000000001300000000
#03915:000013
#03912:2424
#0391a:00240024
#04714:001400001400
#0471a:00140014
#04712:000000000014000000000000
#04718:1414
#0501a:000000000000000000000014
#05014:000000143434000000000000
#05012:243434000000140000000000
#05118:000014000000000000000014
#05114:1414
#05112:00140000
#0511a:000000000014000000000000
#05314:001400000000000000000000
#0531a:241400240000
#05318:001400
#05312:000000240014000000000000
#05316:000000000000000000000000000000143400000000000000
#0531f:21
#05512:000000240014000000000014
#05514:001400000000000000000000
#0551a:241400240000
#05518:001400
#05516:000000000000000000000000000000143400000000000000
#05618:1414
#05614:001400000000
#0561a:00140000
#05612:000000000014000000000000
#0591a:000000240014000000000014
#05916:000014000000000014000000000000143400000000000000
#05912:241400240000
#06014:1414
#06018:001400000000
#06012:000000140000000034240014
#0601a:000000000014000000000000
#06318:001414240000
#06314:240000140014000000000000
#06312:00000023
#00218:00000014
#00219:23232300
#00214:23232300
#0031a:2414
#00318:00130000
#00312:00240000
#00310:41
#00418:13
#00415:00130000
#00412:2414
#0041a:00240000
#00915:13130000
#00918:00001313
#01015:13130000
#01118:13130000
#01115:00001313
#01110:41
#01218:13130000
#01718:130000000000000000000013
#0171b:000033331333330000000000
#01815:13
#01812:000033331333330000000000
#01818:000000000000000000000013
#02015:1313
#02012:00130000
#02018:000000000000000000000013
#02115:130000000000000000000013
#02112:000033331333330000000000
#02218:13
#0221b:000033331333330000000000
#02215:000000000000000000000013
#02318:13130013
#02312:001300001300
#02315:000000000013000000000013
#0231b:0013
#02614:001400000000000000000000
#0261a:241400240000
#02618:001400
#02612:000000240014000000000000
#02718:001400000000000000000000
#02712:241400240000
#02714:001400
#0271a:000000240014000000000000
#03016:001400001400000000000000
#03012:241400240000
#0301a:000000240014000000000000
#03010:41
#03116:001400001400000000000000
#0311a:241400240000
#03112:000000240014000000000000
#03216:001400001400000000000000
#03212:241400240000
#0321a:000000240014000000000014
#03314:1414
#03318:001400001400
#03312:00140014
#0331a:000000000014000000000014
#03515:000013001300130000130000
#03518:000000130013000013000000
#0351b:13
#04018:000000000013
#04015:000000000000000000000013
#04012:24000024
#04016:00240000
#0401a:0024
#04010:41
#04315:000000000000001300000000
#04318:000013
#0431a:2424
#04312:00240024
#0441a:0012
#04418:12
#0441f:11
#04419:00320032
#04514:14340034
#04512:0014
#04612:000000000000000000000014
#04813:133333003333130000000000
#0481a:133333003333130000000000
#04818:00130000
#04815:00130000
#0491a:140000000054540000000000
#04918:000054540000000054540000
#05212:0000001400000000
#05214:14
#05418:001400000000000000000000
#05412:241400240000
#05414:001400
#0541a:000000240014000000000000
#05416:000000000000000000000000000000143400000000000000
#05410:41
#05716:000014000000000014000000000000143400000000000000
#05712:241400240000
#0571a:000000240014000000000000
#05816:000014000000000014000000000000143400000000000000
#0581a:241400240000
#05812:000000240014000000000000
#06118:1414
#06114:001400000000
#0611a:000000140000000034240014
#06112:000000000014000000000000
#06214:1414
#06218:001400000000
#06212:000000140000000034140034
#0621a:000000000014000000000000
#00119:2323
#00114:2323
#0071a:0024
#00812:2626
#00818:00260000
#0251a:24
#02512:00240000
#02515:0026
#03712:24000026
#03716:00240000
#0371a:0024
#0381a:24
#03816:00240000
#03812:0024
#03818:00000026
#04118:00000026
#0411a:24
#04116:00240000
#04112:0024
#04212:24000026
#04216:00240000
#0421a:0024
#00658:0054
#00654:00000064
#00752:14
#0075a:0014
#00858:00460000
#00852:3636
#01054:00000013
#01059:00000013
#0145b:000013
#01458:0053
#01655:53
#01652:00230000
#02555:0016
#02658:00000014
#0265a:0054
#02956:0054
#03454:54
#03452:0000002400000000
#03752:00000016
#05356:0000000000241400
#0535a:0064
#05658:1454
#0565a:00140000
#06054:1464
#06052:00140014
#00258:00000054
#0035a:1454
#00358:00000014
#00452:0064
#00454:00000014
#0055a:0054
#00558:00000014
#01258:00000013
#01255:00000013
#0175b:002300
#01758:530013
#01855:630013
#01852:002300
#02055:5353
#02052:00530013
#02155:630013
#02152:002300
#02258:530013
#0225b:002300
#02752:0064
#02754:00000014
#0285a:0054
#02858:00000014
#03052:0064
#03054:00000014
#0315a:0054
#03158:00000014
#03252:0064
#03254:00000014
#03858:00000016
#04158:00000016
#04252:00000016
#0445a:0022
#04458:62
#04554:64
#04552:0024
#04855:00230013
#04858:00230013
#0485a:5353
#04853:5353
#04958:00000014
#05052:5454
#05054:00540014
#05154:0054
#05254:54
#05252:0000002400000000
#05456:0000000000241400
#05452:0054
#05556:0000000000241400
#0555a:0064
#05756:0000000000240000
#05752:00005434
#05856:0000000000240000
#0585a:00006444
#05956:0000000000240000
#05952:00005434
#06158:1454
#0615a:00140014
#06254:1464
#06252:00140024
#06354:14
#06352:00000033
#002380:00000014
#0033a0:24
#0033a0:0014
#003380:00000024
#004320:0014
#004340:00000024
#0053a0:0014
#005380:00000024
#006380:0014
#0063a0:00000024
#006341:00000014
#007321:24
#0093b1:13230000
#009321:00001323
#010381:13230000
#010341:00001323
#010390:00001323
#011320:13
#011350:00230000
#0113b0:0013
#011380:00000023
#012350:13230000
#0123b0:0013
#012380:00000023
#012321:0013
#012351:00000023
#014381:0013
#0143b1:000023
#016351:1323
#016321:00530000
#017381:130023
#0173b1:000033335333330000000000
#018351:130023
#018321:000033335333330000000000
#020351:1333
#020321:00330023
#021351:130023
#021321:000033335333330000000000
#022381:130023
#0223b1:000033335333330000000000
#0263a1:0014
#026381:00000024
#027321:0014
#027341:00000024
#0283a1:0014
#028381:00000024
#029361:0014
#0293a1:00000024
#030321:0014
#030341:00000024
#0313a1:0014
#031381:00000024
#032321:0014
#032341:00000024
#034341:14000024
#034321:0000005400000000
#044381:12
#044391:00320032
#0443a1:0032
#045381:22
#045340:14340034
#045320:0034
#046340:24
#046381:1300000000000053000000000000000000530000000000002300000000000000
#046391:00333300
#0463a1:0000000000000000005300000000005300000000000000000000000000000000
#048331:133333003333330000000000
#048351:000000330000000033230000
#0483a0:133333003333330000000000
#048380:000000330000000033230000
#050320:143434000000340000000000
#050340:000000343434000034240000
#051340:0014
#051320:00000024
#052340:14000024
#052320:0000005400000000
#0533a0:0014
#053360:000000000000000000000000000000543400240000000000
#054320:0014
#054360:000000000000000000000000000000543400240000000000
#0553a0:0014
#055360:000000000000000000000000000000543400240000000000
#056380:0014
#0563a0:00000024
#057320:00001424
#057360:000000000000000000000000000000543400000000000000
#0583a0:00001424
#058360:000000000000000000000000000000543400000000000000
#059320:00001424
#059360:000000000000000000000000000000543400000000000000
#060340:0014
#060320:000000000000000034240000
#061380:0014
#0613a0:000000000000000034240000
#062340:0014
#062320:000000000000000034340034
#063340:24
#0499a0:140000000054540000000000
#049980:000054540000000054240000
#0649d0:000000000000000000000000000000000000000000000000000000000000000000000000000000000000000000000000000000000000000000000000000000000000000000000000000000000000000000000000000000000000000000000000000000000000000000000000000000000000000000000000000000000000000000000000000000000000000000000000000000000000000000000000000000000000000000000000000000000000000000000000000000000000000000000000000000000000000000000000000000000000000000000000000000000000000000000000000000000000000000000000000000000000000000000000000000000000000000000000000000000000000000000000000000000000000000000000000000000000000000000000000000000000000000000000000000000000000000000000000000000000000000000000000000000000000000000000000000000000000000000000000000000000000000000000000000000000000000000000000000000000000000000000000000000000000000000000000000000000000000000000000000000000000000000000000000000000000000000000000000000000000000000000000000000000000000000000000000000000000000001121000000000000000000000000000000000000000000000000000000000000000000000000000000000000000000000000000000000000000000000000000000000000000000000000000000000000000000000000000000000000000000000000000000000000000000000000000000000000000000000000000000000000000000000000000000000000000000000000000000000000000000000000000000000000000000000000000000000000000000000000000000000000000000000000000000000000000000000000000000000000000000000000000000000000000000000000000000000000000000000000000000000000000000000000000000000000000000000000000000000000000000000000000000000000000000000000000000000000000000000000000000000000000000000000000000000000000000000000000000000000000000000000000000000000000000000000000000000000000000000000000000000000000000000000000000000000000000000000000000000000000000000000000000000000000000000000000000000000000000000000000000000000000000000000000000000000000000000000000000000000000000000000000000000000000000000000000000000000000000000000000000000000000000000000000000000000000000000000000000000000000000000000000000000000000000000000000000000000000000000000000000000000000000000000000000000000000000000000000000000000000000000000000000000000000000000000000000000000000000000000000000000000000000000000000000000000000000000000000000000000000000000000000000000000000000000000000000000000000000000000000000000000000000000000000000000000000000000000000000000000000000000000000000000000000000000000000000000000000000000000000000000000000000000000000000000000000000000000000000000000000000000000000000000000000000000000000000000000000000000000000000000000000000000000000000000000000000000000000000000000000000000000000000000000000000000000000000000000000000000000000000000000000000000000000000000000000000000000000000000000000000000000000000000000000000000000000000000000000000000000000000000000000000000000000000000000000000000000000000000000000000000000000000000000000000000000000000000000000000000000000000000000000000000000000000000000000000000000000000000000000000000000000000000000000000000000000000000000000000000000000000000000000000000000000000000000000000000000000000000000000000000000000000000000000000000000000000000000000000000000000000000000000000000000000000000000000000000000000000000000000000000000000000000000000000000000000000000000000000000000000000000000000000000000000000000000000000000000000000000000000000000000000000000000000000000000000000000000000000000000000000000000000000000000000000000000000000000000000000000000000000000000000000000000000000000000000000000000000000000000000000000000000000000000000000000000000000000000000000000000000000000000000000000000000000000000000000000000000000000000000000000000000000000000000000000000000000000000000000000000000000000000000000000000000000000000000000000000000000000000000000000000000000000000000000000000000000000000000000000000000000000000000000000000000000000000000000000000000000000000
