This file was generated by Ched 2.7.0.0.
#TITLE ""
#ARTIST ""
#DESIGNER ""
#DIFFICULTY 0
#PLAYLEVEL
#SONGID ""
#WAVE ""
#WAVEOFFSET 0
#JACKET ""
#REQUEST "ticks_per_beat 480"
#00002: 4
#BPM01: 125
#00008: 01
#TIL00: "64'477:10000.0, 64'478:1.0"
#VOLUME: ""
#HISPEED 00
#MEASUREHS 00
#00312:14
#00318:00140000
#00310:41
#0041a:14
#00414:00140000
#00512:14
#00518:00140000
#0061a:14
#00614:00140000
#00618:0014
#00612:00000014
#00912:14140000
#00918:00001414
#01014:14140000
#0111a:14140000
#01114:00001414
#01110:41
#01218:14140000
#0131a:1414
#01314:00140014
#01418:1414
#01412:00140000
#01512:1414
#01518:00140014
#01614:1414
#0161a:00140000
#0171a:14
#01918:14
#01910:41
#01812:14
#0211a:14
#02118:0000001400000000
#02212:14
#02214:0000001400000000
#02318:14
#0231a:0000001400000000
#02014:14
#02414:14
#02412:0000001400000000
#02618:00140000
#02612:24
#0271a:14
#02714:00140000
#02812:14
#02818:00140000
#0291a:14
#02914:00140000
#02918:0014
#02912:00000014
#03014:00140000
#0301a:24
#03010:41
#03112:14
#03118:00140000
#0321a:14
#03214:00140000
#03312:14
#03318:00140000
#03314:0014
#0331a:00000014
#03412:14
#03518:1414
#03514:00140014
#0381a:14
#03814:00140000
#03818:0014
#03812:00000014
#03918:14
#03914:00140000
#04212:14
#04218:00140000
#04214:0014
#0421a:00000014
#04314:14
#04318:00140000
#0441a:14
#0441f:11
#04518:14
#0461a:14
#04716:0014
#04814:14
#04912:14
#05014:14
#05118:0014
#05214:14
#05314:00140000
#0531a:24
#0531f:21
#05418:00140000
#05412:14
#05410:41
#05514:00140000
#0551a:14
#05612:14
#05618:00140000
#05614:0014
#0561a:00000014
#05718:00140000
#05712:24
#05814:00140000
#0581a:14
#05918:00140000
#05912:14
#0601a:14
#06014:00140000
#06018:0014
#06012:00000014
#0611a:14
#06114:00140000
#06118:0014
#06112:00000014
#06318:16
#06315:00363626
#00118:26
#00112:0026
#00218:2626
#00212:00260000
#00718:26
#00712:0026
#00818:2626
#00812:00260000
#02518:2424
#02514:00240000
#04010:41
#01458:0014
#01654:0014
#0175a:54
#01958:64
#01852:64
#0215a:54
#02158:0000002400000000
#02252:64
#02254:0000002400000000
#02358:64
#0235a:0000002400000000
#02054:54
#02454:54
#02452:0000002400000000
#02652:00000014
#0275a:00000014
#02852:00000014
#03058:00000014
#03154:00000014
#03258:00000014
#03452:54
#03554:00000014
#0445a:54
#04558:54
#0465a:54
#04854:54
#04952:54
#05054:54
#05254:54
#05358:00000014
#05454:00000014
#05558:00000014
#05752:00000014
#0585a:00000014
#05952:00000014
#06355:00000016
#06358:56
#003320:00001424
#0043a0:00001424
#005320:00001424
#0103a0:00001424
#012320:00001424
#0173a0:14
#017380:00000024
#018320:14
#018340:00000024
#019380:14
#0193a0:00000024
#020340:14
#020320:00000024
#0213a0:14000024
#021380:0000005400000000
#022320:14000024
#022340:0000005400000000
#023380:14000024
#0233a0:0000005400000000
#024340:14000024
#024320:0000005400000000
#026320:00001424
#0273a0:00001424
#028320:00001424
#0303a0:0014
#030380:00000024
#031320:0014
#031340:00000024
#0323a0:0014
#032380:00000024
#034320:14
#034340:00000024
#0363a0:14240000
#036340:00001424
#037380:14240000
#037320:00001424
#0393a0:00001424
#040320:14240000
#040380:00001424
#041340:14240000
#0413a0:00001424
#043320:00001424
#0443a0:14
#045380:34
#0463a0:34
#047380:24
#048340:14
#049320:34
#050340:34
#051320:24
#052340:14
#052320:00000024
#053380:00001424
#054340:00001424
#055380:00001424
#057340:0014
#057320:00000024
#058380:0014
#0583a0:00000024
#059340:0014
#059320:00000024
#062380:16260000
#062320:00001626
#063380:16
#063350:00363626
#0649d0:000000000000000000000000000000000000000000000000000000000000000000000000000000000000000000000000000000000000000000000000000000000000000000000000000000000000000000000000000000000000000000000000000000000000000000000000000000000000000000000000000000000000000000000000000000000000000000000000000000000000000000000000000000000000000000000000000000000000000000000000000000000000000000000000000000000000000000000000000000000000000000000000000000000000000000000000000000000000000000000000000000000000000000000000000000000000000000000000000000000000000000000000000000000000000000000000000000000000000000000000000000000000000000000000000000000000000000000000000000000000000000000000000000000000000000000000000000000000000000000000000000000000000000000000000000000000000000000000000000000000000000000000000000000000000000000000000000000000000000000000000000000000000000000000000000000000000000000000000000000000000000000000000000000000000000000000000000000000000000001121000000000000000000000000000000000000000000000000000000000000000000000000000000000000000000000000000000000000000000000000000000000000000000000000000000000000000000000000000000000000000000000000000000000000000000000000000000000000000000000000000000000000000000000000000000000000000000000000000000000000000000000000000000000000000000000000000000000000000000000000000000000000000000000000000000000000000000000000000000000000000000000000000000000000000000000000000000000000000000000000000000000000000000000000000000000000000000000000000000000000000000000000000000000000000000000000000000000000000000000000000000000000000000000000000000000000000000000000000000000000000000000000000000000000000000000000000000000000000000000000000000000000000000000000000000000000000000000000000000000000000000000000000000000000000000000000000000000000000000000000000000000000000000000000000000000000000000000000000000000000000000000000000000000000000000000000000000000000000000000000000000000000000000000000000000000000000000000000000000000000000000000000000000000000000000000000000000000000000000000000000000000000000000000000000000000000000000000000000000000000000000000000000000000000000000000000000000000000000000000000000000000000000000000000000000000000000000000000000000000000000000000000000000000000000000000000000000000000000000000000000000000000000000000000000000000000000000000000000000000000000000000000000000000000000000000000000000000000000000000000000000000000000000000000000000000000000000000000000000000000000000000000000000000000000000000000000000000000000000000000000000000000000000000000000000000000000000000000000000000000000000000000000000000000000000000000000000000000000000000000000000000000000000000000000000000000000000000000000000000000000000000000000000000000000000000000000000000000000000000000000000000000000000000000000000000000000000000000000000000000000000000000000000000000000000000000000000000000000000000000000000000000000000000000000000000000000000000000000000000000000000000000000000000000000000000000000000000000000000000000000000000000000000000000000000000000000000000000000000000000000000000000000000000000000000000000000000000000000000000000000000000000000000000000000000000000000000000000000000000000000000000000000000000000000000000000000000000000000000000000000000000000000000000000000000000000000000000000000000000000000000000000000000000000000000000000000000000000000000000000000000000000000000000000000000000000000000000000000000000000000000000000000000000000000000000000000000000000000000000000000000000000000000000000000000000000000000000000000000000000000000000000000000000000000000000000000000000000000000000000000000000000000000000000000000000000000000000000000000000000000000000000000000000000000000000000000000000000000000000000000000000000000000000000000000000000000000000000000000000000000000000000000000000000000000000000000000000000000000000000
