This file was generated by Ched 2.7.0.0.
#TITLE ""
#ARTIST ""
#DESIGNER ""
#DIFFICULTY 0
#PLAYLEVEL
#SONGID ""
#WAVE ""
#WAVEOFFSET 0
#JACKET ""
#REQUEST "ticks_per_beat 480"
#00002: 4
#BPM01: 125
#00008: 01
#TIL00: ""
#VOLUME: ""
#HISPEED 00
#MEASUREHS 00
#0331f:11
#0331b:00130000
#0331a:0013
#03319:00000013
#03318:26
#05616:00000000000000000000001500000000
#05612:0000002600000000
#0561a:0024000000000000
#06217:0014
#0621b:13
#06216:14
#06212:0014
#06214:00240024
#0631b:13
#06316:14
#06313:0014
#06312:00000024
#06314:00240000
#0641a:00140000
#06412:14000000000000250025000026000000
#06419:00000000000000250025000000000000
#06418:24000000000000000000002600000000
#06414:00240000
#06112:14
#06115:0014
#06116:24000024
#06114:00240000
#05918:14
#05915:0000000000000014
#0591a:00001424
#05912:24
#05919:00240000
#06018:0014
#0601a:14
#06019:00240000
#06016:00000024
#05717:00000014
#05712:00001424
#0571a:24
#05713:00240000
#05710:41
#05814:0014
#05812:14
#05813:00240000
#05816:00000024
#0341b:0000130000000013
#03418:1300001300001300
#0161b:13130000
#01616:00130000
#01612:13
#01618:00001313
#01615:0000000000000013
#01512:13130000
#01517:00130000
#0151b:13
#01515:00001313
#01518:0000000000000013
#04918:2400001200001300
#04914:240000001a000013
#04916:00120000
#04912:0000000000130000
#04314:0000000000000000000000000000000000000000120000000014000000000000
#0431a:0000000000000012
#04318:0000000000000000130000001300000000000000000000000000000000140000
#04312:1300000000000000130000001300000000000000001400000000000000000000
#0431b:13
#0441a:0014000000000000000000000000000000000000000000000000000000000000
#04416:0000000012000000001400000000000000000000000000000000000000000000
#0441b:0000001300000000
#04417:00000000000000000013000000000000
#04414:0000000000140000000000000000000000000000000000000000000000000000
#04418:0000000000000013
#04415:00000013
#03912:1300000000130000
#03918:0000131300000013
#03915:0000001300000013
#0391b:13
#03813:0000000000000013
#03814:00000013
#03818:1300001300000000
#0381b:00130000
#03815:0000000000130000
#03712:00000013
#03715:0013
#03718:00130000
#03515:1300000000000013
#03514:00000013
#03513:0000000000130000
#03115:1300000000130000
#03112:0000001300000013
#03118:1313
#0311b:00230023
#0301b:1313000000000000
#03018:0000001300000000
#03015:1313
#03012:00230023
#03215:0000000000000013
#03218:1313
#03212:00000013
#0321b:00230023
#02915:1313
#02918:00130000
#02919:0013
#0291a:00000013
#02912:00230023
#02910:41
#02716:0000001300000013
#02712:1300000000130000
#0271b:00231323
#02617:00000013
#02612:13231323
#0261a:0013000000000000
#02618:0000001300000000
#02619:00130000
#0261b:13
#0281b:13231323
#02512:13231323
#02518:00130000
#0251a:00000013
#02519:0013
#02217:00000013
#0221b:1313000000000000
#02316:0000000000000013
#02312:0000131300000000
#02018:00000013
#02015:0000000000130000
#0201b:0000000013000013
#02016:00000013000000000000000000000000
#04212:0000001300000000
#04216:00000000000000000013000000000000
#04219:0012000000000000
#04218:0000000000140000000000000000000000000000000000001300000000000000
#04215:0000000000000013
#04210:41
#04115:0000001600160012
#04114:2400000000000000000000000000000000000000000000000000000000140000
#04112:00130000
#0411b:0000131300000000
#0411f:21
#04118:24
#04817:0013000000000000
#0481b:00000013
#04812:00000013
#0471b:13
#04712:0000000000130000
#04717:0000131300000000
#04716:0000000000000013
#04512:13
#0451b:0000000000130000
#04516:0000131300000000
#04517:0000000000000013
#0461b:0000001300000000
#04612:0000001300000000
#04614:0000000000000013
#04619:0000000000000013
#04616:0013000000000000
#01418:0000130000130000
#01415:00001313
#0141b:13
#01315:0000130000130000
#01318:00001313
#01312:13
#01310:41
#0501b:13000013
#05015:0000001300000000
#05014:0013000000000000
#05018:0000001300000000
#05012:0000000000000023
#01912:0013000000000013
#01918:0000000000130000
#01915:1300001300000000
#0191b:00130000
#01818:0013000000001300
#01815:0000001300000000
#0181b:0000000000000013
#01812:13
#0171b:00130013
#01712:2413
#0171a:24
#00915:0013
#00918:0000001300001300
#0091b:00130000
#00912:24
#0091a:24
#01012:1313
#01018:00130000
#0101b:0000001300001300
#01015:0013000000000000
#01118:1313
#01112:13130000
#01112:13
#01115:0000001300001300
#0121b:1313
#01215:00130000
#01212:0000001300001300
#01218:0013000000000000
#00817:00000000000000000000001300000000
#0081b:0000001300000000
#00812:0013000000000000
#00616:0000000000130000
#00618:0000000000000013
#00612:0000001300000000
#0061b:0013000000000000
#00712:13130000
#00718:1300000000000013
#00715:0000000000130000
#0071b:0000001300000000
#00515:1300000000000013
#00518:0000000000130000
#00512:0000001300000000
#0051b:00130000
#00510:41
#00416:0000000000120000
#00415:00120000
#0041a:00000012
#00418:0000000000000012
#00318:0000000000120000
#00319:00120000
#00314:00000012
#00316:0000000000000012
#00216:0000120000120000
#0021a:00000012
#00218:0000000000000012
#00118:0000120000120000
#00114:00000012
#00116:0000000000000012
#04012:00000000000000000013000013000000
#0401b:0000000000131300
#04015:00000000000000130000000000000000
#04018:0000001300000000
#02118:00130000
#02119:0013
#0211a:00000013
#02110:41
#05118:0000001300000013
#0511b:13
#05112:0000000000230000
#05115:0000232300000000
#05218:0000001300000000
#0521b:0000000000000013
#05212:0023000000002300
#0541a:1414
#05416:14141400
#05418:0014001400000000
#05414:0014001400000023
#05412:00140000
#05419:0000000000000023
#05318:0000232300130014
#05314:0000000000000014
#05312:0013000000001400
#05316:00000014
#05315:1300001300130000
#0531b:0013
#0551a:2400002400000000
#05512:2400242400000000
#05518:0000000000240000
#05514:0000000000000024
#05754:14
#0575a:64
#05757:00000024
#06052:00000014
#0385b:00000013
#03852:00130000
#0375b:00000013
#03752:00130000
#03658:00000013
#0365b:00130000
#03558:00000013
#0355b:00130000
#03555:6300000000000063
#03455:00000013
#03452:00130000
#03355:00000013
#03352:00130000
#03358:16
#02356:0000000000130063
#02352:1300005300000000
#02257:0000001300005300
#0225b:0063000000000000
#0485b:0000001300006300
#04852:0000001300005300
#04857:0053000000000000
#0475b:1300000000000013
#04752:0000001300530000
#04757:0000005300000000
#04756:0000000000000063
#04552:1300000000000013
#0455b:0000001300630000
#04556:0000006300000000
#04557:0000000000000053
#05652:0000005600000000
#05656:00000000000000000000002500000000
#06452:00000016
#06454:00140000
#06458:14
#06156:54
#05952:54
#05955:0000000000000024
#04958:1400006200005300
#04954:142a
#04154:1400000000000000000000000000000000000000000000000000000000240000
#04158:14
#04155:0000006600560052
#0415b:0000001300000013
#04152:0000000000130000
#00952:34
#0095a:44
#00955:0063
#01752:1453
#0175a:14
#0175b:00630063
#06257:0024
#0625b:63
#0635b:63
#04354:0000000000000000000000000000000000000000520000000064000012000000
#0435a:0000000000000052
#04358:0000000000000000000000005300000000000000000000000000000000240000
#04352:1300000000000000000000001300000000000000002400000000000000000000
#0435b:1300000000130000
#0445a:0064000012000000000000000000000000000000000000000000000000000000
#04456:0000000052000000006400001200000000000000000000000000000000000000
#0445b:0000006300000000
#04457:00000000000000000023000000000000
#04454:0000000000240000000000000000000000000000000000000000000000000000
#03952:5300000000530000
#03958:0000005300000053
#03955:0000000000000063
#03155:6300000000630000
#03152:0000005300000053
#0305b:0063000000000000
#03058:0000005300000000
#02756:0000006300000063
#02752:5300000000530000
#02657:00000053
#04252:0000005300000000
#04256:00001200000000000023000000000000
#04259:0052000000000000
#04258:0000000000240000000000000000000000000000000000000000000000000000
#0425a:0000001200000000
#0465b:0000006300000000
#04652:0000005300000000
#04656:0063000000000000
#0505b:23
#05055:0000006300000000
#01952:0023000000000053
#01958:0000000000530000
#01955:6300006300000000
#02056:00000023000000000000000000000000
#01858:0053000000005300
#0185b:0000001300000023
#01855:0000001300000000
#01052:0053
#01158:0053
#0125b:0063
#01557:00230000
#0155b:63
#01656:00230000
#01652:53
#00857:00000000000000000000002300000000
#0085b:0000006300000000
#00852:0053000000000000
#00656:0000000000230000
#00652:0000005300000000
#0065b:0063000000000000
#00758:5300000000000053
#00755:0000000000630000
#0075b:0000006300000000
#00555:6300000000000063
#00558:0000000000530000
#00552:0000005300000000
#04052:00000053
#0405b:00000063
#05158:0000005300000053
#0515b:63
#05152:0000000000530000
#05258:0000005300000000
#05252:0053000000000000
#0545a:2424
#05456:24242400
#05458:0064005400000000
#05454:0064005400000000
#05452:00240000
#05358:0000005300630054
#05354:0000000000000054
#05352:0023000000002400
#05356:00000024
#05355:6300000000630000
#0535b:0023
#001360:12220000
#001360:0000001200220000
#002380:12220000
#002380:0000001200220000
#003360:12220000
#003350:0000001200220000
#004380:12220000
#004390:0000001200220000
#005350:13
#005320:00230000
#005320:0000001300000000
#005350:0000000000230000
#005381:0000000000130000
#0053b1:0000000000000023
#005350:0000000000000013
#006320:0023000000000000
#0063b1:0013000000000000
#006381:0000002300000000
#006320:0000001300000023
#006360:0000000000530000
#007380:13
#0073b0:00230000
#0073b0:0000001300000000
#007380:0000000000230000
#007351:0000000000130000
#007321:0000000000000023
#007380:0000000000000013
#0083b0:0023000000000000
#008321:0013000000000000
#008351:0000002300000000
#0083b0:0000001300000000
#008370:00000000000000000000005300000000
#0093a0:24
#009350:0013
#009320:00000023
#010320:0013
#010350:00000023
#011380:0013
#0113b0:00000023
#0123b0:0013
#012380:00000023
#0133b0:13230000
#014320:13230000
#0153b0:1323
#015370:00530000
#016320:1323
#016360:00530000
#0173b0:00130000
#017380:0023
#017321:0013
#017351:00000023
#0173b0:00000013
#018380:23
#018380:0013000000000000
#0183b0:0000002300000000
#018380:00000013
#0183b0:0000000000000053
#019380:23
#019351:13230000
#019321:0053000000000000
#019351:0000001300000000
#019321:0000000000230000
#019380:0000000000130000
#0193b0:0000000000000023
#019321:0000000000000013
#020361:00000053000000000000000000000000
#020321:0023
#021321:13333333
#022321:33333333
#023321:23
#0223b0:0013000000000000
#022370:0000002300000000
#022370:00000013
#0233b0:33333333
#0243b0:33333333
#0253b0:23
#023321:0000001300000000
#023361:0000000000230000
#023361:0000000000000013
#024321:0023
#026370:00000013
#0273b0:23
#027321:13
#027361:00230000
#027361:0000001300000033
#027321:0000000000330000
#028321:0023
#0303b1:0013000000002300
#030381:0000003300000000
#031351:13
#031321:00230000
#031321:0000001300000033
#031351:0000000000330000
#032351:0023
#033321:13230000
#033351:00001323
#034321:13230000
#034351:00001323
#0353b1:13230000
#035350:13
#035320:0023
#035381:00001323
#035351:0000000000000013
#036321:0023
#0363b0:13230000
#036380:00001323
#037320:13230000
#0373b0:00001323
#038320:13230000
#0383b0:00001323
#039320:13
#039350:00230000
#039380:0000001300000000
#0393b0:0000000000230000
#039321:0000000000130000
#039351:0000000000000033
#040321:00230000
#039380:0000000000000013
#0403b0:00230000
#040320:00000013
#041340:24
#0403b1:00000013
#041381:24
#041351:0000001600000000
#041321:0000000000230000
#041350:0000000000160000
#0413b0:0000000000000023
#041351:0000000000000012
#041341:0000000000000000000000000000000000000000000000000000000000540000
#041361:00000000000000000000000000000052
#042361:0022000000000000
#042390:0012000000000000
#042380:0000000000540000000000000000000000000000000000000000000000000000
#0423a0:00000052000022000000000000000000
#042321:0000001300002300
#042361:00000000000000000053000000000000
#043381:0000001300000000
#0433b1:0000000000230000
#043340:000000000000000000000000000000000000000000000000000000000000000000000000000000000000000000000000000000000000000000000000000000000000000000000000000000000000000000000000000000000000000000000000000000000000000000000000000000000000000000000000000000000000000000000000000000000000000000000000000000000000000000000000000000000000000000000000000000000000000000000000000000000000000000000000000000000000000000000000000000000000000000000000000000000000000000000000000000000000000000000000000000000000000000000000000000000000000000000000000000000000000000000000000000000000000000000000000000000000000000000000000000000000000000000000000000000000000000000000000000000000000000000000000000000000000000000000000000000000000000000000000000000000000000000000000000000000000000000000000000000000000000000000000000000000000000000000000000000000000000000000000000000000000000000000000000000000000000000000000000000000000000000000000000000000000000000000000000000000000000000000000000000000000000000000000000000000000000000000000000000000000000000000000000000000000000000000000000000000000000000000000000000000000000000000000000000000000000000000000000000000000000000000000000000000000000000000000000000000000000000000000000000000000000000000000000000000000000000000000000000000000000000000000000000000000000000000000000000000000000000000000000000000000000000000000000000000000000000000000000000000000000000000000000000000000000000000000000000000000000000000000000000000000000000000000000000000000000000000000000000000000000000000000000000000000000000000000000000000000000000000000000000000000000000000000000000000000000000000000000000000000000000000000000000000000000000000000000000000000000000000000000000000000000000000000000000000000000000000000000000000000000000000000000000000000000000000000000000000000000000000000000000000000000000000000000000000000000000000000000000000000000000000000000000000000000000000000000000000000000000000000000000000000000000000000000000000000000000000000000000000000000000000000000000000000000000000000000000000000000000000000000000000000000000000000000000000000000000000000000000000000000000000000000000000000000000000000000000000000000000000000000000000000000000000000000000000000000000000000000000000000000000000000000000000000000000000000000000000000000000000000000000000000000000000000000000000000000000000000000000000000000000000000000000000000000000000000000000000000000000000120000000000000000000000000000000000000000000000000000000000000000000000000000000000000000000000000000000000000000000000000000000000000000000000000000000000000000000000000000000000000000000000000000000000000000000000000000000000000000000000520000000000000000000000000000000000000000000000000000000000000000000000000000000000000000000000000000000000000000000000000000000000000000000000000000000000000000000000000000000000000000000000000000000000000000000000000000000000000000000000000000000000000000000000000000000000000000000000000000000000000000000000000000000000000000000000000000000000000000000052540000000000000000000000000000000000000000000000000000000000000000000000000000000000000000000000000000000000000000000000000000000000000000000000000000000000000000000000000000000000000000000000000000000000000000000000000000000000000000000000000000000000000000000000000000000000000000000000000000000000000000000000000000000000000000000000000000000000000000000000220000000000000000000000000000000000000000000000000000000000000000000000000000000000000000000000000000000000000000000000000000000000000000000000000000000000000000000000000000000000000000000000000000000000000000000000000000000000000000000000000000000000000000000000000000000000000000000000000000000000000000000000000000000000000000000000000000000000000000000000000000000000000000000000000000000000000000000000000000000000000000000000000000000000000000000000000000000000000000000000
#043320:0000000000000000000000000000000000000000005400000000000000000000
#0433a1:00000000000000000000000000001252
#043381:0000000000000000000000000000000000000000000000000000000000540000
#0443a1:000000000000000000000000000000000000000000000000000000000000000000000000000000000000000000000000000000000000000000000052540000000000000000000000000000000000000000000000000000000000000000000000000000000000000000000000000000000000000000000000000000000000000000000000000000000000000000000000000000000000000000000000000000000000000000000000000000000000000000000000000000000000000000000000000000000000000000000000000000000000000000000000000000000000000000000000000000000000000000000000220000000000000000000000000000000000000000000000000000000000000000000000000000000000000000000000000000000000000000000000000000000000000000000000000000000000000000000000000000000000000000000000000000000000000000000000000000000000000000000000000000000000000000000000000000000000000000000000000000000000000000000000000000000000000000000000000000000000000000000000000000000000000000000000000000000000000000000000000000000000000000000000000000000000000000000000000000000000000000000000000000000000000000000000000000000000000000000000000000000000000000000000000000000000000000000000000000000000000000000000000000000000000000000000000000000000000000000000000000000000000000000000000000000000000000000000000000000000000000000000000000000000000000000000000000000000000000000000000000000000000000000000000000000000000000000000000000000000000000000000000000000000000000000000000000000000000000000000000000000000000000000000000000000000000000000000000000000000000000000000000000000000000000000000000000000000000000000000000000000000000000000000000000000000000000000000000000000000000000000000000000000000000000000000000000000000000000000000000000000000000000000000000000000000000000000000000000000000000000000000000000000000000000000000000000000000000000000000000000000000000000000000000000000000000000000000000000000000000000000000000000000000000000000000000000000000000000000000000000000000000000000000000000000000000000000000000000000000000000000000000000000000000000000000000000000000000000000000000000000000000000000000000000000000000000000000000000000000000000000000000000000000000000000000000000000000000000000000000000000000000000000000000000000000000000000000000000000000000000000000000000000000000000000000000000000000000000000000000000000000000000000000000000000000000000000000000000000000000000000000000000000000000000000000000000000000000000000000000000000000000000000000000000000000000000000000000000000000000000000000000000000000000000000000000000000000000000000000000000000000000000000000000000000000000000000000000000000000000000000000000000000000000000000000000000000000000000000000000000000000000000000000000000000000000000000000000000000000000000000000000000000000000000000000000000000000000000000000000000000000000000000000000000000000000000000000000000000000000000000000000000000000000000000000000000000000000000000000000000000000000000000000000000000000000000000000000000000000000000000000000000000000000000000000000000000000000000000000000000000000000000000000000000000000000000000000000000000000000000000000000000000000000000000000000000000000000000000000000000000000000000000000000000000000000000000000000000000000000000000000000000000000000000000000000000000000000000000000000000000000000000000000000000000000000000000000000000000000000000000000000000000000000000000000000000000000000000000000000000000000000000000000000000000000000000000000000000000000000000000000000000000000000000000000000000000000000000000000000000000000000000000000000000000000000000000000000000000000000000000000000000000000000000000000000000000000000000000000000000000000000000000000000000000000000000000000000000000000000000000000000000000000000000000000000000000000000000000000000000000000000000000000000000000000000000000000000000000000000000000000000000000000000000000000000000000000000000000000000000000000000000000000000000000000000000000000000000000000000000000000
#044360:000000000000000000000000000000000000000000000000000000000000000000000000000000000000000000000000000000000000000000000000000000000000000000000000000000000000000000000000000000000000000000000000000000000000000000000000000000000000000000000000000000000000000000000000000000000000000000000000000000000000000000000000000000000000000000000000000000000000000000000000000000000000000000000000000000000000000000000000000000000000000000000000000000000000000000000000000000000000000000000000120000000000000000000000000000000000000000000000000000000000000000000000000000000000000000000000000000000000000000000000000000000000000000000000000000000000000000000000000000000000000000000000000000000000000000000000000000000000000000000000520000000000000000000000000000000000000000000000000000000000000000000000000000000000000000000000000000000000000000000000000000000000000000000000000000000000000000000000000000000000000000000000000000000000000000000000000000000000000000000000000000000000000000000000000000000000000000000000000000000000000000000000000000000000000000000000000000000000000000000052540000000000000000000000000000000000000000000000000000000000000000000000000000000000000000000000000000000000000000000000000000000000000000000000000000000000000000000000000000000000000000000000000000000000000000000000000000000000000000000000000000000000000000000000000000000000000000000000000000000000000000000000000000000000000000000000000000000000000000000000220000000000000000000000000000000000000000000000000000000000000000000000000000000000000000000000000000000000000000000000000000000000000000000000000000000000000000000000000000000000000000000000000000000000000000000000000000000000000000000000000000000000000000000000000000000000000000000000000000000000000000000000000000000000000000000000000000000000000000000000000000000000000000000000000000000000000000000000000000000000000000000000000000000000000000000000000000000000000000000000000000000000000000000000000000000000000000000000000000000000000000000000000000000000000000000000000000000000000000000000000000000000000000000000000000000000000000000000000000000000000000000000000000000000000000000000000000000000000000000000000000000000000000000000000000000000000000000000000000000000000000000000000000000000000000000000000000000000000000000000000000000000000000000000000000000000000000000000000000000000000000000000000000000000000000000000000000000000000000000000000000000000000000000000000000000000000000000000000000000000000000000000000000000000000000000000000000000000000000000000000000000000000000000000000000000000000000000000000000000000000000000000000000000000000000000000000000000000000000000000000000000000000000000000000000000000000000000000000000000000000000000000000000000000000000000000000000000000000000000000000000000000000000000000000000000000000000000000000000000000000000000000000000000000000000000000000000000000000000000000000000000000000000000000000000000000000000000000000000000000000000000000000000000000000000000000000000000000000000000000000000000000000000000000000000000000000000000000000000000000000000000000000000000000000000000000000000000000000000000000000000000000000000000000000000000000000000000000000000000000000000000000000000000000000000000000000000000000000000000000000000000000000000000000000000000000000000000000000000000000000000000000000000000000000000000000000000000000000000000000000000000000000000000000000000000000000000000000000000000000000000000000000000000000000000000000000000000000000000000000000000000000000000000000000000000000000000000000000000000000000000000000000000000000000000000000000000000000000000000000000000000000000000000000000000000000000000000000000000000000000000000000000000000000000000000000000000000000000000000000000000000000000000000000000000000000000000000000000000000000000000000000000000000000000000000000000000000000000000000000
#044340:0000000000540000000000000000000000000000000000000000000000000000
#0443b1:0000001300002300
#044371:00000000000000000053000000000000
#0453b1:1300002300000000
#045360:0000001300000000
#045320:0000000000330023
#0453b1:0000000000130000
#045371:0000000000000033
#0463b1:0033003300000000
#046381:00000023
#046360:0013000000000000
#046320:0000003300000000
#046350:00000023
#047320:1353535353535353535353532300000000000000000000000000000000000000
#047330:00530053005300530053005300530053005300530053005300000000000000000000000000000000000000000000000000000000000000000000000000000000
#047371:0000001300000000
#0473b1:0000000000000000000000000000000000000000335353535353535323000000
#0473a1:00000000000000000000000000000000000000000000000000000000000000000000000000000000005300530053005300530053005300530000000000000000
#047320:0000000000130000
#047360:0000000000000033
#048320:0000000033535353535353532300000000000000000000000000000000000000
#048330:00000000000000000053005300530053005300530053005300000000000000000000000000000000000000000000000000000000000000000000000000000000
#048371:0013000000000000
#0483b1:0000002300000000
#0483b1:00000013
#049381:24
#048320:00000013
#049340:24
#049380:0000001200220000
#049340:005a
#049380:00000013
#0503b0:53
#050380:00230000
#050350:0000001300000000
#050320:00000023
#0513b0:13
#051380:00230000
#051380:0000001300000000
#0513b0:0000000000230000
#051321:0000000000130000
#051351:0000000000000023
#051380:0000000000000013
#0523b0:0023000000000000
#052321:0013000000000000
#052351:0000002300000000
#052380:0000001300000000
#0523b0:00000023
#053350:13230000
#053320:0053000000000000
#053380:0000001300330034
#0533b0:0053
#053360:00000054
#0543a0:5454
#054380:0034003400000000
#054360:00540024
#053351:0000000000130000
#053321:00000054
#053341:0000000000000034
#054361:5454
#054341:0034003400000000
#054321:00540024
#0553a1:1454545454545454240000000000000000000000000000000000000000000000
#055391:00540054005400540054005400540054000000000000000000000000000000000000000000000000000000000000000000000000000000000000000000000000
#055321:0000000000000000000000001454545454545454240000000000000000000000
#055331:00000000000000000000000000000000000000000000000000540054005400540054005400540054000000000000000000000000000000000000000000000000
#055380:0000000000000000000000000000000000000000145454545454545424000000
#055390:00000000000000000000000000000000000000000000000000000000000000000000000000000000005400540054005400540054005400540000000000000000
#055341:0000000000000000000000000000000000000000000000000000000014545454
#055331:00000000000000000000000000000000000000000000000000000000000000000000000000000000000000000000000000000000000000000054005400540054
#056341:5454545424000000000000000000000000000000000000000000000000000000
#056331:00540054005400540000000000000000000000000000000000000000000000000000000000000000000000000000000000000000000000000000000000000000
#0563a0:0000000014545454545454542400000000000000000000000000000000000000
#056390:00000000000000000054005400540054005400540054005400000000000000000000000000000000000000000000000000000000000000000000000000000000
#056321:0000001600000000
#056361:00000000000000000000005500000000
#057341:24
#0573a0:14
#057370:00000054
#0583a0:0024
#059320:14
#059350:0000000000000054
#060320:00000024
#061360:14
#0623b0:53
#062370:0054
#0633b0:53
#064380:24
