This file was generated by Ched 2.7.0.0.
#TITLE ""
#ARTIST ""
#DESIGNER ""
#DIFFICULTY 0
#PLAYLEVEL
#SONGID ""
#WAVE ""
#WAVEOFFSET 0
#JACKET ""
#REQUEST "ticks_per_beat 480"
#00002: 4
#BPM01: 184
#00008: 01
#TIL00: ""
#VOLUME: ""
#HISPEED 00
#MEASUREHS 00
#00012:13
#00015:0000120000000012
#00018:0000001200000000
#00017:0000000000120000
#0001b:0000000000120000
#00019:0000000000000012
#0011a:00000012
#00116:0000000000000012
#00118:00000000000000000000000000000012
#00113:00120000000000000000000000000000
#00219:0000120000000012
#00216:0000001200000000
#00217:0000000000120000
#00213:0000000000120000
#00215:0000000000000012
#00314:00000012
#0031b:00120000000000000000000000000000
#00318:0000000000000012
#00316:00000000000000000000000000000012
#00415:00120012
#00418:0000001200120000
#00412:0013
#0041a:0000000000000012
#00518:00120000000000000000000000001200
#00514:00000012
#00516:00000000000000000000000000000012
#00618:1213
#0061a:0013000000140014
#00616:00120000
#00613:0000001300000000
#00612:0000000000000014
#00615:00000013
#00716:00130000
#0071b:00130000
#00815:00130000
#00818:0000001300000000
#0081b:0000000000130000
#00812:2400000000000013
#00816:0000000000140014
#0081a:24
#00810:41
#00916:00130000
#00912:0013
#00917:0013
#01018:00130000
#01015:0000001300000000
#01012:2400000000130000
#0101b:0000000000000013
#01016:0000000000140014
#0101a:24
#01318:00130000000000001400000000000000
#01315:00130000000000000000000000000000
#01314:0014
#01215:00130000
#01218:0000001300000000
#0121b:0000000000130000
#01216:0000000000140000
#01212:2400000000000014
#0121a:2400000000000014
#01418:00130000
#01416:0000000000140014
#01412:2400000000130000
#01415:0000001300000000
#0141a:24
#0141b:0000000000000023
#01512:00000013000000000000000000000000
#01518:0013
#01515:0013
#01616:00120000
#01618:0000001200000000
#0161a:0000000000120000
#0161b:23
#01612:23
#01610:41
#01716:0000001200001200
#0171a:0012
#01718:0000000000120000
#01714:0000000000000012
#0181b:13
#01812:13
#01818:00120000
#01816:0000001200000000
#01814:0000000000120000
#01918:0000001200001200
#01914:0012
#01916:0000000000120000
#0191a:0000000000000012
#0201b:13130000
#02012:13
#02016:00130000
#02019:0000001300000000
#02017:0013
#02018:00000013
#02015:0000000000000013
#02112:13130000
#0211b:13
#02117:00130000
#02114:0000001300000000
#02116:0013
#02115:00000013
#02118:0000000000000013
#02215:13
#02212:0000130000000026
#0221b:1313
#02217:00130000
#02219:0000001300001300
#02216:0000000000130000
#02318:00000016
#02412:13000023
#02417:13
#02419:0013000000000000
#02418:0000000013000013
#0241a:0000000000130000
#02416:0000001300000000
#0241b:00230000
#02410:41
#0261b:13
#02612:1300131300000000
#02615:0000000000000013
#02618:0000000000000013
#02613:00000000000000000000000000000000000000000000000000000000000000000000000000000000000000000000000000000000000000000053000000000000
#0261a:00000000000000000000000000000000000000000000000000000000000000000000000000000000000000000000000000000000000000000053000000000000
#0271b:0013130000000000
#02712:0013130000000000
#02714:0013
#02719:0000000000130013
#02716:00000014
#0281b:13
#02819:0000000000130000
#02814:00000013
#02812:2400000000000013
#02816:00140000
#0281a:0000000000000024
#02914:0013000013000000
#02916:00140014
#02912:0000001300000000
#02919:0013
#0291b:0000000000130013
#03018:13
#03014:00130013
#03019:00130013
#03015:0000001300000000
#03012:2400000000000024
#0301a:0000002400000024
#03119:0013000000000000
#03114:00130000
#0311b:0000001313000013
#03116:00000000000000130000000000000000
#03112:0000000000131300
#03117:00000000000000000000001300000000
#03416:00140000
#03414:0000000000130000
#03412:26
#03617:0000130000130000
#0361a:0000001300001300
#03616:0000000000000013
#03612:00141414
#03516:00140000
#03519:0013
#0351c:00000012
#03512:00000012
#03518:26
#03514:0023
#0371a:24141400
#03716:00130000
#03713:0000001300000000
#03715:0000000000131300
#03718:00000000000000000000001300000000
#03719:0000000000000015
#03712:0000000000000015
#03914:00130000
#03916:0013000000000000
#03917:0000001300000000
#03912:0000000000130026
#03919:00230000
#0391b:0023000000000000
#03918:0000000000000026
#0391f:0000000000000021
#03818:00121314
#03816:0000001200000000
#03815:0000000000130000
#03812:0000000000000025
#03819:0000000000000025
#04017:0000000000000015
#04014:00000000001600000000000000000000
#04012:00000015
#04114:1500000000130000
#04119:0015000000130000
#04112:0000001300000000
#04117:0000001300000000
#0411b:0000000000000023
#04116:0000000000000023
#04110:41
#04312:0023000014140013
#0431a:0000000014140000
#04315:00000013
#04317:0023000000000024
#04319:00000000000000000063000000000000000000000000000000000000000000000000000000000000000000000000000000000000000000000000000000000000
#0431b:0000000000630000000000000000000000000000000000000000000000000000
#04314:00000000000000000063000000000000000000000000000000000000000000000000000000000000000000000000000000000000000000000000000000000000
#04316:0000000000630000000000000000000000000000000000000000000000000000
#0441b:0013130000000000
#04416:00131400
#04412:0000000000001515
#04419:0000000000000015
#04516:00150000000000000000000000000000
#04519:00150015
#04515:0013
#04518:0000000000130000
#04512:00000015
#04619:15001515
#04616:0015000000000000
#04612:15151500
#04615:0000000000150000
#04719:15
#04712:1500000023000026
#04718:00001300000000000000001300130000
#04715:0013000000131300
#0471b:0023
#04912:0015000000130000
#0491b:0000001300001300
#04916:0000001300001300
#04917:1500000000130000
#05018:0000000000130000
#05015:00000013
#05012:2300000024000014
#05017:23
#0501b:00230000
#0501a:0000000024000024
#0511a:0014000000000000
#05116:00001300000000140000000000000000
#05112:00000000000000130000000000000000
#04814:0000000000000015
#04819:00000015
#04816:00000000001600000000000000000000
#05212:1400000000140014
#05216:00140000
#05217:1414
#0521b:00230023
#05210:41
#05317:1400001400140014
#05314:0013
#05312:00230023
#05412:14241400
#0541a:24142400
#05418:0000000000140000
#05416:00000014
#05414:0000000000000014
#05516:00140015
#05512:2415
#0551a:24
#05519:0025
#05617:00140000
#05612:0000001600002600
#05618:1600002600002600
#05615:0000000000140000
#05715:16001313
#05712:00160000
#05718:0000001300130013
#05815:00140000
#05818:2600001600002600
#05812:1600002600002600
#05817:0000000000140000
#05914:0000000000000014
#05916:0000000000140000
#0591b:00000023
#05915:00000034
#06016:0012
#06012:0014000000000000
#06014:00000000001300000000000000000000
#06018:0012
#06115:00130000
#06118:0000001300000000
#0611b:0000000000130000
#06112:2400000000000013
#06116:0000000000140014
#0611a:24
#06110:41
#06216:0000130000130000
#06212:0013
#06217:0013
#0621b:0000000000130000
#06318:00130000
#06315:0000001300000000
#06312:2400000000130000
#0631b:0000000000000013
#06316:0000000000140014
#0631a:24
#0641b:0013
#06416:0013
#06412:0000000000130000
#06417:0000130000130000
#0651a:2400000000000014
#06512:2400000000000014
#06515:00130000
#06518:0000001300000000
#0651b:0000000000130000
#06516:0000000000140000
#06617:00140000000000000000000000000000
#06615:000000000000000000000000000000000000000000000000000000000000000000000000000000000000000000000000000000000000000000000000000000000000000000000000000000000000000000000000000000000000000000000000000000000000000000000000000000000000000000000000001400000000000000000000000000000000000000000000000000000000000000000000000000000000000000000000000000000000000000000000000000000000000000000000000000000000000000000000000000000000000000000000000000000000000000000000000000000000000000000000000000000000000000000000000000000000000000000000000000000000000000000000000000000000000000000000000000000000000000000000000000000000000000000000000000000000000000000000000000000000000000000000000000000000000000000000000000000000000000000000000000000000000000000000000000000000000000000000000000000000000000000000000000000000000000000000000000000000000000000000000000000000000000000000000000000000000000000000000000000000000000000000000000000000000000000000000000000000000000000000000000000000000000000000000000000000000000000000000000000000000000000000000000000000000000000000000000000000000000000000000000000000000000000000000000000000000000000000000000000000000000000000000000000000000000000000000000000000000000000000000000000000000000000000000000000000000000000000000000000000000000000000000000000000000000000000000000000000000000000000000000000000000000000000000000000000000000000000000000000000000000000000000000000000000000000000000000000000000000000000000000000000000000000000000000000000000000000000000000000000000000000000000000000000000000000000000000000000000000000000000000000000000000000000000000000000000000000000000000000000000000000000000000000000000000000000000000000000000000000000000000000000000000000000000000000000000000000000000000000000000000000000000000000000000000000000000000000000000000000000000000000000000000000000000000000000000000000000000000000000000000000000000000000000000000000000000000000000000000000000000000000000000000000000000000000000000000000000000000000000000000000000000000000000000000000000000000000000000000000000000000000000000000000000000000000000000000000000000000000000000000000000000000000000000000000000000000000000000000000000000000000000000000000000000000000000000000000000000000000000000000000000000000000000000000000000000000000000000000000000000000000000000000000000000000000000000000000000000000000000000000000000000000000000000000000000000000000000000000000000000000000000000000000000000000000000000000000000000000000000000000000000000000000000000000000000000000000000000000000000000000000000000000000000000000000000000000000000000000000000000000000000000000000000000000000000000000000000000000000000000000000000000000000000000000000000000000000000000000000000000000000000000000000000000000000000000000000000000000000000000000000000000000000000000000000000000000000000000000000000000000000000000000000000000000000000000000000000000000000000000000000000000000000000000000000000000000000000000000000000000000000000000000000000000000000000000000000000000000000000000000000000000000000000000000000000000000000000000000000000000000000000000000000000000000000000000000000000000000000000000000000000000000000000000000000000000000000000000000000000000000000000000000000000000000000000000000000000000000000000000000000000000000000000000000000000000000000000000000000000000000000000000000000000000000000000000000000000000000000000000000000000000000000000000000000000000000000000000000000000000000000000000000000000000000000000000000000000000000000000000000000000000000000000000000000000000000000000000000000000000000000000000000000000000000000000000000000000000000000000000000000000000000000000000000000000000000000000000000000000000000000000000000000000000000000000000000000000000000000000000000000000000000000000000000000000000000000000000000000000000000000000000000000000000000000000000000000000000000000000
#0661b:0000000000130000
#06618:0014
#06612:0000000000130000
#06614:0014
#0111b:0013
#01116:0013
#01117:00130000
#06714:00130000
#06719:0000130000250000
#06712:2400002400150026
#0671a:2400001400000000
#06718:0000000000000026
#06816:00140000000000140000000000002400
#06814:00000014
#06812:0000000000140000
#0681b:0000000000000013
#06818:00260000
#02514:0013000000000000
#02515:0000000013000013
#02513:0000000000130000
#02517:0000001300000000
#0251b:13000023
#02512:00230000
#0321f:11
#03215:26
#03315:26
#04217:0023000000230000
#04212:0023000000230000
#0421b:0000000000630000000000002300000000000000006300000000000023000000
#04216:0000000000630000000000002300000000000000006300000000000023000000
#04219:00000000000000000063000000000000000000000000000000000000000000000000000000000000006300000000000000000000000000000000000000000000
#04214:00000000000000000063000000000000000000000000000000000000000000000000000000000000006300000000000000000000000000000000000000000000
#07112:5a
#00055:0000000000000062
#00153:00220000000000000000000000000000
#00259:0000000000000052
#0035b:00220000000000000000000000000000
#0045a:0000000000000052
#00752:00000013
#00757:00000013
#00756:00630000
#0075b:00630000
#00652:0000000000000064
#0085b:0000000000130000
#00852:0000000000000013
#00856:0000000000000064
#00952:0063
#00957:0063
#0095b:00130013
#00956:00000013
#0135b:00000013
#01358:00230000000000006400000000000000
#01352:00340013
#01355:00230000000000000000000000000000
#0135a:00440000
#01354:0054
#0125b:0000000000130000
#01252:0000000000000054
#0125a:0000000000000064
#01452:0000000000130000
#01456:0000000000000064
#0145b:0000000000000013
#01552:00000023000000000000000000000000
#01558:0063
#01555:0063
#01652:13
#0165b:13
#02052:6333
#02056:00230000
#0215b:5343
#02157:00230000
#02255:63
#02252:0000230000000066
#0225b:0043
#02452:13
#0245a:0000000000130000
#02458:0000000000000063
#0265b:63
#02652:0000005300000000
#02655:0000000000130000
#02658:0000000000130000
#0275b:00130000
#02752:00130000
#02852:14
#0285a:0000000000000014
#03052:3400000000000034
#0305a:0000004400000044
#03255:66
#03355:56
#03452:66
#03454:0000000000630000
#03456:00240000
#03556:00240000
#03559:0053
#0355c:00000022
#03558:56
#03552:00000022
#03554:0063
#0365a:14
#03652:14
#0375a:0014
#03759:0000000000000015
#03752:0000000000000015
#03852:0000000000000015
#03859:0000000000000015
#03957:0000001300000000
#03952:0000000000230016
#03958:0000000000000056
#04159:0015000000000000
#0415b:0000000000000013
#04156:0000000000000013
#0425b:0000001300000013
#04256:0000001300000013
#04352:0000000000000063
#04357:0000000000000014
#0445b:00630000
#04456:00332400
#04452:0000000000000065
#04459:0000000000000015
#04556:00250000000000000000000000000000
#04659:6515
#04656:0025000000000000
#04652:1555
#04655:0000000000250000
#04758:0063000000000000
#04755:0053000000000000
#04752:0000000000000066
#04952:0015000000000000
#04956:00000013
#0495b:00000013
#05056:00130000
#0505b:00130000
#05052:6300000000000064
#0505a:0000000000000044
#0515a:0054000000000000
#05156:00006300000000240000000000000000
#05152:00000000000000230000000000000000
#04054:00000000002600000000000000000000
#04856:00000000002600000000000000000000
#05252:64
#05256:00240000
#05257:14
#05357:64
#05452:1414
#0545a:00140000
#0555a:44
#05552:6465
#05556:00240025
#05559:0045
#05652:36000036
#05658:0000004600006600
#05755:26
#05852:0000003600005600
#05858:46000046
#05954:0000000000000064
#0595b:00000063
#05956:0000000000240000
#0605a:00000044
#06056:0022
#06052:0024000000003400
#06054:00000000006300000000000000000000
#06058:0022
#0615b:0000000000130000
#06152:0000000000000013
#06156:0000000000000064
#06252:0063
#06257:0063
#0625b:0000130000230000
#06256:0000000000230000
#06254:00000033
#06259:00000033
#0645b:0053
#06456:0053
#06452:0000130000230000
#06457:0000000000230000
#06459:00000043
#06454:00000043
#0655a:0000000000000064
#06552:0000000000000054
#0655b:0000000000130000
#06657:00240000000000000000000000000000
#06655:000000000000000000000000000000000000000000000000000000000000000000000000000000000000000000000000000000000000000000000000000000000000000000000000000000000000000000000000000000000000000000000000000000000000000000000000000000000000000000000000002400000000000000000000000000000000000000000000000000000000000000000000000000000000000000000000000000000000000000000000000000000000000000000000000000000000000000000000000000000000000000000000000000000000000000000000000000000000000000000000000000000000000000000000000000000000000000000000000000000000000000000000000000000000000000000000000000000000000000000000000000000000000000000000000000000000000000000000000000000000000000000000000000000000000000000000000000000000000000000000000000000000000000000000000000000000000000000000000000000000000000000000000000000000000000000000000000000000000000000000000000000000000000000000000000000000000000000000000000000000000000000000000000000000000000000000000000000000000000000000000000000000000000000000000000000000000000000000000000000000000000000000000000000000000000000000000000000000000000000000000000000000000000000000000000000000000000000000000000000000000000000000000000000000000000000000000000000000000000000000000000000000000000000000000000000000000000000000000000000000000000000000000000000000000000000000000000000000000000000000000000000000000000000000000000000000000000000000000000000000000000000000000000000000000000000000000000000000000000000000000000000000000000000000000000000000000000000000000000000000000000000000000000000000000000000000000000000000000000000000000000000000000000000000000000000000000000000000000000000000000000000000000000000000000000000000000000000000000000000000000000000000000000000000000000000000000000000000000000000000000000000000000000000000000000000000000000000000000000000000000000000000000000000000000000000000000000000000000000000000000000000000000000000000000000000000000000000000000000000000000000000000000000000000000000000000000000000000000000000000000000000000000000000000000000000000000000000000000000000000000000000000000000000000000000000000000000000000000000000000000000000000000000000000000000000000000000000000000000000000000000000000000000000000000000000000000000000000000000000000000000000000000000000000000000000000000000000000000000000000000000000000000000000000000000000000000000000000000000000000000000000000000000000000000000000000000000000000000000000000000000000000000000000000000000000000000000000000000000000000000000000000000000000000000000000000000000000000000000000000000000000000000000000000000000000000000000000000000000000000000000000000000000000000000000000000000000000000000000000000000000000000000000000000000000000000000000000000000000000000000000000000000000000000000000000000000000000000000000000000000000000000000000000000000000000000000000000000000000000000000000000000000000000000000000000000000000000000000000000000000000000000000000000000000000000000000000000000000000000000000000000000000000000000000000000000000000000000000000000000000000000000000000000000000000000000000000000000000000000000000000000000000000000000000000000000000000000000000000000000000000000000000000000000000000000000000000000000000000000000000000000000000000000000000000000000000000000000000000000000000000000000000000000000000000000000000000000000000000000000000000000000000000000000000000000000000000000000000000000000000000000000000000000000000000000000000000000000000000000000000000000000000000000000000000000000000000000000000000000000000000000000000000000000000000000000000000000000000000000000000000000000000000000000000000000000000000000000000000000000000000000000000000000000000000000000000000000000000000000000000000000000000000000000000000000000000000000000000000000000000000000000000000000000000000000000000000000000000000000000000000000000000000000000000000000000000000000000000000000000
#0665b:0000000000230000
#06658:00006414
#06652:0000340000230000
#06654:00005414
#0665a:00440000
#0115b:0053
#01156:0053
#01157:00000013
#01152:00130013
#06752:0000000000150066
#0675a:0000001400000000
#06758:0000000000000046
#06852:00360000
#06856:00240000000000240000000000001400
#06858:0000560000460000
#0685b:0000000000000023
#00558:00220000000000000000000000000000
#0255b:23
#02553:0000000000130000
#01052:0000000000130000
#0105b:0000000000000013
#01056:0000000000000054
#06352:0000000000130000
#0635b:0000000000000013
#06356:0000000000000054
#000380:12220000
#000350:0000000000000012
#001330:00520000000000000000000000000000
#001350:00220000
#001381:00122200
#001360:00001222
#002360:12220000
#002390:0000000000000012
#0033b0:00520000000000000000000000000000
#003390:00220000
#003361:00122200
#003380:00001222
#004380:12220000
#0043a0:0000000000000012
#005380:00520000000000000000000000000000
#0053a0:00220000
#005361:00122200
#005380:00001222
#006320:0000000000000014
#007360:00330000
#007320:00000023
#0073b1:00130000
#007371:00000023
#008361:0000000000000014
#0093b1:00230000
#009321:0013
#009361:00000023
#009370:0013
#0093b0:00000023
#010360:0000000000000014
#011320:00230000
#0113b0:0013
#011370:00000023
#011361:0013
#011321:00000023
#012321:0000000000000014
#013351:00530000000000000000000000000000
#013321:00240000
#0123a0:0000000000000014
#013380:00530000000000000000000000000000
#0133a0:00240000
#013380:0014
#0133b0:00000023
#013341:0014
#013321:00000023
#014361:0000000000000014
#015321:00000053000000000000000000000000
#015351:0033
#016321:23
#015380:0013
#0163b0:23
#016340:0000001200000000
#017340:00220000
#016381:0000000000000012
#017381:00220000
#0183a1:0000001200000000
#0193a1:00220000
#018360:0000000000000012
#019360:00220000
#020320:1323
#020360:00530000
#0213b0:1323
#021370:00530000
#022350:13
#022320:00530000
#022360:0023
#022320:0000000000000016
#023340:00000022
#024380:0000000000000013
#0253b0:53
#025380:0023000000000000
#0263b0:13
#026380:0053000000230000
#026321:0000001300000000
#026351:0000000053230000
#028341:0000001300230000
#032351:16
#033321:23
#033350:16
#0343b0:23
#034321:16
#034361:00540000
#034341:0000000000530000
#035321:22
#035380:16
#035360:00540000
#035390:0053
#0353c0:00000052
#0363a0:24
#035341:0013
#035321:00000052
#036321:24
#039321:0000001300530026
#039380:0000000000000016
#040340:00000000005600000000000000000000
#040380:00000026
#043320:0000000000000013
#044360:0023000000000000
#0443b0:00130000
#044360:0054
#044390:00000025
#044320:0000000000000015
#045360:00550000000000000000000000000000
#045320:00250000
#046390:15250000
#046360:0055000000000000
#046320:00001525
#046350:0000000000550000
#047350:0013000000000000
#047320:0000002300000000
#047381:0013000000000000
#0473b1:0000002300000000
#047321:0000000000000016
#048361:00000000005600000000000000000000
#048321:00000026
#050321:13
#050361:00230000
#050321:0000000000000014
#051361:0033000000002300
#051321:00000000000000530000000000000000
#0513a0:0014000000002400
#051360:00000000000000540000000000000000
#052320:1424
#052360:00540000
#053370:14
#0533b0:00230000
#055320:1435
#055360:00540055
#056320:26
#056380:00000016
#057350:56
#057380:00260000
#058320:00000016
#059360:0000000000540000
#059350:00000034
#059340:0000000000000054
#060320:0054000000002400
#060340:00000000005300000000000000000000
#060360:0052
#0593b1:00000013
#060381:0052
#0603a1:00000024
#061361:0000000000000014
#0623b1:00230000
#062321:0013
#062361:0000000000530000
#062341:00000023
#062370:0013
#0623b0:0000000000530000
#062390:00000023
#063360:0000000000000014
#064320:00230000
#0643b0:0013
#064370:0000000000530000
#064390:00000023
#064361:0013
#064321:0000000000530000
#064341:00000023
#0653a1:0000000000000014
#066371:00540000000000000000000000000000
#0663a1:00240000
#065320:0000000000000014
#066350:000000000000000000000000000000000000000000000000000000000000000000000000000000000000000000000000000000000000000000000000000000000000000000000000000000000000000000000000000000000000000000000000000000000000000000000000000000000000000000000000005400000000000000000000000000000000000000000000000000000000000000000000000000000000000000000000000000000000000000000000000000000000000000000000000000000000000000000000000000000000000000000000000000000000000000000000000000000000000000000000000000000000000000000000000000000000000000000000000000000000000000000000000000000000000000000000000000000000000000000000000000000000000000000000000000000000000000000000000000000000000000000000000000000000000000000000000000000000000000000000000000000000000000000000000000000000000000000000000000000000000000000000000000000000000000000000000000000000000000000000000000000000000000000000000000000000000000000000000000000000000000000000000000000000000000000000000000000000000000000000000000000000000000000000000000000000000000000000000000000000000000000000000000000000000000000000000000000000000000000000000000000000000000000000000000000000000000000000000000000000000000000000000000000000000000000000000000000000000000000000000000000000000000000000000000000000000000000000000000000000000000000000000000000000000000000000000000000000000000000000000000000000000000000000000000000000000000000000000000000000000000000000000000000000000000000000000000000000000000000000000000000000000000000000000000000000000000000000000000000000000000000000000000000000000000000000000000000000000000000000000000000000000000000000000000000000000000000000000000000000000000000000000000000000000000000000000000000000000000000000000000000000000000000000000000000000000000000000000000000000000000000000000000000000000000000000000000000000000000000000000000000000000000000000000000000000000000000000000000000000000000000000000000000000000000000000000000000000000000000000000000000000000000000000000000000000000000000000000000000000000000000000000000000000000000000000000000000000000000000000000000000000000000000000000000000000000000000000000000000000000000000000000000000000000000000000000000000000000000000000000000000000000000000000000000000000000000000000000000000000000000000000000000000000000000000000000000000000000000000000000000000000000000000000000000000000000000000000000000000000000000000000000000000000000000000000000000000000000000000000000000000000000000000000000000000000000000000000000000000000000000000000000000000000000000000000000000000000000000000000000000000000000000000000000000000000000000000000000000000000000000000000000000000000000000000000000000000000000000000000000000000000000000000000000000000000000000000000000000000000000000000000000000000000000000000000000000000000000000000000000000000000000000000000000000000000000000000000000000000000000000000000000000000000000000000000000000000000000000000000000000000000000000000000000000000000000000000000000000000000000000000000000000000000000000000000000000000000000000000000000000000000000000000000000000000000000000000000000000000000000000000000000000000000000000000000000000000000000000000000000000000000000000000000000000000000000000000000000000000000000000000000000000000000000000000000000000000000000000000000000000000000000000000000000000000000000000000000000000000000000000000000000000000000000000000000000000000000000000000000000000000000000000000000000000000000000000000000000000000000000000000000000000000000000000000000000000000000000000000000000000000000000000000000000000000000000000000000000000000000000000000000000000000000000000000000000000000000000000000000000000000000000000000000000000000000000000000000000000000000000000000000000000000000000000000000000000000000000000000000000000000000000000000000000000000000000000000000000000000000000000000000000000000000000000000000000000000000000000000000
#066320:00240000
#066380:00001424
#0663b0:0000000000530000
#066341:00001424
#066321:0000000000530000
#067321:0000000000000016
#068361:00540000000000000000000000000000
#068321:00260000
#068380:0000160000260000
#068360:00000000000000540000000000000000
#0683b0:0000000000000013
#071320:2a
#026950:0000000000000013
#026930:00000000000000000000000000000000000000000000000000000000000000000000000000000000000000000000000000000000000000000023000000000000
#026981:0000000000000013
#0269a1:00000000000000000000000000000000000000000000000000000000000000000000000000000000000000000000000000000000000000000023000000000000
#042971:0013000000000000
#0429b1:0000000000230000000000000000000000000000000000000000000000000000
#042920:0013000000000000
#042960:0000000000230000000000000000000000000000000000000000000000000000
#042970:0000000000130000
#0429b0:0000000000000000000000000000000000000000002300000000000000000000
#042921:0000000000130000
#042961:0000000000000000000000000000000000000000002300000000000000000000
#043971:0013000000000000
#0439b1:0000000000230000000000000000000000000000000000000000000000000000
#043920:0013000000000000
#043960:0000000000230000000000000000000000000000000000000000000000000000
