This file was generated by Ched 2.7.0.0.
#TITLE ""
#ARTIST ""
#DESIGNER ""
#DIFFICULTY 0
#PLAYLEVEL
#SONGID ""
#WAVE ""
#WAVEOFFSET 0
#JACKET ""
#REQUEST "ticks_per_beat 480"
#00002: 4
#BPM01: 184
#00008: 01
#TIL00: ""
#VOLUME: ""
#HISPEED 00
#MEASUREHS 00
#00014:00120000
#00016:12
#00018:0000000000130000
#00015:0000003200000013
#00113:00130000
#00118:00000012
#00116:0000000000000012
#0021a:00120000
#00218:1200000000000013
#00215:0000000000130000
#00219:0000003200000000
#0031a:00130000
#00315:00000013
#00318:0000000000000013
#00415:0000000000000013
#00418:0000000000130000
#00612:1500000000000015
#00617:0015000000150000
#00614:00150000
#00619:0000001500000015
#00815:00130000
#00818:0000001300000000
#00813:0000000000130000
#0081a:2400000000130014
#00812:24
#00810:41
#00917:00140000000000000000000000000000
#00912:0014
#01018:00130000
#01015:0000001300000000
#0101a:2400000000130000
#01013:0000000000130000
#01012:2400000000000014
#01115:00140000000000000000000000000000
#0111a:0014
#01215:00130000
#01218:0000001300000014
#01212:2400000000130000
#0121b:0000000000130000
#0121a:24
#0131b:00130000000000000000000000000000
#01314:0014
#01418:00130000
#01412:2400001400000014
#0141a:2400000000140000
#01518:0013
#01614:0000120000000012
#01618:0000001200000000
#01616:0000000000120000
#0161a:24
#01610:41
#01718:0000001200120012
#01716:00001212
#01812:14
#0181a:0000120000000012
#01816:0000001200000000
#01818:0000000000120000
#01916:0000001200120012
#01918:00001212
#0201a:13
#02018:0000133300000013
#02015:00000013
#02113:13
#02115:0000133300000013
#02118:00000013
#02218:0000001300000000
#02214:0000000000000023
#0231b:0000000000130000
#02315:00000013
#02415:00130000
#02418:0000001300000000
#02412:0013
#0241b:0000000000130000
#02410:41
#02518:00130013
#02515:0000001300000013
#0251b:0013
#02512:0000000000130000
#02612:0000001300000013
#02615:0000000000130000
#02718:0000000000130000
#02715:00000013
#02712:0000000000000013
#0281a:14
#02815:00131300
#02818:0000001300130000
#0281b:00000013
#02812:0000000000000014
#02918:0013000000130000
#02915:0000001300001300
#0291b:0013
#02912:0000000000000013
#0301a:14
#03014:0000141400000000
#03018:0000000000001414
#0311b:00000013000000000000000000000000
#03316:13
#03517:13
#03615:00130013
#03618:0000000013000013
#0371b:00130000
#03715:00000013
#0371a:0000000000000014
#03815:00130000
#03818:0000001300140025
#03814:0014
#03813:00000015
#03915:0000001300000000
#03918:0013
#03912:0000000000140000
#03919:0000000000000025
#0391f:0000000000000021
#04016:00000015000000000000000000000000
#04012:00000013
#04018:0000000000000013
#04115:1300001300000000
#0411b:0013000000000000
#04118:0000000013000023
#04112:0000000000130000
#04110:41
#04119:00000000000000000000000000000000000000000000000000000000000000000000000000000000000000000000000000000000000000000053000000000000
#04119:00000000000000000000000000000000000000000000000000000000000000000000000000000000000000000000000000000000000000000063000000000000
#0411a:0000000000000000000000000000000000000000000000000000000000630000
#04318:00001313
#04315:0000000000130000
#04312:0025000000000013
#04415:00130000
#04418:0000000000000013
#0451b:00130000000000000000000000000000
#04515:0013
#04512:0000000000130000
#0471a:14
#04712:0014000000000025
#04718:0013
#04715:0000000000130000
#04719:00000015
#04815:00000015000000000000000000001300
#0481b:00000013
#04918:1300001300130000
#04912:0013000000000000
#04915:0013
#04913:00000025
#05118:0013000000000000
#0511b:00000000000000130000000000000000
#0501b:0000000000000013
#05012:0013
#05018:0000250000130000
#05015:00000013
#05215:13000013
#05218:0000000000130013
#05210:41
#05312:1300000000130000
#05315:0000001300000000
#05418:0013130000000013
#05415:00000013
#05518:0000130000000013
#05515:0000001300001300
#05512:24
#0551a:0024
#05618:0000130000130000
#05612:2400002500002600
#05715:0000001300000013
#05712:0000000000130000
#05718:00001313
#0571b:00130000
#05815:0000130000130000
#0581a:24
#05819:0000002500000000
#05818:00000026
#05919:00000015
#05916:00150000
#06115:00130000
#06118:0000001300000000
#06113:0000000000130000
#0611a:2400000000130000
#0611b:0000000000000013
#06112:2400000000000013
#06110:41
#0631a:1400000000130000
#06312:14
#06318:0000130000000013
#06315:0000001300000013
#06313:0000000000130000
#06515:00130000
#06518:0000001300000013
#06512:1400000000130013
#0651b:0000000000130000
#0651a:14
#0671a:1400000000140000
#06712:1400001400000023
#06718:00130000
#06218:0013
#06215:0013
#06412:0013
#0641b:0013
#0681b:0000230000003313
#06812:0000000000003313
#00715:00130000
#00718:00130000
#00515:00000013
#00518:0000000000000013
#06615:0013
#0661b:0013
#0321f:11
#03212:26
#03418:26
#04215:0023000000230000
#04218:0000002300000000
#04219:00000000000000000000000000000000000000000000000000530000000000000000000000000000000000000000000000000000000000002500000000000000
#04219:00000000000000000000000000000000000000000000000000630000000000000000000000000000000000000000000000000000000000000000000000000000
#04214:00000000000000000053000000000000000000000000000000000000000000000000000000000000005300000000000000000000000000000000000000000000
#04214:00000000000000000063000000000000000000000000000000000000000000000000000000000000006300000000000000000000000000000000000000000000
#04213:0000000000630000000000000000000000000000006300000000000000000000
#0421a:0000000000000000000000000063000000000000000000000000000000000000
#07118:66
#07112:66
#00054:00220000
#00056:62
#00055:0000000000000063
#00153:00230000
#0025a:00220000
#00258:5200000000000053
#0035a:00230000
#00659:0000006500000065
#00657:0000000000650000
#00652:0000000000000055
#00752:00000013
#0075b:00000013
#00755:00630000
#00758:00530000
#0085a:0000000000000064
#00957:00240000000000000000000000000000
#00952:0064
#01052:0000000000000054
#01155:00240000000000000000000000000000
#0115a:0054
#01258:0000000000000054
#0135b:00230000000000000000000000000000
#01354:0064
#01452:0000001400000024
#0145a:0000000000140000
#01558:0063
#0165a:14
#01654:0000000000000052
#0185a:0000000000000062
#0205b:0043
#0205a:63
#02058:00230000
#02153:53
#02155:0000230000000063
#02152:0033
#02258:0000005300000000
#02254:0000000000000023
#0245b:0000000000130000
#02652:0000006300000063
#02655:0000000000630000
#02755:00130000
#0285a:14
#02852:0000000000000014
#0305a:14
#03054:0000001400000000
#03058:0000000000000064
#03158:0014
#0315b:00000023000000000000000000000000
#03356:63
#03557:53
#03658:1600000000000063
#0375b:00630000
#0375a:0000000000000014
#03252:66
#03458:56
#03858:0000000000000015
#03959:0000000000000065
#04056:00000025000000000000000000000000
#0415b:0013000000000000
#04152:0000000000130000
#04259:0000000000000015
#04352:0015000000000063
#04455:00630000
#04458:0000000000000063
#0455b:00230000000000000000000000000000
#04555:0063
#04552:0000000000230000
#04752:0014000000000055
#04855:00000025000000000000000000000000
#04952:0013000000000000
#05053:15
#05058:00150000
#0505b:0000000000000063
#05158:0063000000000000
#0515b:00000000000000230000000000000000
#05255:63
#05352:6300000000630000
#05355:0000006300000013
#05458:00630000
#05552:34
#0555a:0044
#05652:3400003500003600
#0585a:44
#05859:0000004500000000
#05858:00000066
#06056:00000014
#05959:00000065
#05956:00250000
#06752:0000001400000063
#0675a:0000000000140000
#0615b:0000000000000063
#06152:0000000000000053
#06258:0063
#06255:0053
#06358:0000000000000053
#06355:0000000000000063
#06452:0063
#0645b:0053
#06552:0000000000000063
#06558:0000000000000063
#0685b:0000530000000023
#06852:0000000000000023
#06655:0063
#0665b:0063
#000360:1222
#000340:00320000
#000350:0000003200000000
#000350:0000000000000013
#001330:00330000
#001350:0023
#002380:1222
#0023a0:00320000
#002390:0000003200000000
#002380:0000000000000013
#0033a0:00330000
#003380:0023
#004320:1400343424000000
#0053a0:14342400
#006390:0000001500000035
#006370:0000000000350000
#007380:00330000
#0073b0:00000023
#006321:0000000000000015
#007351:00330000
#007321:00000023
#0083a1:0000000000000014
#009371:00540000000000000000000000000000
#0093a1:00240000
#009321:0014
#009351:00000023
#010321:0000000000000014
#011351:00540000000000000000000000000000
#011321:00240000
#0113a1:0014
#011381:00000023
#012381:0000000000000014
#0133b1:00530000000000000000000000000000
#013381:00240000
#013341:0014
#013321:00000023
#014321:0000000000000014
#015351:0023
#015380:0013
#0163a0:24
#016340:0000000000000012
#017360:00220000
#0183a0:0000000000000012
#019380:00220000
#0203a0:13
#020380:0000333300000000
#0203b0:0023
#021330:13
#021350:0000333300000000
#021320:0023
#021350:0000000000000013
#022320:00230000
#022380:0000001300000000
#0223b0:00000023
#022340:0000000000000013
#023320:0027
#023380:0000000000000013
#024380:0023000000000000
#024350:0000000000000013
#025350:0023000000000000
#0263b0:13
#026380:00230000
#026320:0000001300000033
#026350:0000000000330000
#027350:0033230000000000
#030380:0000000000000014
#0313b0:00000053000000000000000000000000
#031380:0024
#032320:16
#033360:33
#034320:26
#034381:16
#035371:33
#036381:26
#036381:0000000000000013
#0373b1:0033330000000000
#037381:0023
#039391:0000000000000015
#040361:00000055000000000000000000000000
#040391:0025
#043321:0000000000000013
#044351:0033330000000000
#044321:00000023
#044381:0000000000000013
#0453b1:00530000000000000000000000000000
#045381:00230000
#045351:00001323
#045321:0000000000530000
#0463b1:13
#046381:00230000
#046350:13
#046320:00230000
#046320:0013
#046350:00000023
#046381:0013
#0463b1:00000023
#047321:0000000000000015
#048351:00000055000000000000000000000000
#048321:0025
#049331:00000015
#050331:25
#0503b1:0000000000000013
#051381:0033000000002300
#0513b1:00000000000000530000000000000000
#052351:13
#052321:0023
#053321:1300000000330000
#053351:0000333300000023
#054381:00130000
#0543b1:0023
#058381:00000016
#059361:00550000
#059391:00000035
#060361:00000024
#0613b1:0000000000000013
#062381:00230000
#061320:0000000000000013
#062350:00230000
#062350:0013
#062320:00000023
#062381:0013
#0623b1:00000023
#063381:0000000000000013
#0643b1:00230000
#063350:0000000000000013
#064320:00230000
#064320:0013
#064350:00000023
#0643b1:0013
#064381:00000023
#065321:0000000000000013
#066351:00230000
#065380:0000000000000013
#0663b0:00230000
#0663b0:0013
#066380:00000023
#066351:0013
#066321:00000023
#067321:0000000000000013
#068351:0053000000330000
#068321:0000000000003333
#071321:26
#0683b0:0000130000003333
#068380:0000000053330000
#071380:26
#041980:0000000000000013
#0419a0:0000000000000000000000000000000000000000000000000000000000230000
#042950:0013000000000000
#042930:0000000000230000000000000000000000000000000000000000000000000000
#042980:0000001300000000
#0429a0:0000000000000000000000000023000000000000000000000000000000000000
#042950:0000000000130000
#042930:0000000000000000000000000000000000000000002300000000000000000000
