This file was generated by Ched 2.7.0.0.
#TITLE ""
#ARTIST ""
#DESIGNER ""
#DIFFICULTY 0
#PLAYLEVEL
#SONGID ""
#WAVE ""
#WAVEOFFSET 0
#JACKET ""
#REQUEST "ticks_per_beat 480"
#00002: 4
#BPM01: 176
#00008: 01
#TIL00: ""
#VOLUME: ""
#HISPEED 00
#MEASUREHS 00
#0011a:1414
#00114:00140000
#00212:1414
#00218:00140000
#0031a:1414
#00314:00140000
#00412:1414
#00418:00140000
#0051a:14
#00514:00140000
#00518:0014
#00512:00000014
#0061a:14343400
#00712:14
#00718:00140000
#00714:0014
#0071a:00000014
#00812:14340000
#0091a:14
#00914:0014
#00910:41
#01018:14
#01012:0014
#0111a:14
#01114:00140000
#01118:0014
#01112:00000014
#01218:14
#01214:00140000
#0121a:0014
#01312:14
#01318:0014
#01414:14
#0141a:0014
#01512:14
#01518:00140000
#01514:0014
#0151a:00000014
#01614:14
#01618:00140000
#01612:0014
#0171a:1434
#01717:00000014
#01912:1434
#01915:00000014
#01910:41
#0211a:1434
#02117:00000014
#02314:1414
#02318:00140014
#02514:0014
#0251a:24
#02618:14
#02612:00140000
#0261a:0014
#02614:00000014
#02818:14
#02814:00140000
#0281a:0014
#02918:0014
#02912:24
#02910:41
#03014:14
#0301a:00140000
#03012:0014
#03018:00000014
#03114:14140000
#03118:00001414
#03318:0014
#03312:24
#03414:14
#0341a:00140000
#03412:0014
#03418:00000014
#03614:14
#03618:00140000
#03612:0014
#03714:0014
#0371a:24
#03818:14
#03812:00140000
#0381a:0014
#03814:00000014
#03918:14140000
#03914:00001414
#03910:41
#04018:14
#04112:14
#04114:0014
#04212:14
#0431a:14
#04318:0014
#0441a:14
#04512:14
#04518:0014
#04614:14
#0461a:0014
#04712:14
#04818:14
#04914:14
#0491a:0014
#04910:41
#05012:14
#05018:0014
#05112:1414
#05118:00140014
#05214:1414
#0521a:00140014
#0521f:00000011
#05312:15
#05315:00000015
#0551a:1414
#05514:00140000
#05612:1414
#05618:00140000
#0571a:1414
#05714:00140000
#05812:1414
#05818:00140000
#0591a:14
#05914:00140000
#05918:0014
#05912:00000014
#0601a:14
#06014:00140000
#06018:0014
#06012:00000014
#06114:0014
#0611a:24
#0611f:21
#06110:0000000000000041
#06218:14
#06212:00140000
#0621a:0014
#06214:00000014
#0641a:14
#06414:00140000
#06418:0014
#06518:0014
#06512:24
#06614:14
#0661a:00140000
#06612:0014
#06618:00000014
#06714:14140000
#06718:00001414
#06918:0014
#06912:24
#07014:14
#0701a:00140000
#07012:0014
#07018:00000014
#07212:14
#07218:00140000
#07214:0014
#07314:0014
#0731a:24
#07418:14
#07412:00140000
#0741a:0014
#07414:00000014
#07518:14140000
#07514:00001414
#07618:14
#07714:1414
#07718:00140014
#07818:00140000
#07812:2414
#0791a:1414
#07914:00140000
#03212:26
#03218:0000002600000000
#06812:26
#06818:0000002600000000
#08012:26000026
#08018:0000002600000000
#0181a:34
#02012:34
#0221a:34
#0065a:54
#00852:64
#0175a:54
#01757:00000024
#01952:64
#01955:00000024
#0215a:54
#02157:00000024
#0255a:14
#0285a:0014
#02952:14
#03652:0014
#03352:14
#0375a:14
#04058:54
#04152:54
#04154:0054
#04252:54
#0435a:64
#04358:0064
#0445a:64
#04752:54
#04858:54
#05352:55
#05355:00000025
#06458:0014
#07254:0014
#07658:54
#0615a:14
#06552:14
#06952:14
#0735a:14
#0063a0:14343400
#006380:00000024
#008320:14340000
#008340:0024
#0173a0:1434
#017370:00000054
#0183a0:3424
#019320:1434
#019350:00000054
#020320:3424
#0213a0:1434
#021370:00000054
#0223a0:3424
#024340:14342400
#027380:14240000
#027320:00001424
#032320:00000014
#033320:24
#035340:14240000
#0353a0:00001424
#040380:14
#0403a0:00000024
#041320:14
#041340:0034
#042320:34
#042340:0024
#0433a0:14
#043380:0034
#0443a0:34
#044380:0024
#047320:14
#047340:0024
#048380:14
#0483a0:0024
#053320:15
#053350:00000055
#054320:0025
#063380:14
#0633a0:00240000
#063320:0014
#063340:00000024
#068320:00000014
#069320:24
#071340:14
#071320:00240000
#0713a0:0014
#071380:00000024
#076380:14
#0763a0:00000024
