This file was generated by Ched 2.7.0.0.
#TITLE ""
#ARTIST ""
#DESIGNER ""
#DIFFICULTY 0
#PLAYLEVEL
#SONGID ""
#WAVE ""
#WAVEOFFSET 0
#JACKET ""
#REQUEST "ticks_per_beat 480"
#00002: 4
#BPM01: 120
#00008: 01
#TIL00: ""
#VOLUME: ""
#HISPEED 00
#MEASUREHS 00
#00118:14
#00218:14
#00314:14
#00414:14
#0051a:14
#0061a:14
#00918:14
#00910:41
#01014:14
#00712:14
#00812:14
#01118:14
#01214:14
#0131a:14
#0131f:11
#01412:14
#0151a:14
#01612:14
#03018:0014
#03014:14
#03218:14
#03214:0014
#0531a:14
#02118:2414
#0211f:21
#02214:1414
#02210:41
#02412:14
#0241a:0014
#03414:1414
#03614:14
#0361a:0014
#02514:2414
#02618:1414
#0281a:14
#02812:0014
#0331a:2414
#03310:41
#03818:1414
#04018:14
#04012:0014
#03712:2414
#05614:14
#05412:14
#05518:14
#04212:1616
#04118:2616
#04412:16
#04418:0016
#04512:2616
#04510:41
#04618:1616
#04818:16
#04812:0016
#05014:14
#05018:0014
#05218:14
#05214:0014
#05110:41
#03910:41
#0173a0:1434
#0183a0:24
#019320:1434
#020320:24
#0233a0:1424
#027320:1424
#0293a0:1424
#031340:1424
#035380:1424
#039340:1424
#043380:1626
#047320:1626
#049380:1626
#051340:1424
#0573a0:1434
#0583a0:3424
#059320:1434
#060320:3434
#062320:0023
