This file was generated by Ched 2.7.0.0.
#TITLE ""
#ARTIST ""
#DESIGNER ""
#DIFFICULTY 0
#PLAYLEVEL
#SONGID ""
#WAVE ""
#WAVEOFFSET 0
#JACKET ""
#REQUEST "ticks_per_beat 480"
#00002: 4
#BPM01: 120
#00008: 01
#TIL00: ""
#VOLUME: ""
#HISPEED 00
#MEASUREHS 00
#0581a:12
#05816:0012
#05814:00000012
#05818:00120000
#06019:12
#06015:0012
#06017:00120000
#00116:1212
#00118:00120012
#00018:0000000000000012
#00215:12
#00217:00120000
#00216:0000000000000012
#00219:0012
#00318:1212
#00316:00120012
#00516:00000012
#0051a:12
#00518:0012
#00514:00120000
#0061a:1200000000000012
#00617:00120000
#00614:0012
#00815:0000000000000013
#00814:12
#00817:00120000
#0081a:0012
#00918:1313
#00912:0013000000000000
#00915:00000013
#0091b:00130000
#00910:41
#01715:0000001300000000
#0171b:0013
#01712:0000000000000013
#01818:1300000000000013
#01915:1313
#0191b:0000001300000000
#01918:0000000000000013
#05919:12
#05917:00120012
#05915:0012
#03612:0013000000000000
#03615:0000130000000013
#03618:0000001300001300
#0361b:0013
#00419:12
#00417:00120000
#00415:0012
#00718:00000012
#00714:12
#00716:0012
#0071a:00120000
#01215:1300000000000013
#01218:00130000
#01212:0013
#02012:13
#02018:00000013
#02015:0000000000000013
#03218:1300000013000013
#03215:00130013
#04015:0000001300001300
#04018:0000130000000013
#0401b:0013000000000000
#04012:0013
#0411a:0000001400000000
#04118:0000000000000014
#04112:14
#04114:0014
#0421a:0000001400000000
#04212:1414
#04216:00000014
#0431a:14
#04312:00140000
#04316:0014
#05719:00120000
#05715:00000012
#05717:0012
#03418:0000001300000000
#03415:13000013
#03412:0013
#01418:0000130000000013
#01415:13
#0141b:0013
#02115:0000000000000013
#0211b:13
#02118:0013
#0211f:21
#02415:00130013
#02418:0000001300000013
#02412:0013
#0241b:0013000000000000
#02212:0000001300000000
#0221b:1313
#02215:00000013
#02210:41
#02312:00130000
#02318:13
#02315:0013
#02815:0000001300001300
#02815:00000013
#02818:00130000
#0281b:0013
#02812:0013000000000000
#02518:0000000000000013
#02512:13
#02515:0013
#0261b:0000001300000000
#02612:1313
#02618:00000013
#02718:0013
#0271b:00130000
#02715:13
#03018:0000001300001300
#03018:00000013
#03015:00130000
#0301b:0013000000000000
#03012:0013
#0291b:13
#02918:00130000
#0291a:0013
#03112:13
#03115:00130000
#03113:0013
#03315:13
#03312:0013
#0331b:13
#03318:0000000013000013
#03310:41
#0351b:0000000000000000130000000000000033000013000000000000000000000000
#03519:00000000000000000000000000000000000000000000000013000000001300000000000000000000000000000000000000000000000000000000000000000000
#03815:0000001300000000
#03818:13000013
#0381b:0013
#03718:13
#0371b:0013
#03712:13
#03715:0000000013000013
#01018:00130000
#01015:0013
#0101b:0000000000000013
#01012:13
#01118:0013
#01112:13
#01115:00130000
#0111b:00000013
#0441a:0014000000000000
#04414:0000140000000014
#04418:0000001400001400
#04412:0014
#04512:0000001400000000
#04514:0000000000000014
#0451a:14
#04518:0014
#04510:41
#04612:0000001400000000
#0461a:1414
#04616:00000014
#04712:14
#0471a:00140000
#04716:0014
#04812:0014000000000000
#04818:00142600
#04814:0000001400000000
#04815:00000026
#01318:1313
#01315:00130000
#01312:00000013
#0131f:11
#01515:1313
#01518:00130000
#0151b:00000013
#01615:00130013
#01618:1300000000000013
#01612:0013
#03912:0000000000000000130000000000000033000013000000000000000000000000
#03914:00000000000000000000000000000000000000000000000013000000001300000000000000000000000000000000000000000000000000000000000000000000
#03910:41
#0491b:00130000
#04918:00000013
#04912:2613
#04915:0000000000000013
#0501b:0013000000001300
#05015:00130000
#05018:0000001300000000
#05012:0013
#05113:13
#0511a:00130000
#05114:0013
#05119:00000013
#05110:41
#05215:1300000013000013
#05218:00130013
#05412:0013000000000000
#05418:00130013
#05415:0000001300000000
#0541b:0013
#0531b:0000001300000000
#05318:13
#0551b:1300000000000013
#05518:0013
#05512:0013
#05515:0000000000000013
#05618:0000001300000000
#05612:0000001300000000
#0215b:63
#02158:0053
#02352:0000530000000013
#02355:0023
#0225b:63
#02552:53
#02555:0063
#02758:0023
#0275b:0000630000000013
#02652:53
#0295b:63
#02958:00530000
#0295a:0063
#02959:00000013
#03152:53
#03155:00630000
#03153:0053
#03355:63
#03352:0053
#0335b:63
#03358:0053
#03455:63000063
#03452:0053
#03552:13
#0355b:0000000000000000630000000000000000000023000000000000000000000000
#03559:00000000000000000000000000000000000000000000000023000000005300000000000000000000000000000000000000000000000000000000000000000000
#03558:0000000000000013
#03758:53
#0375b:0063
#03752:53
#03755:0063
#03858:53000053
#0385b:0063
#0395b:13
#03952:0000000000000000530000000000000000000023000000000000000000000000
#03954:00000000000000000000000000000000000000000000000023000000006300000000000000000000000000000000000000000000000000000000000000000000
#03955:0000000000000013
#0435a:14
#04352:0000540000000014
#04356:0024
#04152:54
#04154:0064
#04252:54
#04752:14
#0475a:0000640000000014
#04756:0024
#0455a:64
#04558:0054
#0465a:64
#0535b:0000006300000000
#05358:5300000000000013
#0545b:0063
#05458:00000053
#0555b:6300000000000063
#05558:0053
#05552:0053
#05555:0000000000000063
#05658:0000002300000000
#05652:0000002300000000
#0575b:13
#05755:13
#0213b0:13000023
#021380:0000003333000000
#0223b0:13
#022380:00230000
#023320:0000130000003323
#023350:0033
#025320:13000023
#025350:0000003333000000
#026320:13
#026350:00230000
#0273b0:0000130000003323
#027380:0033
#0293b0:13
#029380:00330000
#0293a0:0033
#029390:00000023
#031320:13
#031350:00330000
#031330:0033
#031340:00000023
#033350:13000023
#033320:0000003333000000
#0333b1:13000023
#033381:0000003333000000
#034351:13
#034321:00230000
#034321:0013
#034351:00000033
#035321:23
#0353b1:0000000000000000130000000000000033000053000000000000000000000000
#035391:00000000000000000000000000000000000000000000000053000000005300000000000000000000000000000000000000000000000000000000000000000000
#035381:0000000000003323
#037381:13000023
#0373b1:0000003333000000
#037320:13000023
#037350:0000003333000000
#038380:13
#0383b0:00230000
#0383b0:0013
#038380:00000033
#0393b0:23
#039320:0000000000000000130000000000000033000053000000000000000000000000
#039340:00000000000000000000000000000000000000000000000053000000005300000000000000000000000000000000000000000000000000000000000000000000
#039350:0000000000003323
#041320:14
#041340:00240000
#041340:0014
#041320:00000024
#042320:14
#042340:00240000
#043320:0000140000003424
#043360:0034
#0453a0:14
#045380:00240000
#045380:0014
#0453a0:00000024
#0463a0:14
#046380:00240000
#0473a0:0000140000003424
#047360:0034
#053380:1300000000003323
#0533b0:0000003300000000
#0543b0:0013
#054380:00000033
#0553b0:3300000000003333
#055380:0000003333000000
#056380:0000005300000000
#0563b0:0000000000000033
#0573b0:23
#055321:0000001333000000
#055351:0000000000003333
#056321:0000005300000000
#056351:0000000000000033
#057351:23
#060950:0012
#062950:0022
