This file was generated by Ched 2.7.0.0.
#TITLE ""
#ARTIST ""
#DESIGNER ""
#DIFFICULTY 0
#PLAYLEVEL
#SONGID ""
#WAVE ""
#WAVEOFFSET 0
#JACKET ""
#REQUEST "ticks_per_beat 480"
#00002: 4
#BPM01: 120
#00008: 01
#TIL00: ""
#VOLUME: ""
#HISPEED 00
#MEASUREHS 00
#02412:0014
#02414:14
#02418:00140000
#04212:0000001400000000
#0421a:00242400
#04214:24000024
#05318:0014
#00118:1414
#00218:1414
#00314:1414
#00414:1414
#0051a:1414
#00612:1414
#0091a:14
#00912:0014
#00910:41
#01018:1414
#01014:00140000
#00718:1414
#00814:1414
#01112:14
#0111a:0014
#01214:1414
#01218:00140000
#0131a:14
#01314:0014
#0131f:11
#01418:14
#0141a:0014
#01412:00140000
#01512:14
#01518:0014
#01614:14
#01612:0014
#0161a:00140000
#01718:1414
#01818:1414
#01914:1414
#02014:1414
#0211a:14
#02114:0000000000000014
#0211f:21
#02218:14
#02212:00140000
#02219:0014
#02213:00000014
#02210:41
#02518:14
#02512:0000000000000014
#0261a:14
#02614:00140000
#02619:0014
#02613:00000014
#02814:14
#02818:00140000
#02812:0014
#0281a:00000014
#0301a:14
#03012:00140000
#03018:0014
#03014:00000014
#03214:14
#03218:00140000
#03212:0014
#0321a:00000014
#0361a:0014
#03618:14
#03614:00140000
#03312:14
#03318:0000000000000014
#03310:41
#03414:14
#0341a:00140000
#03413:0014
#03419:00000014
#03714:14
#0371a:0000000000000014
#03812:14
#03818:00140000
#03813:0014
#03819:00000014
#04018:14
#04014:00140000
#0401a:0014
#04012:00000014
#03514:00140000
#03912:00140000
#03910:41
#0271a:00140000
#02318:00140000
#04118:0000000000000014
#04112:00240000
#0411a:2424
#04114:00000024
#0461a:0000001400000000
#04612:00242400
#04618:24000024
#04514:0000000000000014
#0451a:00240000
#04512:2424
#04518:00000024
#04510:41
#05412:14
#0541a:00140000
#05414:0014
#05418:00000014
#05515:0000003414000000
#05512:1400000000003414
#05718:0014
#05814:14
#05818:0014
#0441a:00240000
#04416:24
#04414:0024
#04418:00000024
#04314:00240000
#0431a:0024
#04312:00000024
#04318:24
#04918:00240000
#04914:00000024
#04916:0024
#0491a:24
#05012:2424
#0501a:00240000
#05016:00000024
#04812:00240000
#04816:24
#04818:0024
#04814:00000024
#04718:00240000
#04712:0024
#0471a:00000024
#04714:24
#05115:00240000
#05114:00000024
#05119:0024
#0511a:24
#05110:41
#05213:00240000
#05212:00000024
#05217:0024
#05218:24
#06212:0053
#02452:0014
#05358:0054
#0535a:00000014
#0215a:64
#02558:54
#02954:00000014
#03158:0014
#0365a:0014
#03352:54
#03754:64
#0415a:14
#03554:00640000
#03952:00540000
#0275a:00640000
#02358:00540000
#04552:14
#05555:0064
#05552:5400000000000054
#05754:14
#0213a0:14
#021380:0024
#0233a0:14000024
#023380:00340000
#025380:14
#0253a0:0024
#027380:14000024
#0273a0:00340000
#029320:1434
#029340:00340024
#031380:1424
#0313a0:00340000
#033320:14
#033340:0024
#035320:14000024
#035340:00340000
#037340:14
#037320:0024
#039340:14000024
#039320:00340000
#0533a0:14000024
#053380:0034
#055320:1400000000003434
#055350:0000003434000000
#056340:0000000000000034
#057340:24
#059340:14
#059320:0034
#060340:34
#060320:0034
#062320:0023
